Tags
Language
Tags

The Sweet - Live In Concert Denmark 1976 (2010) {ZYX Music}

Posted By: TestTickles
The Sweet - Live In Concert Denmark 1976 (2010) {ZYX Music}

The Sweet - Live In Concert Denmark 1976 (2010) {ZYX Music}
EAC Rip | FLAC with CUE and LOG | scans | 528 mb
MP3 CBR 320 kbps | RAR | 175 mb
Genre: glam rock, classic rock

Live In Concert Denmark 1976 is an official 2010 live compact disc by British glam rock band The Sweet, who were also known as Sweet. This was released by ZYX Music.

The Sweet - Live In Concert Denmark 1976 (2010) {ZYX Music}

01. Ballroom Blitz (4:02)
02. Yesterday's Rain (5:09)
03. Someone Else Will/Blockbuster (5:44)
04. Restless (6:11)
05. Cockroach (5:04)
06. Burn On The Flame/Healer (7:00)
07. AC/DC (4:20)
08. Keep It In (2:40)
09. Man With The Golden Arm (Mick Tucker Drum Solo) (9:43)
10. The Lies In Your Eyes (3:26)
11. The Six Teens (4:51)
12. Turn It Down (3:31)
13. Action (4:05)
14. Set Me Free (4:02)
15. Fox On The Run (4:00)

Exact Audio Copy V0.99 prebeta 5 from 4. May 2009

Îò÷¸ò EAC îá èçâëå÷åíèè, âûïîëíåííîì 10. ñòàòñàâã 2011, 11:40

The Sweet / Live In Concert Denmark 1976

Äèñêîâîä: HL-DT-STDVDRAM GSA-T20N Adapter: 1 ID: 0

Ðåæèì ÷òåíèÿ : Äîñòîâåðíîñòü
Èñïîëüçîâàíèå òî÷íîãî ïîòîêà : Äà
Îòêëþ÷åíèå êýøà àóäèî : Äà
Èñïîëüçîâàíèå óêàçàòåëåé C2 : Íåò

Êîððåêöèÿ ñìåùåíèÿ ïðè ÷òåíèè : 667
Ñïîñîáíîñòü ÷èòàòü îáëàñòè Lead-in è Lead-out : Íåò
Çàïîëíåíèå ïðîïóùåííûõ ñýìïëîâ òèøèíîé : Äà
Óäàëåíèå áëîêîâ ñ òèøèíîé â íà÷àëå è êîíöå : Íåò
Ïðè âû÷èñëåíèÿõ CRC èñïîëüçîâàëèñü íóëåâûå ñýìïëû : Äà
Èíòåðôåéñ : Âñòðîåííûé Win32-èíòåðôåéñ äëÿ Win NT/2000

Âûõîäíîé ôîðìàò : Ïîëüçîâàòåëüñêèé êîäèðîâùèê
Âûáðàííûé áèòðåéò : 768 kBit/s
Êà÷åñòâî : Âûñîêèé
Äîáàâëåíèå ID3-òýãà : Íåò
Óòèëèòà ñæàòèÿ : C:\Program Files\Exact Audio Copy\FLAC\FLAC.EXE
Äîïîëíèòåëüíûå ïàðàìåòðû : -8 -V %s


TOC èçâëå÷¸ííîãî CD

Òðåê | Ñòàðò | Äëèòåëüíîñòü | Íà÷àëüíûé ñåêòîð | Êîíå÷íûé ñåêòîð
––––––––––––––––––––––––––––––––––-
1 | 0:00.00 | 4:00.41 | 0 | 18040
2 | 4:00.41 | 5:20.68 | 18041 | 42108
3 | 9:21.34 | 5:50.39 | 42109 | 68397
4 | 15:11.73 | 6:06.16 | 68398 | 95863
5 | 21:18.14 | 4:49.55 | 95864 | 117593
6 | 26:07.69 | 7:24.28 | 117594 | 150921
7 | 33:32.22 | 4:03.00 | 150922 | 169146
8 | 37:35.22 | 2:31.42 | 169147 | 180513
9 | 40:06.64 | 9:46.72 | 180514 | 224535
10 | 49:53.61 | 3:24.20 | 224536 | 239855
11 | 53:18.06 | 4:49.34 | 239856 | 261564
12 | 58:07.40 | 3:33.31 | 261565 | 277570
13 | 61:40.71 | 4:02.65 | 277571 | 295785
14 | 65:43.61 | 4:03.11 | 295786 | 314021
15 | 69:46.72 | 4:04.10 | 314022 | 332331


Õàðàêòåðèñòèêè äèàïàçîíà èçâëå÷åíèÿ è ñîîáùåíèÿ îá îøèáêàõ

Âûáðàííûé äèàïàçîí

Èìÿ ôàéëà C:\cuntfist\FLAC\The Sweet - Live In Concert Denmark 1976 (2010) [FLAC] {ZYX Music}\The Sweet - Live In Concert Denmark 1976.wav

Ïèêîâûé óðîâåíü 98.8 %
Êà÷åñòâî äèàïàçîíà 99.9 %
CRC òåñòà 2BB5B657
CRC êîïèè 2BB5B657
Êîïèðîâàíèå… OK

Îøèáîê íå ïðîèçîøëî


AccurateRip: ñâîäêà

Òðåê 1 íåò â áàçå äàííûõ
Òðåê 2 íåò â áàçå äàííûõ
Òðåê 3 íåò â áàçå äàííûõ
Òðåê 4 íåò â áàçå äàííûõ
Òðåê 5 íåò â áàçå äàííûõ
Òðåê 6 íåò â áàçå äàííûõ
Òðåê 7 íåò â áàçå äàííûõ
Òðåê 8 íåò â áàçå äàííûõ
Òðåê 9 íåò â áàçå äàííûõ
Òðåê 10 íåò â áàçå äàííûõ
Òðåê 11 íåò â áàçå äàííûõ
Òðåê 12 íåò â áàçå äàííûõ
Òðåê 13 íåò â áàçå äàííûõ
Òðåê 14 íåò â áàçå äàííûõ
Òðåê 15 íåò â áàçå äàííûõ

Íè îäíîãî òðåêà íåò â áàçå AccurateRip

Êîíåö îò÷¸òà


The Sweet - Live In Concert Denmark 1976 (2010) {ZYX Music}


Thank you to the original uploader.