Tags
Language
Tags

VA - The Best Of Country And Western Vol. 1 (199x) {Europa/TEIC}

Posted By:
VA - The Best Of Country And Western Vol. 1 (199x) {Europa/TEIC}

VA - The Best Of Country And Western Vol. 1 (199x) {Europa/TEIC}
EAC Rip | FLAC with LOG | scans | 420 mb
MP3 CBR 320 kbps | RAR | 152 mb
Genre: country

The Best Of Country And Western Vol. 1 is an undated compilation CD but it was most likely released sometime in the 1990's. An album with the same title was originally released in 1986 but some on this disc didn't exist as artists back then. Most of the songs here are the original artists but a few, such as "Six Days On The Road" and "Ode To 10-33", are credited to certain people but it's definitely not them. While the Europa label was German in origin, this CD has the TEIC logo, which means this is an illegal label made in Bulgaria.

VA - The Best Of Country And Western Vol. 1 (199x) {Europa/TEIC}

01. Kenny Rogers - The Gambler
02. Johnny Cash - Wreck Of The Old '97
03. Green - Six Days On The Road
04. Garth Brooks - Against The Grain
05. Dolly Parton - If You Need Me
06. Kenny Rogers - Coward Of The Country
07. Larry Cordie - Highway 40 Blues
08. Willie Nelson - Things To Remember
09. Truman Lankford - Freightliner Fever
10. Reba McEntire - Climb That Mountain High
11. Tanya Tucker - If Your Ain't Busy Tonight
12. Dolly Parton - Hilly Billy Willy
13. Trisha Yearwood - You Done Me Wrong (And That Ain't Right)
14. Kenny Rogers - Lady
15. Willie Nelson - The Golden Clips
16. Kenny Rogers - Ruben James
17. Johnny Cash - Big River
18. Randy Travis - Heart Of Hearts
19. Eddie Rabbitt - Drivin' My Life Away
20. Lynn Anderson - Snowbird
21. S. Buono - Ode To 10-33
22. Johnny Cash - Hey Porter
23. Trisha Yearwood - That's What I Like About You
24. Billie Yo Spears - Try A Little Kindness

Exact Audio Copy V0.99 prebeta 5 from 4. May 2009

Îò÷¸ò EAC îá èçâëå÷åíèè, âûïîëíåííîì 9. êàáäåðÿ 2011, 8:54

VA / The Best Of Country And Western Vol. 1

Äèñêîâîä: Optiarc DVD RW AD-5200A Adapter: 0 ID: 1

Ðåæèì ÷òåíèÿ : Äîñòîâåðíîñòü
Èñïîëüçîâàíèå òî÷íîãî ïîòîêà : Äà
Îòêëþ÷åíèå êýøà àóäèî : Äà
Èñïîëüçîâàíèå óêàçàòåëåé C2 : Íåò

Êîððåêöèÿ ñìåùåíèÿ ïðè ÷òåíèè : 48
Ñïîñîáíîñòü ÷èòàòü îáëàñòè Lead-in è Lead-out : Íåò
Çàïîëíåíèå ïðîïóùåííûõ ñýìïëîâ òèøèíîé : Äà
Óäàëåíèå áëîêîâ ñ òèøèíîé â íà÷àëå è êîíöå : Íåò
Ïðè âû÷èñëåíèÿõ CRC èñïîëüçîâàëèñü íóëåâûå ñýìïëû : Äà
Èíòåðôåéñ : Âñòðîåííûé Win32-èíòåðôåéñ äëÿ Win NT/2000

Âûõîäíîé ôîðìàò : Âíóòðåííèå WAV-îïåðàöèè
Ôîðìàò ñýìïëîâ : 44.100 Ãö; 16 áèò; ñòåðåî


TOC èçâëå÷¸ííîãî CD

Òðåê | Ñòàðò | Äëèòåëüíîñòü | Íà÷àëüíûé ñåêòîð | Êîíå÷íûé ñåêòîð
––––––––––––––––––––––––––––––––––-
1 | 0:00.32 | 3:31.10 | 32 | 15866
2 | 3:31.42 | 2:00.73 | 15867 | 24939
3 | 5:32.40 | 2:12.07 | 24940 | 34846
4 | 7:44.47 | 2:23.08 | 34847 | 45579
5 | 10:07.55 | 2:46.40 | 45580 | 58069
6 | 12:54.20 | 4:32.37 | 58070 | 78506
7 | 17:26.57 | 3:10.63 | 78507 | 92819
8 | 20:37.45 | 1:48.35 | 92820 | 100954
9 | 22:26.05 | 2:42.57 | 100955 | 113161
10 | 25:08.62 | 2:54.68 | 113162 | 126279
11 | 28:03.55 | 3:04.10 | 126280 | 140089
12 | 31:07.65 | 1:57.42 | 140090 | 148906
13 | 33:05.32 | 3:18.65 | 148907 | 163821
14 | 36:24.22 | 3:48.00 | 163822 | 180921
15 | 40:12.22 | 3:42.08 | 180922 | 197579
16 | 43:54.30 | 2:44.35 | 197580 | 209914
17 | 46:38.65 | 2:33.15 | 209915 | 221404
18 | 49:12.05 | 2:42.42 | 221405 | 233596
19 | 51:54.47 | 3:11.35 | 233597 | 247956
20 | 55:06.07 | 2:08.03 | 247957 | 257559
21 | 57:14.10 | 2:36.20 | 257560 | 269279
22 | 59:50.30 | 2:13.37 | 269280 | 279291
23 | 62:03.67 | 2:39.30 | 279292 | 291246
24 | 64:43.22 | 2:34.03 | 291247 | 302799


Õàðàêòåðèñòèêè äèàïàçîíà èçâëå÷åíèÿ è ñîîáùåíèÿ îá îøèáêàõ

Âûáðàííûé äèàïàçîí

Èìÿ ôàéëà C:\cuntfist\FLAC\VA - The Best Of Country And Western Vol. 1 (199x) [FLAC] {Europa, TEIC}\VA - The Best Of Country And Western vol. 1.wav

Ïèêîâûé óðîâåíü 100.0 %
Êà÷åñòâî äèàïàçîíà 100.0 %
CRC òåñòà EA23E511
CRC êîïèè EA23E511
Êîïèðîâàíèå… OK

Îøèáîê íå ïðîèçîøëî


AccurateRip: ñâîäêà

Òðåê 1 íåò â áàçå äàííûõ
Òðåê 2 íåò â áàçå äàííûõ
Òðåê 3 íåò â áàçå äàííûõ
Òðåê 4 íåò â áàçå äàííûõ
Òðåê 5 íåò â áàçå äàííûõ
Òðåê 6 íåò â áàçå äàííûõ
Òðåê 7 íåò â áàçå äàííûõ
Òðåê 8 íåò â áàçå äàííûõ
Òðåê 9 íåò â áàçå äàííûõ
Òðåê 10 íåò â áàçå äàííûõ
Òðåê 11 íåò â áàçå äàííûõ
Òðåê 12 íåò â áàçå äàííûõ
Òðåê 13 íåò â áàçå äàííûõ
Òðåê 14 íåò â áàçå äàííûõ
Òðåê 15 íåò â áàçå äàííûõ
Òðåê 16 íåò â áàçå äàííûõ
Òðåê 17 íåò â áàçå äàííûõ
Òðåê 18 íåò â áàçå äàííûõ
Òðåê 19 íåò â áàçå äàííûõ
Òðåê 20 íåò â áàçå äàííûõ
Òðåê 21 íåò â áàçå äàííûõ
Òðåê 22 íåò â áàçå äàííûõ
Òðåê 23 íåò â áàçå äàííûõ
Òðåê 24 íåò â áàçå äàííûõ

Íè îäíîãî òðåêà íåò â áàçå AccurateRip

Êîíåö îò÷¸òà


VA - The Best Of Country And Western Vol. 1 (199x) {Europa/TEIC}


Thank you to the original uploader.