Tags
Language
Tags

Taj Mahal - Original Album Classics (2011)

Posted By: v3122
Taj Mahal - Original Album Classics (2011)

Taj Mahal - Original Album Classics (2011)
EAC | Flac(Image) + Cue + Log & MP3 CBR 320Kbps
3CD | Columbia, 88697731562 | ~ 661 or 274 Mb | Artwork(jpg) -> 22 Mb
Blues Rock, Country Blues, Rhythm & Blues, Soul

~ Taj Mahal (1968), The Natch’l Blues (1968), Mo' Roots (1974) ~

Taj Mahal (born Henry Saint Clair Fredericks) is an American blues musician, singer-songwriter, multi-instrumentalist, and film composer. He plays the guitar, piano, banjo, harmonica, and many others, often incorporating elements of world music into his work. Mahal has done much to reshape the definition and scope of blues music over the course of his more than 50-year career by fusing it with nontraditional forms, including sounds from the Caribbean, Africa, India, Hawaii, and the South Pacific…

~ wiki
Taj Mahal - Original Album Classics (2011):

Taj Mahal - Original Album Classics (2011)

Tracklist CD1. 1968 - Taj Mahal:

01. Leaving Trunk (04:48)
02. Statesboro Blues (02:57)
03. Checkin' Up On My Baby (04:54)
04. Everybody's Got To Change Sometime (02:56)
05. E Z Rider (03:03)
06. Dust My Broom (02:36)
07. Diving Duck Blues (02:40)
08. The Celebrated Walkin' Blues (08:52)

Exact Audio Copy V1.0 beta 3 from 29. August 2011

EAC extraction logfile from 27. June 2013, 17:41

Taj Mahal / Taj Mahal

Used drive : LITE-ON CD-RW SOHR-5239V Adapter: 0 ID: 0

Read mode : Secure
Utilize accurate stream : Yes
Defeat audio cache : Yes
Make use of C2 pointers : No

Read offset correction : 6
Overread into Lead-In and Lead-Out : No
Fill up missing offset samples with silence : Yes
Delete leading and trailing silent blocks : No
Null samples used in CRC calculations : Yes
Used interface : Native Win32 interface for Win NT & 2000
Gap handling : Appended to previous track

Used output format : User Defined Encoder
Selected bitrate : 1024 kBit/s
Quality : High
Add ID3 tag : No
Command line compressor : C:\Program\Exact Audio Copy\Flac\flac.exe
Additional command line options : -8 -V -T "ARTIST=%artist%" -T "TITLE=%title%" -T "ALBUM=%albumtitle%" -T "DATE=%year%" -T "TRACKNUMBER=%tracknr%" -T "TOTALTRACKS=%numtracks%" -T "GENRE=%genre%" -T "ALBUMARTIST=%albumartist%" -T "ALBUM ARTIST=%albumartist%" -T "COMMENT=EAC Secure Mode, Test & Copy, AccurateRip, FLAC -8" %source%


TOC of the extracted CD

Track | Start | Length | Start sector | End sector
––––––––––––––––––––––––––––-
1 | 0:00.00 | 4:50.67 | 0 | 21816
2 | 4:50.67 | 2:59.48 | 21817 | 35289
3 | 7:50.40 | 4:55.00 | 35290 | 57414
4 | 12:45.40 | 2:57.20 | 57415 | 70709
5 | 15:42.60 | 3:04.25 | 70710 | 84534
6 | 18:47.10 | 2:39.32 | 84535 | 96491
7 | 21:26.42 | 2:42.18 | 96492 | 108659
8 | 24:08.60 | 8:51.72 | 108660 | 148556


Track 1

Filename F:\Music\01 - Leaving Trunk.wav

Pre-gap length 0:00:02.00

Peak level 100.0 %
Extraction speed 5.6 X
Track quality 100.0 %
Test CRC E5568D5E
Copy CRC E5568D5E
Accurately ripped (confidence 6) [3673ACF4] (AR v1)
Copy OK

Track 2

Filename F:\Music\02 - Statesboro Blues.wav

Pre-gap length 0:00:01.25

Peak level 93.3 %
Extraction speed 5.0 X
Track quality 99.9 %
Test CRC 77882C72
Copy CRC 77882C72
Accurately ripped (confidence 6) [5ACFD812] (AR v1)
Copy OK

Track 3

Filename F:\Music\03 - Checkin' Up On My Baby.wav

Pre-gap length 0:00:00.50

Peak level 96.2 %
Extraction speed 6.8 X
Track quality 100.0 %
Test CRC 2B8C1913
Copy CRC 2B8C1913
Accurately ripped (confidence 6) [DBE5EF98] (AR v1)
Copy OK

Track 4

Filename F:\Music\04 - Everybody's Got To Change Sometime.wav

Pre-gap length 0:00:00.43

Peak level 94.2 %
Extraction speed 5.9 X
Track quality 99.9 %
Test CRC E5FD81B0
Copy CRC E5FD81B0
Accurately ripped (confidence 6) [E9E17AF5] (AR v1)
Copy OK

Track 5

Filename F:\Music\05 - E Z Rider.wav

Pre-gap length 0:00:01.03

Peak level 91.2 %
Extraction speed 7.2 X
Track quality 100.0 %
Test CRC CDAB8C7B
Copy CRC CDAB8C7B
Accurately ripped (confidence 6) [76208303] (AR v1)
Copy OK

Track 6

Filename F:\Music\06 - Dust My Broom.wav

Pre-gap length 0:00:00.73

Peak level 93.9 %
Extraction speed 7.0 X
Track quality 100.0 %
Test CRC B6338740
Copy CRC B6338740
Accurately ripped (confidence 6) [E12319BA] (AR v1)
Copy OK

Track 7

Filename F:\Music\07 - Diving Duck Blues.wav

Pre-gap length 0:00:02.67

Peak level 96.6 %
Extraction speed 7.6 X
Track quality 100.0 %
Test CRC 4C5002AA
Copy CRC 4C5002AA
Accurately ripped (confidence 6) [605AD47E] (AR v1)
Copy OK

Track 8

Filename F:\Music\08 - The Celebrated Walkin' Blues.wav

Pre-gap length 0:00:01.58

Peak level 93.6 %
Extraction speed 9.2 X
Track quality 100.0 %
Test CRC E4D0A8DD
Copy CRC E4D0A8DD
Accurately ripped (confidence 6) [D38B96BC] (AR v1)
Copy OK


All tracks accurately ripped

No errors occurred

End of status report

==== Log checksum 618976D9B162CD62E19162528C3847DD191D33991763E9EF89BFB11379C1710F ====


[CUETools log; Date: 11.01.2021 9:11:08; Version: 2.1.4]
[AccurateRip ID: 00098374-003ee43e-6b07bc08] found.
Track [ CRC | V2 ] Status
01 [3673acf4|c3849aba] (06+23/95) Accurately ripped
02 [5acfd812|05de3efb] (06+23/95) Accurately ripped
03 [dbe5ef98|3b71802a] (06+23/95) Accurately ripped
04 [e9e17af5|f070f960] (06+23/96) Accurately ripped
05 [76208303|438ab2a7] (06+23/95) Accurately ripped
06 [e12319ba|7a491d49] (06+23/95) Accurately ripped
07 [605ad47e|9ae203a9] (06+23/96) Accurately ripped
08 [d38b96bc|b60582a7] (06+23/95) Accurately ripped
Offsetted by 12:
01 [06a21d10] (04/95) Accurately ripped
02 [6cdb9b3a] (04/95) Accurately ripped
03 [3b8a78f4] (04/95) Accurately ripped
04 [2c2b57bd] (04/96) Accurately ripped
05 [ab3785fb] (04/95) Accurately ripped
06 [340ebf0a] (04/95) Accurately ripped
07 [536366b6] (04/96) Accurately ripped
08 [70151de2] (04/95) Accurately ripped
Offsetted by 18:
01 [eeb9551e] (00/95) No match (V2 was not tested)
02 [75e17cce] (00/95) No match (V2 was not tested)
03 [6b5cbda2] (00/95) No match (V2 was not tested)
04 [cd504621] (00/96) No match (V2 was not tested)
05 [45c30777] (00/95) No match (V2 was not tested)
06 [5d8491b2] (00/95) No match (V2 was not tested)
07 [4ce7afd2] (00/96) No match (V2 was not tested)
08 [a944e1ab] (00/95) No match (V2 was not tested)

Track Peak [ CRC32 ] [W/O NULL] [ LOG ]
– 100,0 [39FBBF0C] [1BE31CB4]
01 100,0 [E5568D5E] [E77A561B] CRC32
02 93,3 [77882C72] [8F03A36D] CRC32
03 96,2 [2B8C1913] [B56144D0] CRC32
04 94,2 [E5FD81B0] [1EEE75E0] CRC32
05 91,2 [CDAB8C7B] [ED903A35] CRC32
06 93,9 [B6338740] [1FC2947F] CRC32
07 96,6 [4C5002AA] [D7471084] CRC32
08 93,6 [E4D0A8DD] [9DAB751E] CRC32


Taj Mahal - Original Album Classics (2011)

Tracklist CD2. 1968 - The Natch’l Blues:

01. Good Morning Miss Brown (03:16)
02. Corinna (03:01)
03. I Ain't Gonna Let Nobody Steal My Jellyroll (03:13)
04. Going Up To The Country, Paint My Mailbox Blue (03:35)
05. Done Changed My Way Of Living (07:04)
06. She Caught The Katy And Left Me A Mule To Ride (03:27)
07. The Cuckoo (04:15)
08. You Don't Miss Your Water ('Til Your Well Runs Dry) (04:25)
09. A Lot Of Love (04:01)
10. The Cuckoo (Alternate Version) (03:20)
11. New Stranger Blues (05:39)
12. Things Are Gonna Work Out Fine (03:17)

Exact Audio Copy V1.0 beta 3 from 29. August 2011

EAC extraction logfile from 27. June 2013, 18:20

Taj Mahal / The Natch'l Blues

Used drive : LITE-ON CD-RW SOHR-5239V Adapter: 0 ID: 0

Read mode : Secure
Utilize accurate stream : Yes
Defeat audio cache : Yes
Make use of C2 pointers : No

Read offset correction : 6
Overread into Lead-In and Lead-Out : No
Fill up missing offset samples with silence : Yes
Delete leading and trailing silent blocks : No
Null samples used in CRC calculations : Yes
Used interface : Native Win32 interface for Win NT & 2000
Gap handling : Appended to previous track

Used output format : User Defined Encoder
Selected bitrate : 1024 kBit/s
Quality : High
Add ID3 tag : No
Command line compressor : C:\Program\Exact Audio Copy\Flac\flac.exe
Additional command line options : -8 -V -T "ARTIST=%artist%" -T "TITLE=%title%" -T "ALBUM=%albumtitle%" -T "DATE=%year%" -T "TRACKNUMBER=%tracknr%" -T "TOTALTRACKS=%numtracks%" -T "GENRE=%genre%" -T "ALBUMARTIST=%albumartist%" -T "ALBUM ARTIST=%albumartist%" -T "COMMENT=EAC Secure Mode, Test & Copy, AccurateRip, FLAC -8" %source%


TOC of the extracted CD

Track | Start | Length | Start sector | End sector
––––––––––––––––––––––––––––-
1 | 0:00.00 | 3:16.62 | 0 | 14761
2 | 3:16.62 | 3:03.50 | 14762 | 28536
3 | 6:20.37 | 3:14.50 | 28537 | 43136
4 | 9:35.12 | 3:38.28 | 43137 | 59514
5 | 13:13.40 | 7:04.72 | 59515 | 91386
6 | 20:18.37 | 3:30.13 | 91387 | 107149
7 | 23:48.50 | 4:16.32 | 107150 | 126381
8 | 28:05.07 | 4:26.70 | 126382 | 146401
9 | 32:32.02 | 4:11.18 | 146402 | 165244
10 | 36:43.20 | 3:21.50 | 165245 | 180369
11 | 40:04.70 | 5:41.37 | 180370 | 205981
12 | 45:46.32 | 3:17.08 | 205982 | 220764


Track 1

Filename F:\Music\01 - Good Morning Miss Brown.wav

Pre-gap length 0:00:02.00

Peak level 96.5 %
Extraction speed 5.1 X
Track quality 100.0 %
Test CRC CE5FCC67
Copy CRC CE5FCC67
Accurately ripped (confidence 7) [F19AB01A] (AR v1)
Copy OK

Track 2

Filename F:\Music\02 - Corinna.wav

Pre-gap length 0:00:00.40

Peak level 99.9 %
Extraction speed 5.6 X
Track quality 100.0 %
Test CRC BE7A0943
Copy CRC BE7A0943
Accurately ripped (confidence 7) [D38E2B73] (AR v1)
Copy OK

Track 3

Filename F:\Music\03 - I Ain't Gonna Let Nobody Steal My Jellyroll.wav

Pre-gap length 0:00:01.12

Peak level 100.0 %
Extraction speed 6.1 X
Track quality 100.0 %
Test CRC 02029105
Copy CRC 02029105
Accurately ripped (confidence 7) [1556C1E3] (AR v1)
Copy OK

Track 4

Filename F:\Music\04 - Going Up To The Country, Paint My Mailbox Blue.wav

Pre-gap length 0:00:01.35

Peak level 100.0 %
Extraction speed 6.6 X
Track quality 100.0 %
Test CRC 6046F1D8
Copy CRC 6046F1D8
Accurately ripped (confidence 7) [EE458A2D] (AR v1)
Copy OK

Track 5

Filename F:\Music\05 - Done Changed My Way Of Living.wav

Pre-gap length 0:00:01.15

Peak level 100.0 %
Extraction speed 7.3 X
Track quality 99.9 %
Test CRC 9BD9AE92
Copy CRC 9BD9AE92
Accurately ripped (confidence 7) [6A1A75F5] (AR v1)
Copy OK

Track 6

Filename F:\Music\06 - She Caught The Katy And Left Me A Mule To Ride.wav

Pre-gap length 0:00:01.30

Peak level 100.0 %
Extraction speed 6.8 X
Track quality 99.9 %
Test CRC 031F4576
Copy CRC 031F4576
Accurately ripped (confidence 7) [D0B9FB2D] (AR v1)
Copy OK

Track 7

Filename F:\Music\07 - The Cuckoo.wav

Pre-gap length 0:00:01.33

Peak level 100.0 %
Extraction speed 8.4 X
Track quality 100.0 %
Test CRC 23863962
Copy CRC 23863962
Accurately ripped (confidence 7) [643527B0] (AR v1)
Copy OK

Track 8

Filename F:\Music\08 - You Don't Miss Your Water ('Till Your Well Runs Dry).wav

Pre-gap length 0:00:01.40

Peak level 100.0 %
Extraction speed 7.9 X
Track quality 99.9 %
Test CRC CBD40173
Copy CRC CBD40173
Accurately ripped (confidence 7) [1FD86E96] (AR v1)
Copy OK

Track 9

Filename F:\Music\09 - Ain't That A Lot Of Love.wav

Pre-gap length 0:00:01.35

Peak level 100.0 %
Extraction speed 9.1 X
Track quality 100.0 %
Test CRC 392C406C
Copy CRC 392C406C
Accurately ripped (confidence 7) [A828BF7D] (AR v1)
Copy OK

Track 10

Filename F:\Music\10 - The Cuckoo (Alternate Version) [bonus track].wav

Pre-gap length 0:00:10.00

Peak level 98.8 %
Extraction speed 9.2 X
Track quality 100.0 %
Test CRC 56B1A27F
Copy CRC 56B1A27F
Accurately ripped (confidence 7) [626F3E1C] (AR v1)
Copy OK

Track 11

Filename F:\Music\11 - New Stranger Blues [bonus track].wav

Pre-gap length 0:00:02.00

Peak level 98.8 %
Extraction speed 8.9 X
Track quality 100.0 %
Test CRC ECC75E51
Copy CRC ECC75E51
Accurately ripped (confidence 7) [38DC794F] (AR v1)
Copy OK

Track 12

Filename F:\Music\12 - Things Are Gonna Work Out Fine [bonus track].wav

Pre-gap length 0:00:02.00

Peak level 98.8 %
Extraction speed 9.5 X
Track quality 100.0 %
Test CRC 8C5891E0
Copy CRC 8C5891E0
Accurately ripped (confidence 7) [E8C1F8FB] (AR v1)
Copy OK


All tracks accurately ripped

No errors occurred

End of status report

==== Log checksum E4446981DF75D468CE7BC390B0481DBFC58B535FB0BB2B7D180FBADBEA21D557 ====


Exact Audio Copy V1.0 beta 3 from 29. August 2011

EAC extraction logfile from 27. June 2013, 18:20

Taj Mahal / The Natch'l Blues

Used drive : LITE-ON CD-RW SOHR-5239V Adapter: 0 ID: 0

Read mode : Secure
Utilize accurate stream : Yes
Defeat audio cache : Yes
Make use of C2 pointers : No

Read offset correction : 6
Overread into Lead-In and Lead-Out : No
Fill up missing offset samples with silence : Yes
Delete leading and trailing silent blocks : No
Null samples used in CRC calculations : Yes
Used interface : Native Win32 interface for Win NT & 2000
Gap handling : Appended to previous track

Used output format : User Defined Encoder
Selected bitrate : 1024 kBit/s
Quality : High
Add ID3 tag : No
Command line compressor : C:\Program\Exact Audio Copy\Flac\flac.exe
Additional command line options : -8 -V -T "ARTIST=%artist%" -T "TITLE=%title%" -T "ALBUM=%albumtitle%" -T "DATE=%year%" -T "TRACKNUMBER=%tracknr%" -T "TOTALTRACKS=%numtracks%" -T "GENRE=%genre%" -T "ALBUMARTIST=%albumartist%" -T "ALBUM ARTIST=%albumartist%" -T "COMMENT=EAC Secure Mode, Test & Copy, AccurateRip, FLAC -8" %source%


TOC of the extracted CD

Track | Start | Length | Start sector | End sector
––––––––––––––––––––––––––––-
1 | 0:00.00 | 3:16.62 | 0 | 14761
2 | 3:16.62 | 3:03.50 | 14762 | 28536
3 | 6:20.37 | 3:14.50 | 28537 | 43136
4 | 9:35.12 | 3:38.28 | 43137 | 59514
5 | 13:13.40 | 7:04.72 | 59515 | 91386
6 | 20:18.37 | 3:30.13 | 91387 | 107149
7 | 23:48.50 | 4:16.32 | 107150 | 126381
8 | 28:05.07 | 4:26.70 | 126382 | 146401
9 | 32:32.02 | 4:11.18 | 146402 | 165244
10 | 36:43.20 | 3:21.50 | 165245 | 180369
11 | 40:04.70 | 5:41.37 | 180370 | 205981
12 | 45:46.32 | 3:17.08 | 205982 | 220764


Track 1

Filename F:\Music\01 - Good Morning Miss Brown.wav

Pre-gap length 0:00:02.00

Peak level 96.5 %
Extraction speed 5.1 X
Track quality 100.0 %
Test CRC CE5FCC67
Copy CRC CE5FCC67
Accurately ripped (confidence 7) [F19AB01A] (AR v1)
Copy OK

Track 2

Filename F:\Music\02 - Corinna.wav

Pre-gap length 0:00:00.40

Peak level 99.9 %
Extraction speed 5.6 X
Track quality 100.0 %
Test CRC BE7A0943
Copy CRC BE7A0943
Accurately ripped (confidence 7) [D38E2B73] (AR v1)
Copy OK

Track 3

Filename F:\Music\03 - I Ain't Gonna Let Nobody Steal My Jellyroll.wav

Pre-gap length 0:00:01.12

Peak level 100.0 %
Extraction speed 6.1 X
Track quality 100.0 %
Test CRC 02029105
Copy CRC 02029105
Accurately ripped (confidence 7) [1556C1E3] (AR v1)
Copy OK

Track 4

Filename F:\Music\04 - Going Up To The Country, Paint My Mailbox Blue.wav

Pre-gap length 0:00:01.35

Peak level 100.0 %
Extraction speed 6.6 X
Track quality 100.0 %
Test CRC 6046F1D8
Copy CRC 6046F1D8
Accurately ripped (confidence 7) [EE458A2D] (AR v1)
Copy OK

Track 5

Filename F:\Music\05 - Done Changed My Way Of Living.wav

Pre-gap length 0:00:01.15

Peak level 100.0 %
Extraction speed 7.3 X
Track quality 99.9 %
Test CRC 9BD9AE92
Copy CRC 9BD9AE92
Accurately ripped (confidence 7) [6A1A75F5] (AR v1)
Copy OK

Track 6

Filename F:\Music\06 - She Caught The Katy And Left Me A Mule To Ride.wav

Pre-gap length 0:00:01.30

Peak level 100.0 %
Extraction speed 6.8 X
Track quality 99.9 %
Test CRC 031F4576
Copy CRC 031F4576
Accurately ripped (confidence 7) [D0B9FB2D] (AR v1)
Copy OK

Track 7

Filename F:\Music\07 - The Cuckoo.wav

Pre-gap length 0:00:01.33

Peak level 100.0 %
Extraction speed 8.4 X
Track quality 100.0 %
Test CRC 23863962
Copy CRC 23863962
Accurately ripped (confidence 7) [643527B0] (AR v1)
Copy OK

Track 8

Filename F:\Music\08 - You Don't Miss Your Water ('Till Your Well Runs Dry).wav

Pre-gap length 0:00:01.40

Peak level 100.0 %
Extraction speed 7.9 X
Track quality 99.9 %
Test CRC CBD40173
Copy CRC CBD40173
Accurately ripped (confidence 7) [1FD86E96] (AR v1)
Copy OK

Track 9

Filename F:\Music\09 - Ain't That A Lot Of Love.wav

Pre-gap length 0:00:01.35

Peak level 100.0 %
Extraction speed 9.1 X
Track quality 100.0 %
Test CRC 392C406C
Copy CRC 392C406C
Accurately ripped (confidence 7) [A828BF7D] (AR v1)
Copy OK

Track 10

Filename F:\Music\10 - The Cuckoo (Alternate Version) [bonus track].wav

Pre-gap length 0:00:10.00

Peak level 98.8 %
Extraction speed 9.2 X
Track quality 100.0 %
Test CRC 56B1A27F
Copy CRC 56B1A27F
Accurately ripped (confidence 7) [626F3E1C] (AR v1)
Copy OK

Track 11

Filename F:\Music\11 - New Stranger Blues [bonus track].wav

Pre-gap length 0:00:02.00

Peak level 98.8 %
Extraction speed 8.9 X
Track quality 100.0 %
Test CRC ECC75E51
Copy CRC ECC75E51
Accurately ripped (confidence 7) [38DC794F] (AR v1)
Copy OK

Track 12

Filename F:\Music\12 - Things Are Gonna Work Out Fine [bonus track].wav

Pre-gap length 0:00:02.00

Peak level 98.8 %
Extraction speed 9.5 X
Track quality 100.0 %
Test CRC 8C5891E0
Copy CRC 8C5891E0
Accurately ripped (confidence 7) [E8C1F8FB] (AR v1)
Copy OK


All tracks accurately ripped

No errors occurred

End of status report

==== Log checksum E4446981DF75D468CE7BC390B0481DBFC58B535FB0BB2B7D180FBADBEA21D557 ====


Taj Mahal - Original Album Classics (2011)

Tracklist CD3. 1974 - Mo' Roots:

01. Johnny Too Bad (03:15)
02. Blackjack Davey (03:44)
03. Big Mama (04:40)
04. Cajun Waltz (06:03)
05. Slave Driver (02:42)
06. Why Did You Have To Desert Me? (05:54)
07. Desperate Lover (02:45)
08. Clara (St. Kitts Woman) (04:35)

Exact Audio Copy V1.0 beta 3 from 29. August 2011

EAC extraction logfile from 27. June 2013, 19:04

Taj Mahal / Mo' Roots

Used drive : LITE-ON CD-RW SOHR-5239V Adapter: 0 ID: 0

Read mode : Secure
Utilize accurate stream : Yes
Defeat audio cache : Yes
Make use of C2 pointers : No

Read offset correction : 6
Overread into Lead-In and Lead-Out : No
Fill up missing offset samples with silence : Yes
Delete leading and trailing silent blocks : No
Null samples used in CRC calculations : Yes
Used interface : Native Win32 interface for Win NT & 2000
Gap handling : Appended to previous track

Used output format : User Defined Encoder
Selected bitrate : 1024 kBit/s
Quality : High
Add ID3 tag : No
Command line compressor : C:\Program\Exact Audio Copy\Flac\flac.exe
Additional command line options : -8 -V -T "ARTIST=%artist%" -T "TITLE=%title%" -T "ALBUM=%albumtitle%" -T "DATE=%year%" -T "TRACKNUMBER=%tracknr%" -T "TOTALTRACKS=%numtracks%" -T "GENRE=%genre%" -T "ALBUMARTIST=%albumartist%" -T "ALBUM ARTIST=%albumartist%" -T "COMMENT=EAC Secure Mode, Test & Copy, AccurateRip, FLAC -8" %source%


TOC of the extracted CD

Track | Start | Length | Start sector | End sector
––––––––––––––––––––––––––––-
1 | 0:00.00 | 3:16.62 | 0 | 14761
2 | 3:16.62 | 3:43.28 | 14762 | 31514
3 | 7:00.15 | 4:42.02 | 31515 | 52666
4 | 11:42.17 | 6:01.43 | 52667 | 79784
5 | 17:43.60 | 2:43.47 | 79785 | 92056
6 | 20:27.32 | 5:54.23 | 92057 | 118629
7 | 26:21.55 | 2:46.22 | 118630 | 131101
8 | 29:08.02 | 4:34.73 | 131102 | 151724


Track 1

Filename F:\Music\01 - Johnny Too Bad.wav

Pre-gap length 0:00:02.00

Peak level 91.9 %
Extraction speed 5.0 X
Track quality 100.0 %
Test CRC DCB977B7
Copy CRC DCB977B7
Accurately ripped (confidence 7) [2D8D1CC9] (AR v1)
Copy OK

Track 2

Filename F:\Music\02 - Blackjack Davey.wav

Pre-gap length 0:00:02.00

Peak level 97.0 %
Extraction speed 5.1 X
Track quality 100.0 %
Test CRC FE3F66E0
Copy CRC FE3F66E0
Accurately ripped (confidence 7) [C201A689] (AR v1)
Copy OK

Track 3

Filename F:\Music\03 - Big Mama.wav

Peak level 80.2 %
Extraction speed 6.6 X
Track quality 100.0 %
Test CRC 1A1F2152
Copy CRC 1A1F2152
Accurately ripped (confidence 7) [8596F60D] (AR v1)
Copy OK

Track 4

Filename F:\Music\04 - Cajun Waltz.wav

Pre-gap length 0:00:01.25

Peak level 72.5 %
Extraction speed 7.4 X
Track quality 100.0 %
Test CRC F905B957
Copy CRC F905B957
Accurately ripped (confidence 7) [F097B282] (AR v1)
Copy OK

Track 5

Filename F:\Music\05 - Slave Driver.wav

Pre-gap length 0:00:02.00

Peak level 95.7 %
Extraction speed 7.2 X
Track quality 100.0 %
Test CRC 65C62D38
Copy CRC 65C62D38
Accurately ripped (confidence 7) [AABEE61C] (AR v1)
Copy OK

Track 6

Filename F:\Music\06 - Why Did You Have To Desert Me.wav

Pre-gap length 0:00:02.00

Peak level 99.1 %
Extraction speed 8.4 X
Track quality 100.0 %
Test CRC 5E7C0C28
Copy CRC 5E7C0C28
Accurately ripped (confidence 7) [945ACF03] (AR v1)
Copy OK

Track 7

Filename F:\Music\07 - Desperate Lover.wav

Peak level 93.3 %
Extraction speed 8.0 X
Track quality 100.0 %
Test CRC 62B073DB
Copy CRC 62B073DB
Accurately ripped (confidence 7) [DF456E8C] (AR v1)
Copy OK

Track 8

Filename F:\Music\08 - Clara (St. Kitts Woman).wav

Pre-gap length 0:00:01.62

Peak level 98.2 %
Extraction speed 9.0 X
Track quality 100.0 %
Test CRC 45E0535C
Copy CRC 45E0535C
Accurately ripped (confidence 7) [B57AB889] (AR v1)
Copy OK


All tracks accurately ripped

No errors occurred

End of status report

==== Log checksum 3ACD7D29746C78A76F1E64E51B7E70D63EC20B888D19671DA686846C6D32830E ====


[CUETools log; Date: 11.01.2021 9:15:54; Version: 2.1.4]
[AccurateRip ID: 000a41f3-00452244-5f07e708] found.
Track [ CRC | V2 ] Status
01 [2d8d1cc9|9d76b6b6] (07+20/40) Accurately ripped
02 [c201a689|137b7606] (07+21/42) Accurately ripped
03 [8596f60d|2c7b1ff9] (07+21/42) Accurately ripped
04 [f097b282|6d3e1ed5] (07+21/42) Accurately ripped
05 [aabee61c|134b4358] (07+21/42) Accurately ripped
06 [945acf03|015e5540] (07+21/42) Accurately ripped
07 [df456e8c|4881ffc1] (07+21/42) Accurately ripped
08 [b57ab889|cee5c765] (07+21/42) Accurately ripped
Offsetted by 12:
01 [5b00bd95] (00/40) No match (V2 was not tested)
02 [1bdb825f] (00/42) No match (V2 was not tested)
03 [4820e0d3] (00/42) No match (V2 was not tested)
04 [5aca13fa] (00/42) No match (V2 was not tested)
05 [1d3bb790] (00/42) No match (V2 was not tested)
06 [59f52839] (00/42) No match (V2 was not tested)
07 [db7d9f9a] (00/42) No match (V2 was not tested)
08 [5aee06df] (00/42) No match (V2 was not tested)

Track Peak [ CRC32 ] [W/O NULL] [ LOG ]
– 99,1 [316384B5] [B5C81202]
01 91,9 [DCB977B7] [F0CAC281] CRC32
02 97,0 [FE3F66E0] [9E110117] CRC32
03 80,2 [1A1F2152] [53B7E248] CRC32
04 72,5 [F905B957] [16FD6079] CRC32
05 95,7 [65C62D38] [15E8C490] CRC32
06 99,1 [5E7C0C28] [2853BAFE] CRC32
07 93,3 [62B073DB] [0586B4EF] CRC32
08 98,2 [45E0535C] [C2B91728] CRC32


Taj Mahal - Original Album Classics (2011)

All thanks go to the original releaser

Taj Mahal in my Blog

Download Taj Mahal - Original Album Classics (2011):