Subcategories
Tags
Language
Tags

Tangerine Dream - Atlantic Walls [Recorded 1988-1997] (1998)

Posted By: gribovar
Tangerine Dream - Atlantic Walls [Recorded 1988-1997] (1998)

Tangerine Dream - Atlantic Walls [Recorded 1988-1997] (1998)
EAC Rip | FLAC (image+.cue+log) - 468 MB | MP3 CBR 320 kbps (LAME 3.93) - 171 MB | Covers included
Genre: Electronic, Berlin School, New Age | RAR 3% Rec. | Label: TDI Music (TDI CD003)

One of the first CDs released by TD's own label TDI in summer 1998 were the compilations Atlantic Bridges and Atlantic Walls, both featuring well-known material of the decade from 1988 to 1997. Atlantic Walls includes tracks from the following albums: "Optical Race" (1988), "Lily On The Beach" (1989), "Melrose" (1990), "Rockoon" (1992), "Turn Of The Tides" (1994), "Tyranny Of Beauty" (1995), "The Dream Mixes" (1995), "TimeSquare" (1997).

Tracklist:
01. Electric Lion
02. Midwinter Night
03. Graffiti Street
04. Crystal Curfew
05. Pictures At An Exhibition
06. Firetongues
07. Mobocaster
08. Three Bikes In The Sky
09. Birdwatchers Dream
10. Too Hot For My Chinchilla
11. Little Blond In The Park Of Attractions
12. Marakesh

Total time: 01:11:48

Exact Audio Copy V0.99 prebeta 5 from 4. May 2009

EAC extraction logfile from 27. January 2010, 14:41

Tangerine Dream / Atlantic Walls

Used drive : ASUS DRW-2014S1 Adapter: 0 ID: 0

Read mode : Secure
Utilize accurate stream : Yes
Defeat audio cache : Yes
Make use of C2 pointers : No

Read offset correction : 6
Overread into Lead-In and Lead-Out : No
Fill up missing offset samples with silence : Yes
Delete leading and trailing silent blocks : No
Null samples used in CRC calculations : Yes
Used interface : Native Win32 interface for Win NT & 2000

Used output format : Internal WAV Routines
Sample format : 44.100 Hz; 16 Bit; Stereo


TOC of the extracted CD

Track | Start | Length | Start sector | End sector
––––––––––––––––––––––––––––-
1 | 0:00.00 | 8:14.55 | 0 | 37104
2 | 8:14.55 | 4:37.47 | 37105 | 57926
3 | 12:52.27 | 4:46.01 | 57927 | 79377
4 | 17:38.28 | 5:01.45 | 79378 | 101997
5 | 22:39.73 | 2:59.72 | 101998 | 115494
6 | 25:39.70 | 6:34.44 | 115495 | 145088
7 | 32:14.39 | 7:23.59 | 145089 | 178372
8 | 39:38.23 | 5:58.72 | 178373 | 205294
9 | 45:37.20 | 6:51.17 | 205295 | 236136
10 | 52:28.37 | 3:47.50 | 236137 | 253211
11 | 56:16.12 | 7:15.38 | 253212 | 285874
12 | 63:31.50 | 8:16.49 | 285875 | 323123


Range status and errors

Selected range

Filename D:\EAC\Tangerine Dream - Atlantic Walls.wav

Peak level 100.0 %
Range quality 100.0 %
Test CRC 33FFE322
Copy CRC 33FFE322
Copy OK

No errors occurred


AccurateRip summary

Track 1 accurately ripped (confidence 2) [79739E5D]
Track 2 accurately ripped (confidence 2) [09ED7F8F]
Track 3 accurately ripped (confidence 2) [077DC1D5]
Track 4 accurately ripped (confidence 2) [51CB0276]
Track 5 accurately ripped (confidence 2) [AE62D403]
Track 6 accurately ripped (confidence 2) [7290D16D]
Track 7 accurately ripped (confidence 2) [E2EC1ACD]
Track 8 accurately ripped (confidence 2) [37E532EA]
Track 9 accurately ripped (confidence 2) [12EA8E66]
Track 10 accurately ripped (confidence 2) [6EC34E68]
Track 11 accurately ripped (confidence 2) [D72F9445]
Track 12 accurately ripped (confidence 2) [BFEE413B]

All tracks accurately ripped

End of status report

[CUETools log; Date: 13.05.2021 14:38:56; Version: 2.1.4]
[CTDB TOCID: CpX5Br77C80Yp2GaXhPyZt3iEp8-] found.
Track | CTDB Status
1 | (27/28) Accurately ripped
2 | (27/28) Accurately ripped
3 | (27/28) Accurately ripped
4 | (26/28) Accurately ripped
5 | (27/28) Accurately ripped
6 | (27/28) Accurately ripped
7 | (26/28) Accurately ripped
8 | (27/28) Accurately ripped
9 | (27/28) Accurately ripped
10 | (27/28) Accurately ripped
11 | (27/28) Accurately ripped
12 | (27/28) Accurately ripped
[AccurateRip ID: 001ecec0-011f6c3c-a610d40c] found.
Track [ CRC | V2 ] Status
01 [79739e5d|1381899a] (09+08/17) Accurately ripped
02 [09ed7f8f|a90e7673] (09+08/17) Accurately ripped
03 [077dc1d5|0838f824] (09+08/17) Accurately ripped
04 [51cb0276|d02d567b] (09+08/17) Accurately ripped
05 [ae62d403|2e75acff] (09+08/17) Accurately ripped
06 [7290d16d|b9621660] (09+08/17) Accurately ripped
07 [e2ec1acd|9e993b4c] (09+08/17) Accurately ripped
08 [37e532ea|a13fa10a] (09+08/17) Accurately ripped
09 [12ea8e66|2e5194f3] (09+08/17) Accurately ripped
10 [6ec34e68|5e795c36] (09+08/17) Accurately ripped
11 [d72f9445|7cbabfd9] (09+08/17) Accurately ripped
12 [bfee413b|a072848d] (09+08/17) Accurately ripped

Track Peak [ CRC32 ] [W/O NULL] [ LOG ]
– 100,0 [33FFE322] [4573F3F4] CRC32
01 100,0 [5CF7D65B] [98D0C2CC]
02 98,1 [16C51B50] [089F1627]
03 100,0 [932C71AA] [0CF0003D]
04 100,0 [2E057911] [7B71006F]
05 96,4 [50CDD337] [92A51D0F]
06 98,1 [4B3DAFBD] [279A8A17]
07 100,0 [B1082BB9] [1D7292E7]
08 100,0 [EAE6BF4E] [DAD9BA52]
09 97,9 [A3C1FB7D] [824A9FFD]
10 100,0 [9D4303D1] [E0EE718E]
11 97,1 [DF9C1021] [D667D7F0]
12 100,0 [B4FC9B49] [4239A9B5]

Thanks to the original releaser

See also:
Tangerine Dream - The Electronic Journey (2010) [10CD Box Set]
Tangerine Dream - The Dream Roots Collection [5CD Box Set] (1996)
Tangerine Dream - Electronic Meditation (1970) [Reissue 1996]
Tangerine Dream - Alpha Centauri (1971) [Reissue 1996]
Tangerine Dream - Alpha Centauri (1971) [Reissue 2011]
Tangerine Dream - Zeit (1972) [Reissue 1996]
Tangerine Dream - Atem (1973) [Reissue 2011]
Tangerine Dream - Phaedra (1974) [Original Edition]
Tangerine Dream - Phaedra (1974) [Definitive Edition 1995]
Tangerine Dream - Rubycon (1975) [Non-remastered, Reissue 1988]
Tangerine Dream - Rubycon (1975) [Definitive Edition 1995]
Tangerine Dream - Ricochet (1975) [Definitive Edition 1995]
Tangerine Dream - Stratosfear (1976) [Definitive Edition 1995]
Tangerine Dream - Encore (1977)
Tangerine Dream - Sorcerer (OST) (1977) [Reissue 2011]
Tangerine Dream - Force Majeure (1979) [Reissue 1995]
Tangerine Dream - Tangram (1980)
Tangerine Dream - Pergamon (1980) [Reissue 1996]
Tangerine Dream - Thief [OST] (1981) [Definitive Edition 1995]
Tangerine Dream - Exit (1981) [Definitive Edition 1995]
Tangerine Dream - White Eagle (1982) [Reissue 1995]
Tangerine Dream - Logos Live (1982) [Definitive Edition 1995]
Tangerine Dream - Hyperborea (1983)
Tangerine Dream - Wavelength [OST] (1983)
Tangerine Dream - Poland - The Warsaw Concert (1984) [Reissue 2011]
Tangerine Dream - Firestarter ...ion Picture Soundtrack] (1984)
Tangerine Dream - Underwater Sunlight (1986) [Non-Remastered]
Tangerine Dream - Underwater Sunlight (1986) [Reissue 1996]
Tangerine Dream - Green Desert [Recorded 1973] (1986)
Tangerine Dream - Legend (OST) (1986) [Reissue 1995]
Tangerine Dream - Tyger (1987) [Reissue 1992, US version]
Tangerine Dream - Tyger (1987) [Reissue 1996]
Tangerine Dream - Three O'Clock High [OST] (1987)
Tangerine Dream - Optical Race (1988)
Tangerine Dream - Live Miles (1988) [Reissue 2003]
Tangerine Dream - Lily On The Beach (1989)
Tangerine Dream - Melrose (1990)
Tangerine Dream - Dead Solid Perfect (OST) (1990)
Tangerine Dream - The Park Is Mine (OST) (1991)
Tangerine Dream - Rockoon (1992) [Reissue 2000]
Tangerine Dream - Deadly Care (OST) (1992)
Tangerine Dream - Quinoa (1992) [Reissue 2009]
Tangerine Dream - The Story Of Tangerine Dream (1992)
Tangerine Dream - Catch Me If You Can (OST) (1994)
Tangerine Dream - Tyranny Of Beauty (1995)
Tangerine Dream - Goblins' Club (1996)
Tangerine Dream - Zoning (OST) (1996)
Tangerine Dream - The Analogue Space Years 1969-1973 (1998)
Tangerine Dream - The Hollywood Years Vol. 1 (1998)
Tangerine Dream - The Hollywood Years Vol. 2 (1998)
Tangerine Dream - Atlantic Bridges [Recorded 1988-1997] (1998)
Tangerine Dream - Antique Dreams (2000)
Tangerine Dream - Soundmill Navigator (2000)
Tangerine Dream - The Bootleg Box Set Vol. 1 [7CD] (2003)
Tangerine Dream - Rockface: Li...ey / San Francisco 1988 (2003)
Tangerine Dream - Purgatorio (2004)
Tangerine Dream - Arizona Live '92 (2004) [Reissue 2009]
Tangerine Dream - Rocking Mars (2005)
Tangerine Dream - Phaedra 2005 (2005) [Japanese Edition 2009]
Tangerine Dream - Cleveland - June 24th 1986 (2005)
Tangerine Dream - Blue Dawn (2006)
Tangerine Dream - The Essential Tangerine Dream (2006)
Tangerine Dream - Plays Tangerine Dream (2006)
Tangerine Dream - One Times One (2007)
Tangerine Dream - Springtime In Nagasaki (2007)
Tangerine Dream - Summer In Nagasaki (2007)
Tangerine Dream - Autumn In Hiroshima (2008)
Tangerine Dream - Views From A Red Train (2008)
Tangerine Dream - Booster (2008)
Tangerine Dream - Booster Vol. 2 (2008)
Tangerine Dream - The Antholog... Space Years Volume One (2008)
Tangerine Dream - Flame (2009)
Tangerine Dream - Booster III (2009)
Tangerine Dream - Axiat [Recorded 1999-2005] (2009)
Tangerine Dream - Music For Sports: Cool Races (2009)
Tangerine Dream - Music For Sports: Power And Motion (2009)
Tangerine Dream - Under Cover - Chapter One (2010)
Tangerine Dream - DM V (Dream Mixes V) (2010)
Tangerine Dream - The Endless Season (2010)
Tangerine Dream - The London Eye Concert (2010)
Tangerine Dream - Zeitgeist Concert [3CD Box Set] (2010)
Tangerine Dream - Mona Da Vinci (2011)
Tangerine Dream - The Virgin Years 1974-1978 [3CD Box Set] (2011)
Tangerine Dream - Booster IV (2011)
Tangerine Dream - Booster V (2012)
Tangerine Dream - The Official...ies Vol.1 [4CD Box Set] (2015)
Tangerine Dream - Live At The Tempodrome Berlin (2006) [DVD]
Tangerine Dream - Live At Coventry Cathedral 1975 (2007) [DVD]
Tangerine Dream - Madcap's Flaming Duty [DVD] (2007)
Tangerine Dream - 35th Phaedra Anniversary Concert [2DVD] (2007)
Edgar Froese - 2 Albums (1974-1995)
Edgar Froese - Ages (1978) [Reissue 1997]
Edgar Froese - Pinnacles (1983)