Tags
Language
Tags

Tangerine Dream - Booster IV (2011)

Posted By: gribovar
Tangerine Dream - Booster IV (2011)

Tangerine Dream - Booster IV (2011)
EAC Rip | FLAC (image+.cue+log) - 963 MB | MP3 CBR 320 kbps (LAME 3.93) - 354 MB | Covers included
Genre: Progressive Electronic, Berlin School | RAR 3% Rec. | Label: Eastgate (048 CD)

Booster IV is in the same tradition as you already know from Booster I, II and III - a compilation of former cupdisc tracks, many new tracks and some older tracks with a new livery. Some tracks you will definitely be familiar with, others are completely fresh and surprising. Booster IV will be especially for those a delicacy who missed out the Purple Diluvial cupdisc which ran out of stock rather quickly in 2008, all three tracks Babylon The Great Has Fallen, Armageddon In The Rose Garden, Part Two and Purple Diluvial (a re-recorded version) are on this compilation.

CD 1 Tracklist:
01. A Streetcar Named Desire (Mellow Tyre Mix)
02. Alchemy Of The Heart 2010
03. Culpa Levis 2010
04. Warhol's New York Walk
05. Dominion 2010
06. A Snail's Dream
07. Arctic Sunrise
08. The Lion Of The Law
09. Solution Of All Problems (Think Pink Mix)
10. Thorns From Heaven
11. Babylon The Great Has Fallen

Total time: 01:14:31

CD 2 Tracklist:
12. Mombasa (Tuareg Remix)
13. Zulu
14. Armageddon In The Rose Garden Part II
15. Going West 2009 (Live In Japan)
16. Devotion
17. Long Island Sunset 2010 (Live In London)
18. Breaching Sky
19. Paddington At Five
20. Purple Diluvial 2011

Total time: 01:15:22

Exact Audio Copy V0.99 prebeta 5 from 4. May 2009

EAC extraction logfile from 20. May 2011, 20:25

Tangerine Dream / Booster IV

Used drive : ASUS DRW-22B2L Adapter: 0 ID: 0

Read mode : Secure
Utilize accurate stream : Yes
Defeat audio cache : Yes
Make use of C2 pointers : No

Read offset correction : 6
Overread into Lead-In and Lead-Out : No
Fill up missing offset samples with silence : Yes
Delete leading and trailing silent blocks : No
Null samples used in CRC calculations : Yes
Used interface : Native Win32 interface for Win NT & 2000

Used output format : Internal WAV Routines
Sample format : 44.100 Hz; 16 Bit; Stereo


TOC of the extracted CD

Track | Start | Length | Start sector | End sector
––––––––––––––––––––––––––––-
1 | 0:00.00 | 8:34.58 | 0 | 38607
2 | 8:34.58 | 6:13.19 | 38608 | 66601
3 | 14:48.02 | 8:10.49 | 66602 | 103400
4 | 22:58.51 | 4:10.56 | 103401 | 122206
5 | 27:09.32 | 5:31.24 | 122207 | 147055
6 | 32:40.56 | 4:23.20 | 147056 | 166800
7 | 37:04.01 | 5:10.39 | 166801 | 190089
8 | 42:14.40 | 6:35.56 | 190090 | 219770
9 | 48:50.21 | 6:19.18 | 219771 | 248213
10 | 55:09.39 | 5:57.24 | 248214 | 275012
11 | 61:06.63 | 13:24.10 | 275013 | 335322


Range status and errors

Selected range

Filename D:\EAC\Tangerine Dream - Booster IV (CD 1).wav

Peak level 98.6 %
Range quality 100.0 %
Test CRC 403B316A
Copy CRC 403B316A
Copy OK

No errors occurred


AccurateRip summary

Track 1 not present in database
Track 2 not present in database
Track 3 not present in database
Track 4 not present in database
Track 5 not present in database
Track 6 not present in database
Track 7 not present in database
Track 8 not present in database
Track 9 not present in database
Track 10 not present in database
Track 11 not present in database

None of the tracks are present in the AccurateRip database

End of status report

[CUETools log; Date: 08.04.2021 2:27:47; Version: 2.1.4]
[CTDB TOCID: PYUrlQBC1mm6OvcuB65qTBE88N8-] found.
Track | CTDB Status
1 | (34/34) Accurately ripped
2 | (34/34) Accurately ripped
3 | (34/34) Accurately ripped
4 | (34/34) Accurately ripped
5 | (34/34) Accurately ripped
6 | (34/34) Accurately ripped
7 | (34/34) Accurately ripped
8 | (34/34) Accurately ripped
9 | (33/34) Accurately ripped
10 | (33/34) Accurately ripped
11 | (31/34) Accurately ripped
[AccurateRip ID: 001d30fe-00f9f5ef-9311760b] found.
Track [ CRC | V2 ] Status
01 [dd636ca0|4f7e1532] (02+04/18) Accurately ripped
02 [d9499b7c|ba842594] (02+04/18) Accurately ripped
03 [21b852cf|285aa519] (02+04/18) Accurately ripped
04 [30ffd9a7|1af61479] (02+04/18) Accurately ripped
05 [89cb1f50|fc1f865d] (02+04/18) Accurately ripped
06 [f2eb3f46|04222332] (02+04/18) Accurately ripped
07 [212ddbe6|ae969fea] (02+04/18) Accurately ripped
08 [3205f78e|bf665871] (02+04/18) Accurately ripped
09 [5a55a911|69f39cf2] (02+04/17) Accurately ripped
10 [dce5fd7f|308a2884] (02+04/17) Accurately ripped
11 [796c105a|e90f78fb] (02+04/16) Accurately ripped
Offsetted by -658:
01 [b22f700a] (00/18) No match (V2 was not tested)
02 [e0ac82f2] (00/18) No match (V2 was not tested)
03 [457fa499] (00/18) No match (V2 was not tested)
04 [05e8187b] (00/18) No match (V2 was not tested)
05 [0d51a97c] (00/18) No match (V2 was not tested)
06 [9cfef910] (00/18) No match (V2 was not tested)
07 [6cc3875e] (00/18) No match (V2 was not tested)
08 [eef683c6] (00/18) No match (V2 was not tested)
09 [d6f58d49] (00/17) No match (V2 was not tested)
10 [97d5fc25] (00/17) No match (V2 was not tested)
11 [8f04a90a] (00/16) No match (V2 was not tested)
Offsetted by -652:
01 [56c2f9bc] (00/18) No match (V2 was not tested)
02 [f1b99da0] (00/18) No match (V2 was not tested)
03 [916d7c2b] (00/18) No match (V2 was not tested)
04 [2dfbc3df] (00/18) No match (V2 was not tested)
05 [7db97b18] (00/18) No match (V2 was not tested)
06 [5df958a2] (00/18) No match (V2 was not tested)
07 [8bfa3036] (00/18) No match (V2 was not tested)
08 [8e4f5c5e] (00/18) No match (V2 was not tested)
09 [5ba89de1] (00/17) No match (V2 was not tested)
10 [0f846dc3] (00/17) No match (V2 was not tested)
11 [76b31f7a] (00/16) No match (V2 was not tested)

Track Peak [ CRC32 ] [W/O NULL] [ LOG ]
– 98,6 [403B316A] [0C3C87E6] CRC32
01 96,8 [C45B706B] [0F63BAB1]
02 96,0 [E6F42FB4] [CB52B729]
03 95,8 [D7C0CC8F] [4900EC18]
04 98,6 [9EEA13B6] [FD063213]
05 98,1 [8093C8A6] [B5E359F7]
06 98,4 [1EEFB598] [75FC313E]
07 98,6 [C0B04C64] [6B7DA0C3]
08 98,6 [A3097F74] [F7790DB1]
09 98,6 [1DA74D1C] [C3F25839]
10 98,6 [A2CCFD54] [A26C00B0]
11 92,9 [84DBF0CB] [76462907]

Exact Audio Copy V0.99 prebeta 5 from 4. May 2009

EAC extraction logfile from 23. May 2011, 20:29

Tangerine Dream / Booster IV

Used drive : ASUS DRW-22B2L Adapter: 0 ID: 0

Read mode : Secure
Utilize accurate stream : Yes
Defeat audio cache : Yes
Make use of C2 pointers : No

Read offset correction : 6
Overread into Lead-In and Lead-Out : No
Fill up missing offset samples with silence : Yes
Delete leading and trailing silent blocks : No
Null samples used in CRC calculations : Yes
Used interface : Native Win32 interface for Win NT & 2000

Used output format : Internal WAV Routines
Sample format : 44.100 Hz; 16 Bit; Stereo


TOC of the extracted CD

Track | Start | Length | Start sector | End sector
––––––––––––––––––––––––––––-
1 | 0:00.00 | 9:41.74 | 0 | 43648
2 | 9:41.74 | 8:28.50 | 43649 | 81798
3 | 18:10.49 | 7:12.13 | 81799 | 114211
4 | 25:22.62 | 4:09.03 | 114212 | 132889
5 | 29:31.65 | 9:08.56 | 132890 | 174045
6 | 38:40.46 | 6:53.46 | 174046 | 205066
7 | 45:34.17 | 4:02.66 | 205067 | 223282
8 | 49:37.08 | 6:22.33 | 223283 | 251965
9 | 55:59.41 | 19:21.72 | 251966 | 339112


Range status and errors

Selected range

Filename D:\EAC\Tangerine Dream - Booster IV (CD 2).wav

Peak level 98.9 %
Range quality 100.0 %
Test CRC 76C8801C
Copy CRC 76C8801C
Copy OK

No errors occurred


AccurateRip summary

Track 1 not present in database
Track 2 not present in database
Track 3 not present in database
Track 4 not present in database
Track 5 not present in database
Track 6 not present in database
Track 7 not present in database
Track 8 not present in database
Track 9 not present in database

None of the tracks are present in the AccurateRip database

End of status report

[CUETools log; Date: 08.04.2021 2:28:16; Version: 2.1.4]
[CTDB TOCID: O6iiR1CrSgJ1TBxO7QkTaZ.naV4-] found.
Track | CTDB Status
1 | (35/35) Accurately ripped
2 | (35/35) Accurately ripped
3 | (35/35) Accurately ripped
4 | (35/35) Accurately ripped
5 | (35/35) Accurately ripped
6 | (35/35) Accurately ripped
7 | (35/35) Accurately ripped
8 | (35/35) Accurately ripped
9 | (31/35) Accurately ripped
[AccurateRip ID: 0017e549-00ada08b-7f11a909] found.
Track [ CRC | V2 ] Status
01 [91bd1834|071a2f76] (02+04/18) Accurately ripped
02 [3e52814f|a8af4365] (02+04/18) Accurately ripped
03 [d6cfaeba|f936488b] (02+04/18) Accurately ripped
04 [870a680b|e65b4b62] (02+04/17) Accurately ripped
05 [5c5ff73f|f50366e4] (02+04/18) Accurately ripped
06 [bcea38e1|baa44d19] (02+04/18) Accurately ripped
07 [73d1298f|30e3d530] (02+04/18) Accurately ripped
08 [288c1960|d1e6e965] (02+03/17) Accurately ripped
09 [f3f1564e|f8434387] (02+03/15) Accurately ripped
Offsetted by -658:
01 [2028e31a] (00/18) No match (V2 was not tested)
02 [02e24fcf] (00/18) No match (V2 was not tested)
03 [05d67bc2] (00/18) No match (V2 was not tested)
04 [d2a6617d] (00/17) No match (V2 was not tested)
05 [a99aad0f] (00/18) No match (V2 was not tested)
06 [a8c82a79] (00/18) No match (V2 was not tested)
07 [c17fdf49] (00/18) No match (V2 was not tested)
08 [d6f7426a] (00/17) No match (V2 was not tested)
09 [d9d55432] (00/15) No match (V2 was not tested)
Offsetted by -652:
01 [bc0a55f8] (00/18) No match (V2 was not tested)
02 [e6a2c04f] (00/18) No match (V2 was not tested)
03 [a4ec356a] (00/18) No match (V2 was not tested)
04 [ea1501d7] (00/17) No match (V2 was not tested)
05 [f6b6271f] (00/18) No match (V2 was not tested)
06 [dc5233f1] (00/18) No match (V2 was not tested)
07 [8be1198b] (00/18) No match (V2 was not tested)
08 [f480023c] (00/17) No match (V2 was not tested)
09 [97ee7be6] (00/15) No match (V2 was not tested)

Track Peak [ CRC32 ] [W/O NULL] [ LOG ]
– 98,9 [76C8801C] [5915308B] CRC32
01 98,8 [D8A2DFAA] [C813B5F8]
02 89,1 [E93CB4A3] [631DEB5C]
03 83,5 [490239E4] [15F925F3]
04 97,7 [14A47C3B] [2E9A3FEE]
05 89,1 [2E4872C7] [540E37D7]
06 98,9 [1FFEE320] [582C090D]
07 89,8 [7DD2D283] [B71619F6]
08 83,3 [5D81331D] [A547FF47]
09 95,8 [514EBC9A] [7157D93A]

Thanks to the original releaser

See also:
Tangerine Dream - The Electronic Journey (2010) [10CD Box Set]
Tangerine Dream - The Dream Roots Collection [5CD Box Set] (1996)
Tangerine Dream - Electronic Meditation (1970) [Reissue 1996]
Tangerine Dream - Alpha Centauri (1971) [Reissue 1996]
Tangerine Dream - Alpha Centauri (1971) [Reissue 2011]
Tangerine Dream - Zeit (1972) [Reissue 1996]
Tangerine Dream - Atem (1973) [Reissue 2011]
Tangerine Dream - Phaedra (1974) [Original Edition]
Tangerine Dream - Phaedra (1974) [Definitive Edition 1995]
Tangerine Dream - Rubycon (1975) [Non-remastered, Reissue 1988]
Tangerine Dream - Rubycon (1975) [Definitive Edition 1995]
Tangerine Dream - Ricochet (1975) [Definitive Edition 1995]
Tangerine Dream - Stratosfear (1976) [Definitive Edition 1995]
Tangerine Dream - Encore (1977)
Tangerine Dream - Sorcerer (OST) (1977) [Reissue 2011]
Tangerine Dream - Force Majeure (1979) [Reissue 1995]
Tangerine Dream - Tangram (1980)
Tangerine Dream - Pergamon (1980) [Reissue 1996]
Tangerine Dream - White Eagle (1982) [Reissue 1995]
Tangerine Dream - Logos Live (1982) [Definitive Edition 1995]
Tangerine Dream - Hyperborea (1983)
Tangerine Dream - Wavelength [OST] (1983)
Tangerine Dream - Poland - The Warsaw Concert (1984) [Reissue 2011]
Tangerine Dream - Firestarter ...ion Picture Soundtrack] (1984)
Tangerine Dream - Underwater Sunlight (1986) [Reissue 1996]
Tangerine Dream - Green Desert [Recorded 1973] (1986)
Tangerine Dream - Legend (OST) (1986) [Reissue 1995]
Tangerine Dream - Tyger (1987) [Reissue 1996]
Tangerine Dream - Three O'Clock High [OST] (1987)
Tangerine Dream - Optical Race (1988)
Tangerine Dream - Live Miles (1988) [Reissue 2003]
Tangerine Dream - Lily On The Beach (1989)
Tangerine Dream - Melrose (1990)
Tangerine Dream - Dead Solid Perfect (OST) (1990)
Tangerine Dream - The Park Is Mine (OST) (1991)
Tangerine Dream - Rockoon (1992) [Reissue 2000]
Tangerine Dream - Deadly Care (OST) (1992)
Tangerine Dream - Quinoa (1992) [Reissue 2009]
Tangerine Dream - Catch Me If You Can (OST) (1994)
Tangerine Dream - Tyranny Of Beauty (1995)
Tangerine Dream - Goblins' Club (1996)
Tangerine Dream - Zoning (OST) (1996)
Tangerine Dream - The Analogue Space Years 1969-1973 (1998)
Tangerine Dream - The Hollywood Years Vol. 1 (1998)
Tangerine Dream - The Hollywood Years Vol. 2 (1998)
Tangerine Dream - Antique Dreams (2000)
Tangerine Dream - Soundmill Navigator (2000)
Tangerine Dream - The Bootleg Box Set Vol. 1 [7CD] (2003)
Tangerine Dream - Purgatorio (2004)
Tangerine Dream - Arizona Live '92 (2004) [Reissue 2009]
Tangerine Dream - Phaedra 2005 (2005) [Japanese Edition 2009]
Tangerine Dream - Cleveland - June 24th 1986 (2005)
Tangerine Dream - Blue Dawn (2006)
Tangerine Dream - The Essential Tangerine Dream (2006)
Tangerine Dream - Plays Tangerine Dream (2006)
Tangerine Dream - Springtime In Nagasaki (2007)
Tangerine Dream - Views From A Red Train (2008)
Tangerine Dream - Booster (2008)
Tangerine Dream - Booster Vol. 2 (2008)
Tangerine Dream - The Antholog... Space Years Volume One (2008)
Tangerine Dream - Booster III (2009)
Tangerine Dream - Axiat [Recorded 1999-2005] (2009)
Tangerine Dream - Music For Sports: Cool Races (2009)
Tangerine Dream - Music For Sports: Power And Motion (2009)
Tangerine Dream - DM V (Dream Mixes V) (2010)
Tangerine Dream - The London Eye Concert (2010)
Tangerine Dream - Zeitgeist Concert [3CD Box Set] (2010)
Tangerine Dream - The Virgin Years 1974-1978 [3CD Box Set] (2011)
Tangerine Dream - The Official...ies Vol.1 [4CD Box Set] (2015)
Tangerine Dream - Live At The Tempodrome Berlin (2006) [DVD]
Tangerine Dream - Live At Coventry Cathedral 1975 (2007) [DVD]
Tangerine Dream - Madcap's Flaming Duty [DVD] (2007)
Tangerine Dream - 35th Phaedra Anniversary Concert [2DVD] (2007)
Edgar Froese - 2 Albums (1974-1995)
Edgar Froese - Ages (1978) [Reissue 1997]
Edgar Froese - Pinnacles (1983)