Tags
Language
Tags

Tangerine Dream - Booster V (2012)

Posted By: gribovar
Tangerine Dream - Booster V (2012)

Tangerine Dream - Booster V (2012)
EAC Rip | FLAC (image+.cue+log) - 889 MB | MP3 CBR 320 kbps (LAME 3.93) - 340 MB | Covers included
Genre: Progressive Electronic, Berlin School | RAR 3% Rec. | Label: Eastgate (057 CD)

Years ago when Eastgate started the Booster compilation series, it used to be mainly a collection of cupdisc titles and newly recorded music material originally composed for various occasions. We never thought that it will become one of the best accepted CD releases out of our very extensive catalogue. Now we've achieved Booster number 5, a very special collection because the band themselves selected it out of a variety of known and unknown material. We do hope that this record will become a good companion during your diverse daily activities or private moments. Enjoy more than two hours of Tangerine Dream's description of another time in another country - far far away…

CD 1 Tracklist:
01. Calymba Caly (Figaro's Fine Cut)
02. Beauty Of Magic Antagonism
03. Rubycon 2010
04. The Silver Boots Of Bartlett Green
05. Shining Ray
06. Twilight Dance
07. Morpheus' Light
08. Escape
09. The Invisible Seal Of The Holy Tribe
10. Hermaphrodite

Total time: 01:10:48

CD 2 Tracklist:
01. Resurrection By The Spirit
02. Hoël Dhat The Alchemist
03. Mother Of All Sources
04. Sailing Through The Night
05. Calumet
06. Booster Battery
07. The Mysterious Gift Of Mankind
08. View From A Distant Star (Milky Way Mix)
09. Wild Ocean Of Blue Fate
10. Fay Bewitching The Moon

Total time: 01:13:14

Exact Audio Copy V0.99 prebeta 5 from 4. May 2009

EAC extraction logfile from 4. April 2013, 16:38

Tangerine Dream / Booster V

Used drive : ASUS DRW-22B2L Adapter: 0 ID: 0

Read mode : Secure
Utilize accurate stream : Yes
Defeat audio cache : Yes
Make use of C2 pointers : No

Read offset correction : 6
Overread into Lead-In and Lead-Out : No
Fill up missing offset samples with silence : Yes
Delete leading and trailing silent blocks : No
Null samples used in CRC calculations : Yes
Used interface : Native Win32 interface for Win NT & 2000

Used output format : Internal WAV Routines
Sample format : 44.100 Hz; 16 Bit; Stereo


TOC of the extracted CD

Track | Start | Length | Start sector | End sector
––––––––––––––––––––––––––––-
1 | 0:00.00 | 3:50.07 | 0 | 17256
2 | 3:50.07 | 5:56.47 | 17257 | 44003
3 | 9:46.54 | 6:32.70 | 44004 | 73473
4 | 16:19.49 | 7:20.48 | 73474 | 106521
5 | 23:40.22 | 5:23.31 | 106522 | 130777
6 | 29:03.53 | 6:25.10 | 130778 | 159662
7 | 35:28.63 | 10:43.73 | 159663 | 207960
8 | 46:12.61 | 6:38.19 | 207961 | 237829
9 | 52:51.05 | 9:35.74 | 237830 | 281028
10 | 62:27.04 | 8:20.45 | 281029 | 318573


Range status and errors

Selected range

Filename D:\EAC\Tangerine Dream - Booster V (CD 1).wav

Peak level 98.6 %
Range quality 100.0 %
Test CRC 3D9AD310
Copy CRC 3D9AD310
Copy OK

No errors occurred


AccurateRip summary

Track 1 accurately ripped (confidence 2) [9CAAA025]
Track 2 accurately ripped (confidence 2) [5A8627F1]
Track 3 accurately ripped (confidence 2) [B9A6F2A2]
Track 4 accurately ripped (confidence 2) [63DF4DA9]
Track 5 accurately ripped (confidence 2) [039C45F4]
Track 6 accurately ripped (confidence 2) [97FC8498]
Track 7 accurately ripped (confidence 2) [3AA9348C]
Track 8 accurately ripped (confidence 2) [0D9D6DC0]
Track 9 accurately ripped (confidence 2) [084BE772]
Track 10 accurately ripped (confidence 2) [2B869017]

All tracks accurately ripped

End of status report

[CUETools log; Date: 09.04.2021 14:23:23; Version: 2.1.4]
[CTDB TOCID: vdh6b4.brwyeO1pI.gptjhMUcb0-] found.
Track | CTDB Status
1 | (30/30) Accurately ripped
2 | (30/30) Accurately ripped
3 | (30/30) Accurately ripped
4 | (30/30) Accurately ripped
5 | (30/30) Accurately ripped
6 | (30/30) Accurately ripped
7 | (30/30) Accurately ripped
8 | (30/30) Accurately ripped
9 | (30/30) Accurately ripped
10 | (30/30) Accurately ripped
[AccurateRip ID: 00181084-00c69458-8910970a] found.
Track [ CRC | V2 ] Status
01 [9caaa025|77014aa9] (03+11/14) Accurately ripped
02 [5a8627f1|6d4c4777] (03+11/14) Accurately ripped
03 [b9a6f2a2|9272fa88] (03+11/14) Accurately ripped
04 [63df4da9|f2326573] (03+11/14) Accurately ripped
05 [039c45f4|817795c4] (03+11/14) Accurately ripped
06 [97fc8498|7509bc3d] (03+11/14) Accurately ripped
07 [3aa9348c|f1ba3c33] (03+11/14) Accurately ripped
08 [0d9d6dc0|7c98d20a] (03+11/14) Accurately ripped
09 [084be772|a3d2e188] (03+11/14) Accurately ripped
10 [2b869017|6e6f3f30] (03+11/14) Accurately ripped

Track Peak [ CRC32 ] [W/O NULL] [ LOG ]
– 98,6 [3D9AD310] [C16B5101] CRC32
01 98,1 [56BE2DA7] [CA0BB09C]
02 95,8 [468457D1] [6C00EEB3]
03 96,1 [C1AB0A63] [6E8722A1]
04 92,7 [614D1506] [F7673DAB]
05 96,4 [276C2BD2] [EA01F615]
06 98,2 [906771C2] [5B07AAFA]
07 98,6 [EA1C7A1A] [FAC79CAD]
08 94,6 [3B53F728] [C32A272B]
09 97,7 [F27B292B] [BA0F558B]
10 96,4 [52373733] [B6F11B35]

Exact Audio Copy V0.99 prebeta 5 from 4. May 2009

EAC extraction logfile from 4. April 2013, 17:23

Tangerine Dream / Booster V

Used drive : ASUS DRW-22B2L Adapter: 0 ID: 0

Read mode : Secure
Utilize accurate stream : Yes
Defeat audio cache : Yes
Make use of C2 pointers : No

Read offset correction : 6
Overread into Lead-In and Lead-Out : No
Fill up missing offset samples with silence : Yes
Delete leading and trailing silent blocks : No
Null samples used in CRC calculations : Yes
Used interface : Native Win32 interface for Win NT & 2000

Used output format : Internal WAV Routines
Sample format : 44.100 Hz; 16 Bit; Stereo


TOC of the extracted CD

Track | Start | Length | Start sector | End sector
––––––––––––––––––––––––––––-
1 | 0:00.00 | 5:37.69 | 0 | 25343
2 | 5:37.69 | 7:07.10 | 25344 | 57378
3 | 12:45.04 | 8:53.52 | 57379 | 97405
4 | 21:38.56 | 5:57.67 | 97406 | 124247
5 | 27:36.48 | 5:28.24 | 124248 | 148871
6 | 33:04.72 | 6:51.35 | 148872 | 179731
7 | 39:56.32 | 10:24.64 | 179732 | 226595
8 | 50:21.21 | 4:04.03 | 226596 | 244898
9 | 54:25.24 | 7:46.06 | 244899 | 279854
10 | 62:11.30 | 11:02.23 | 279855 | 329527


Range status and errors

Selected range

Filename D:\EAC\Tangerine Dream - Booster V (CD 2).wav

Peak level 98.6 %
Range quality 100.0 %
Test CRC FF299679
Copy CRC FF299679
Copy OK

No errors occurred


AccurateRip summary

Track 1 accurately ripped (confidence 2) [AA4C2D95]
Track 2 accurately ripped (confidence 2) [E58F64B8]
Track 3 accurately ripped (confidence 2) [1F4D9816]
Track 4 accurately ripped (confidence 2) [E52F4892]
Track 5 accurately ripped (confidence 2) [9EA22121]
Track 6 cannot be verified as accurate (confidence 2) [0B028129], AccurateRip returned [B2F28129]
Track 7 accurately ripped (confidence 2) [DB4AA44D]
Track 8 accurately ripped (confidence 2) [16640BD4]
Track 9 accurately ripped (confidence 2) [4F88B1C5]
Track 10 accurately ripped (confidence 2) [AE2E0459]

9 track(s) accurately ripped
1 track(s) could not be verified as accurate

Some tracks could not be verified as accurate

End of status report

[CUETools log; Date: 09.04.2021 14:24:11; Version: 2.1.4]
[CTDB TOCID: .fiP1aic4JsBk7.QedXlsJN86C8-] found.
Track | CTDB Status
1 | (29/29) Accurately ripped
2 | (29/29) Accurately ripped
3 | (29/29) Accurately ripped
4 | (29/29) Accurately ripped
5 | (29/29) Accurately ripped
6 | ( 2/29) Accurately ripped, or (27/29) differs in 2 samples @06:43:72
7 | (29/29) Accurately ripped
8 | (29/29) Accurately ripped
9 | (29/29) Accurately ripped
10 | (29/29) Accurately ripped
[AccurateRip ID: 001a26c3-00d2f4ef-9511290a] found.
Track [ CRC | V2 ] Status
01 [aa4c2d95|26cd97f9] (03+10/13) Accurately ripped
02 [e58f64b8|8e350395] (03+10/13) Accurately ripped
03 [1f4d9816|90a4aa45] (03+10/13) Accurately ripped
04 [e52f4892|044b125b] (03+10/13) Accurately ripped
05 [9ea22121|626fd140] (03+10/13) Accurately ripped
06 [0b028129|64cdfd98] (00+00/12) No match
07 [db4aa44d|65c8d5f1] (03+10/13) Accurately ripped
08 [16640bd4|b924bb53] (03+10/13) Accurately ripped
09 [4f88b1c5|04597583] (03+10/13) Accurately ripped
10 [ae2e0459|00e2076c] (03+10/13) Accurately ripped

Track Peak [ CRC32 ] [W/O NULL] [ LOG ]
– 98,6 [FF299679] [F1B6B2F6] CRC32
01 98,6 [ED6F1B21] [E51A5374]
02 97,7 [B1FA54CA] [653B260E]
03 88,1 [68CFEF4C] [51B48AA7]
04 97,1 [4D178E10] [D972099B]
05 92,4 [F942DCA7] [7B491733]
06 98,4 [765E1E05] [00EAFE4A]
07 95,7 [204651F1] [54EB08C3]
08 98,6 [50F6B051] [6BC7F5FB]
09 94,2 [F199449C] [83309D3C]
10 95,6 [DC9B2F34] [40148493]

Thanks to the original releaser

See also:
Tangerine Dream - The Electronic Journey (2010) [10CD Box Set]
Tangerine Dream - The Dream Roots Collection [5CD Box Set] (1996)
Tangerine Dream - Electronic Meditation (1970) [Reissue 1996]
Tangerine Dream - Alpha Centauri (1971) [Reissue 1996]
Tangerine Dream - Alpha Centauri (1971) [Reissue 2011]
Tangerine Dream - Zeit (1972) [Reissue 1996]
Tangerine Dream - Atem (1973) [Reissue 2011]
Tangerine Dream - Phaedra (1974) [Original Edition]
Tangerine Dream - Phaedra (1974) [Definitive Edition 1995]
Tangerine Dream - Rubycon (1975) [Non-remastered, Reissue 1988]
Tangerine Dream - Rubycon (1975) [Definitive Edition 1995]
Tangerine Dream - Ricochet (1975) [Definitive Edition 1995]
Tangerine Dream - Stratosfear (1976) [Definitive Edition 1995]
Tangerine Dream - Encore (1977)
Tangerine Dream - Sorcerer (OST) (1977) [Reissue 2011]
Tangerine Dream - Force Majeure (1979) [Reissue 1995]
Tangerine Dream - Tangram (1980)
Tangerine Dream - Pergamon (1980) [Reissue 1996]
Tangerine Dream - White Eagle (1982) [Reissue 1995]
Tangerine Dream - Logos Live (1982) [Definitive Edition 1995]
Tangerine Dream - Hyperborea (1983)
Tangerine Dream - Wavelength [OST] (1983)
Tangerine Dream - Poland - The Warsaw Concert (1984) [Reissue 2011]
Tangerine Dream - Firestarter ...ion Picture Soundtrack] (1984)
Tangerine Dream - Underwater Sunlight (1986) [Reissue 1996]
Tangerine Dream - Green Desert [Recorded 1973] (1986)
Tangerine Dream - Legend (OST) (1986) [Reissue 1995]
Tangerine Dream - Tyger (1987) [Reissue 1996]
Tangerine Dream - Three O'Clock High [OST] (1987)
Tangerine Dream - Optical Race (1988)
Tangerine Dream - Live Miles (1988) [Reissue 2003]
Tangerine Dream - Lily On The Beach (1989)
Tangerine Dream - Melrose (1990)
Tangerine Dream - Dead Solid Perfect (OST) (1990)
Tangerine Dream - The Park Is Mine (OST) (1991)
Tangerine Dream - Rockoon (1992) [Reissue 2000]
Tangerine Dream - Deadly Care (OST) (1992)
Tangerine Dream - Quinoa (1992) [Reissue 2009]
Tangerine Dream - Catch Me If You Can (OST) (1994)
Tangerine Dream - Tyranny Of Beauty (1995)
Tangerine Dream - Goblins' Club (1996)
Tangerine Dream - Zoning (OST) (1996)
Tangerine Dream - The Analogue Space Years 1969-1973 (1998)
Tangerine Dream - The Hollywood Years Vol. 1 (1998)
Tangerine Dream - The Hollywood Years Vol. 2 (1998)
Tangerine Dream - Antique Dreams (2000)
Tangerine Dream - Soundmill Navigator (2000)
Tangerine Dream - The Bootleg Box Set Vol. 1 [7CD] (2003)
Tangerine Dream - Purgatorio (2004)
Tangerine Dream - Arizona Live '92 (2004) [Reissue 2009]
Tangerine Dream - Phaedra 2005 (2005) [Japanese Edition 2009]
Tangerine Dream - Cleveland - June 24th 1986 (2005)
Tangerine Dream - Blue Dawn (2006)
Tangerine Dream - The Essential Tangerine Dream (2006)
Tangerine Dream - Plays Tangerine Dream (2006)
Tangerine Dream - Springtime In Nagasaki (2007)
Tangerine Dream - Views From A Red Train (2008)
Tangerine Dream - Booster (2008)
Tangerine Dream - Booster Vol. 2 (2008)
Tangerine Dream - The Antholog... Space Years Volume One (2008)
Tangerine Dream - Booster III (2009)
Tangerine Dream - Axiat [Recorded 1999-2005] (2009)
Tangerine Dream - Music For Sports: Cool Races (2009)
Tangerine Dream - Music For Sports: Power And Motion (2009)
Tangerine Dream - DM V (Dream Mixes V) (2010)
Tangerine Dream - The London Eye Concert (2010)
Tangerine Dream - Zeitgeist Concert [3CD Box Set] (2010)
Tangerine Dream - The Virgin Years 1974-1978 [3CD Box Set] (2011)
Tangerine Dream - Booster IV (2011)
Tangerine Dream - The Official...ies Vol.1 [4CD Box Set] (2015)
Tangerine Dream - Live At The Tempodrome Berlin (2006) [DVD]
Tangerine Dream - Live At Coventry Cathedral 1975 (2007) [DVD]
Tangerine Dream - Madcap's Flaming Duty [DVD] (2007)
Tangerine Dream - 35th Phaedra Anniversary Concert [2DVD] (2007)
Edgar Froese - 2 Albums (1974-1995)
Edgar Froese - Ages (1978) [Reissue 1997]
Edgar Froese - Pinnacles (1983)