Tags
Language
Tags

Tangerine Dream - Rubycon (1975) [Definitive Edition 1995] (Repost)

Posted By: gribovar
Tangerine Dream - Rubycon (1975) [Definitive Edition 1995] (Repost)

Tangerine Dream - Rubycon (1975) [Definitive Edition 1995]
EAC Rip | APE (image+.cue+log) - 142 MB | MP3 CBR 320 kbps (LAME 3.93) - 82 MB | Covers - 25 MB
Genre: Electronic, Berlin School, Ambient | RAR 3% Rec. | Label: Virgin Records (7243 8 40063 27)

The members of Tangerine Dream continued to hone their craft as pioneers of the early days of electronica, and the mid-'70s proved to be a time of prosperity and musical growth for the trio of Chris Franke, early member Peter Baumann, and permanent frontman Edgar Froese. The three of them had been delivering mysterious space records on a regular basis, and their growing confidence with early synthesizers (the best that money could buy at the time) made them virtuosos of the genre, even as they kept things organic and unpredictable with gongs, prepared piano, and electric guitar. Rubycon has aged gracefully for the most part, making it a solid companion (and follow-up) to their 1974 album, Phaedra. The somewhat dated palette of sounds here never overshadow the mood: eerie psychedelia without the paisleys - Pink Floyd without the rock. "Rubycon, Pt. 1" ebbs and flows through tense washes of echo and Mellotron choirs, as primitive sequencer lines bubble to the surface. "Pt. 2" opens in a wonderfully haunted way, like air-raid sirens at the lowest possible pitch, joined in unison by several male voices (someone in the band must have heard György Ligeti's work for 2001). Rising out of the murkiness, the synthesizer arpeggios return to drive things along, and Froese weaves his backwards-recorded guitar through the web without really calling too much attention to himself. The piece evolves through varying degrees of tension, takes a pit stop on the shoreline of some faraway beach, then ever so gradually unravels a cluster of free-form strings and flutes. The rest are vapors, your ears are sweating under your headphones, and the smoke has cleared from your bedroom. This is a satisfying ambient record from the pre-ambient era, too dark for meditation, and too good to be forgotten.

Tracklist:
01. Rubycon - Part One
02. Rubycon - Part Two

Total time: 34:55

Exact Audio Copy V1.0 beta 1 from 15. November 2010

EAC extraction logfile from 17. February 2012, 1:04

Tangerine Dream / Rubycon

Used drive : TEAC CD-W552E Adapter: 1 ID: 1

Read mode : Secure
Utilize accurate stream : Yes
Defeat audio cache : Yes
Make use of C2 pointers : No

Read offset correction : 6
Overread into Lead-In and Lead-Out : No
Fill up missing offset samples with silence : Yes
Delete leading and trailing silent blocks : No
Null samples used in CRC calculations : Yes
Used interface : Installed external ASPI interface

Used output format : Internal WAV Routines
Sample format : 44.100 Hz; 16 Bit; Stereo


TOC of the extracted CD

Track | Start | Length | Start sector | End sector
––––––––––––––––––––––––––––-
1 | 0:00.00 | 17:20.53 | 0 | 78052
2 | 17:20.53 | 17:34.27 | 78053 | 157129


Range status and errors

Selected range

Filename D:\Upload\Tangerine Dream - 1975 - Rubycon (Virgin Records Ltd., 7243 8 40063 27)_Upload\Tangerine Dream - Rubycon.wav

Peak level 95.6 %
Extraction speed 4.6 X
Range quality 100.0 %
Test CRC FDC70C82
Copy CRC FDC70C82
Copy OK

No errors occurred


AccurateRip summary

Track 1 accurately ripped (confidence 6) [5BB7E3FC]
Track 2 accurately ripped (confidence 6) [3EA11D23]

All tracks accurately ripped

End of status report

==== Log checksum EAC8817A7FBF2277EBB47D7F8F5FF5E3F8D8A6B552E3881B2F1840703DDA151B ====

[CUETools log; Date: 12.02.2021 15:19:42; Version: 2.1.4]
[CTDB TOCID: 32BU3GdwqOs6UV1vRsCrBX9hPkQ-] found.
Track | CTDB Status
1 | (608/614) Accurately ripped
2 | (601/614) Accurately ripped, or (2/614) differs in 3997 samples @17:34:11-17:34:18, or (3/614) differs in 6192 samples @17:34:08-17:34:18, or (2/614) differs in 4181 samples @17:34:09-17:34:16
[AccurateRip ID: 000396af-00099329-09082f02] found.
Track [ CRC | V2 ] Status
01 [5bb7e3fc|a21ef226] (022+062/394) Accurately ripped
02 [3ea11d23|20382a6e] (022+061/390) Accurately ripped
Offsetted by 676:
01 [7aa1b2e8] (052/394) Accurately ripped
02 [44dc1ca3] (049/390) Accurately ripped
Offsetted by 992:
01 [cd3f779c] (050/394) Accurately ripped
02 [b04b0123] (050/390) Accurately ripped
Offsetted by 12:
01 [d9feb120] (000/394) No match (V2 was not tested)
02 [ee74b7a3] (000/390) No match (V2 was not tested)
Offsetted by 986:
01 [8e1c110a] (000/394) No match (V2 was not tested)
02 [d86133e3] (000/390) No match (V2 was not tested)

Track Peak [ CRC32 ] [W/O NULL] [ LOG ]
– 95,6 [FDC70C82] [F2067768] CRC32
01 95,6 [80616676] [8F8BA930]
02 82,2 [ED80743B] [F6220C4D]

Thanks to technick

See also:
Tangerine Dream - The Electronic Journey (2010) [10CD Box Set]
Tangerine Dream - The Dream Roots Collection [5CD Box Set] (1996)
Tangerine Dream - Electronic Meditation (1970) [Reissue 1996]
Tangerine Dream - Alpha Centauri (1971) [Reissue 2011]
Tangerine Dream - Zeit (1972) [Reissue 1996]
Tangerine Dream - Atem (1973) [Reissue 2011]
Tangerine Dream - Phaedra (1974) [Original Edition]
Tangerine Dream - Phaedra (1974) [Definitive Edition 1995]
Tangerine Dream - Rubycon (1975) [Non-remastered, Reissue 1988]
Tangerine Dream - Ricochet (1975) [Definitive Edition 1995]
Tangerine Dream - Stratosfear (1976) [Definitive Edition 1995]
Tangerine Dream - Sorcerer (OST) (1977) [Reissue 2011]
Tangerine Dream - Force Majeure (1979) [Reissue 1995]
Tangerine Dream - Tangram (1980)
Tangerine Dream - Pergamon (1980) [Reissue 1996]
Tangerine Dream - White Eagle (1982) [Reissue 1995]
Tangerine Dream - Logos Live (1982) [Definitive Edition 1995]
Tangerine Dream - Poland - The Warsaw Concert (1984) [Reissue 2011]
Tangerine Dream - Firestarter ...ion Picture Soundtrack] (1984)
Tangerine Dream - Legend (OST) (1986) [Reissue 1995]
Tangerine Dream - Tyger (1987) [Reissue 1996]
Tangerine Dream - Three O'Clock High [OST] (1987)
Tangerine Dream - Optical Race (1988)
Tangerine Dream - Live Miles (1988) [Reissue 2003]
Tangerine Dream - Lily On The Beach (1989)
Tangerine Dream - Melrose (1990)
Tangerine Dream - Dead Solid Perfect (OST) (1990)
Tangerine Dream - The Park Is Mine (OST) (1991)
Tangerine Dream - Rockoon (1992) [Reissue 2000]
Tangerine Dream - Deadly Care (OST) (1992)
Tangerine Dream - Quinoa (1992) [Reissue 2009]
Tangerine Dream - Catch Me If You Can (OST) (1994)
Tangerine Dream - Tyranny Of Beauty (1995)
Tangerine Dream - Goblins' Club (1996)
Tangerine Dream - Zoning (OST) (1996)
Tangerine Dream - The Analogue Space Years 1969-1973 (1998)
Tangerine Dream - The Hollywood Years Vol. 1 (1998)
Tangerine Dream - The Hollywood Years Vol. 2 (1998)
Tangerine Dream - Antique Dreams (2000)
Tangerine Dream - Soundmill Navigator (2000)
Tangerine Dream - The Bootleg Box Set Vol. 1 [7CD] (2003)
Tangerine Dream - Purgatorio (2004)
Tangerine Dream - Arizona Live '92 (2004) [Reissue 2009]
Tangerine Dream - Phaedra 2005 (2005) [Japanese Edition 2009]
Tangerine Dream - Cleveland - June 24th 1986 (2005)
Tangerine Dream - Blue Dawn (2006)
Tangerine Dream - The Essential Tangerine Dream (2006)
Tangerine Dream - Plays Tangerine Dream (2006)
Tangerine Dream - Views From A Red Train (2008)
Tangerine Dream - Booster (2008)
Tangerine Dream - Booster Vol. 2 (2008)
Tangerine Dream - The Antholog... Space Years Volume One (2008)
Tangerine Dream - Music For Sports: Cool Races (2009)
Tangerine Dream - Music For Sports: Power And Motion (2009)
Tangerine Dream - DM V (Dream Mixes V) (2010)
Tangerine Dream - The London Eye Concert (2010)
Tangerine Dream - The Virgin Years 1974-1978 [3CD Box Set] (2011)
Tangerine Dream - The Official...ies Vol.1 [4CD Box Set] (2015)
Tangerine Dream - Live At Coventry Cathedral 1975 (2007) [DVD]
Edgar Froese - 2 Albums (1974-1995)
Edgar Froese - Ages (1978) [Reissue 1997]
Edgar Froese - Pinnacles (1983)