Subcategories
Tags
Language
Tags

Tangerine Dream - Summer In Nagasaki (2007)

Posted By: gribovar
Tangerine Dream - Summer In Nagasaki (2007)

Tangerine Dream - Summer In Nagasaki (2007)
EAC Rip | APE (image+.cue+log) - 348 MB | MP3 CBR 320 kbps (LAME 3.93) - 135 MB | Covers included
Genre: Progressive Electronic, Berlin School | RAR 3% Rec. | Label: Eastgate (019 CD)

Summer In Nagasaki is the second part of the so-called "Five Atomic Seasons". The compositions reflect the experiences Mr. H.T. - an 82 year old Japanese business man - made during the time of the atomic bomb dropping in summer 1945 in Japan. This dramatic incident coincided with the relationship to his early love - his student fellow named Ayumi - who had no chance to survive that horrible attack. H.T. was so heavily shocked that he decided to abandon the world by going into a monastery. The music - written as one long track of 54 minutes - dramatically describes a part of his life and destiny.

Tracklist:
01. Climbing Mount Inasa
02. In The Cherry Blossom Hills
03. Mystery Of Life And Death
04. Dreaming In A Kyoto Train
05. Ayumi's Butterflies
06. Presentiment
07. 11:02 AM

Total time: 56:42

Exact Audio Copy V0.99 prebeta 5 from 4. May 2009

EAC extraction logfile from 7. February 2010, 2:42

Tangerine Dream / Summer In Nagasaki

Used drive : ASUS DRW-1814BL Adapter: 0 ID: 0

Read mode : Secure
Utilize accurate stream : Yes
Defeat audio cache : Yes
Make use of C2 pointers : No

Read offset correction : 6
Overread into Lead-In and Lead-Out : No
Fill up missing offset samples with silence : Yes
Delete leading and trailing silent blocks : No
Null samples used in CRC calculations : Yes
Used interface : Native Win32 interface for Win NT & 2000

Used output format : Internal WAV Routines
Sample format : 44.100 Hz; 16 Bit; Stereo


TOC of the extracted CD

Track | Start | Length | Start sector | End sector
––––––––––––––––––––––––––––-
1 | 0:00.00 | 10:56.47 | 0 | 49246
2 | 10:56.47 | 5:15.46 | 49247 | 72917
3 | 16:12.18 | 13:32.51 | 72918 | 133868
4 | 29:44.69 | 7:00.05 | 133869 | 165373
5 | 36:44.74 | 4:59.39 | 165374 | 187837
6 | 41:44.38 | 4:05.47 | 187838 | 206259
7 | 45:50.10 | 10:51.34 | 206260 | 255118


Range status and errors

Selected range

Filename D:\EAC\Tangerine Dream - Summer In Nagasaki.wav

Peak level 98.4 %
Range quality 100.0 %
Test CRC 33D7D96A
Copy CRC 33D7D96A
Copy OK

No errors occurred


AccurateRip summary

Track 1 accurately ripped (confidence 6) [E8DF2B00]
Track 2 accurately ripped (confidence 6) [F58A29D2]
Track 3 accurately ripped (confidence 6) [12E37C7F]
Track 4 accurately ripped (confidence 6) [626FBAA4]
Track 5 accurately ripped (confidence 6) [A621D049]
Track 6 accurately ripped (confidence 6) [A9709394]
Track 7 accurately ripped (confidence 6) [F0D6BD5F]

All tracks accurately ripped

End of status report

[CUETools log; Date: 15.04.2021 12:05:04; Version: 2.1.4]
[CTDB TOCID: PZk.y4BSHpdLFUFqN298v7jEal4-] found.
Track | CTDB Status
1 | (32/34) Accurately ripped
2 | (32/34) Accurately ripped
3 | (32/34) Accurately ripped
4 | (32/34) Accurately ripped
5 | (32/34) Accurately ripped
6 | (32/34) Accurately ripped
7 | (30/34) Accurately ripped
[AccurateRip ID: 00105621-005fffc3-660d4907] found.
Track [ CRC | V2 ] Status
01 [e8df2b00|295c550c] (13+11/24) Accurately ripped
02 [f58a29d2|df684c09] (13+11/24) Accurately ripped
03 [12e37c7f|6fd96170] (13+11/24) Accurately ripped
04 [626fbaa4|d6036091] (13+11/24) Accurately ripped
05 [a621d049|318c36b4] (13+11/24) Accurately ripped
06 [a9709394|bf25a801] (13+11/24) Accurately ripped
07 [f0d6bd5f|33f2a8c9] (13+11/24) Accurately ripped

Track Peak [ CRC32 ] [W/O NULL] [ LOG ]
– 98,4 [33D7D96A] [161A4E40] CRC32
01 98,4 [90BA9C2A] [E348E928]
02 98,4 [55005B74] [E36CD9E1]
03 98,4 [1D68BBE2] [4DEE0498]
04 98,4 [76C6DE87] [E499B7D1]
05 98,4 [86F3C927] [8A72C008]
06 98,4 [786535B7] [9E069D52]
07 98,4 [541FEC47] [D22DD0CA]

Thanks to the original releaser

See also:
Tangerine Dream - The Electronic Journey (2010) [10CD Box Set]
Tangerine Dream - The Dream Roots Collection [5CD Box Set] (1996)
Tangerine Dream - Electronic Meditation (1970) [Reissue 1996]
Tangerine Dream - Alpha Centauri (1971) [Reissue 1996]
Tangerine Dream - Alpha Centauri (1971) [Reissue 2011]
Tangerine Dream - Zeit (1972) [Reissue 1996]
Tangerine Dream - Atem (1973) [Reissue 2011]
Tangerine Dream - Phaedra (1974) [Original Edition]
Tangerine Dream - Phaedra (1974) [Definitive Edition 1995]
Tangerine Dream - Rubycon (1975) [Non-remastered, Reissue 1988]
Tangerine Dream - Rubycon (1975) [Definitive Edition 1995]
Tangerine Dream - Ricochet (1975) [Definitive Edition 1995]
Tangerine Dream - Stratosfear (1976) [Definitive Edition 1995]
Tangerine Dream - Encore (1977)
Tangerine Dream - Sorcerer (OST) (1977) [Reissue 2011]
Tangerine Dream - Force Majeure (1979) [Reissue 1995]
Tangerine Dream - Tangram (1980)
Tangerine Dream - Pergamon (1980) [Reissue 1996]
Tangerine Dream - White Eagle (1982) [Reissue 1995]
Tangerine Dream - Logos Live (1982) [Definitive Edition 1995]
Tangerine Dream - Hyperborea (1983)
Tangerine Dream - Wavelength [OST] (1983)
Tangerine Dream - Poland - The Warsaw Concert (1984) [Reissue 2011]
Tangerine Dream - Firestarter ...ion Picture Soundtrack] (1984)
Tangerine Dream - Underwater Sunlight (1986) [Non-Remastered]
Tangerine Dream - Underwater Sunlight (1986) [Reissue 1996]
Tangerine Dream - Green Desert [Recorded 1973] (1986)
Tangerine Dream - Legend (OST) (1986) [Reissue 1995]
Tangerine Dream - Tyger (1987) [Reissue 1992, US version]
Tangerine Dream - Tyger (1987) [Reissue 1996]
Tangerine Dream - Three O'Clock High [OST] (1987)
Tangerine Dream - Optical Race (1988)
Tangerine Dream - Live Miles (1988) [Reissue 2003]
Tangerine Dream - Lily On The Beach (1989)
Tangerine Dream - Melrose (1990)
Tangerine Dream - Dead Solid Perfect (OST) (1990)
Tangerine Dream - The Park Is Mine (OST) (1991)
Tangerine Dream - Rockoon (1992) [Reissue 2000]
Tangerine Dream - Deadly Care (OST) (1992)
Tangerine Dream - Quinoa (1992) [Reissue 2009]
Tangerine Dream - The Story Of Tangerine Dream (1992)
Tangerine Dream - Catch Me If You Can (OST) (1994)
Tangerine Dream - Tyranny Of Beauty (1995)
Tangerine Dream - Goblins' Club (1996)
Tangerine Dream - Zoning (OST) (1996)
Tangerine Dream - The Analogue Space Years 1969-1973 (1998)
Tangerine Dream - The Hollywood Years Vol. 1 (1998)
Tangerine Dream - The Hollywood Years Vol. 2 (1998)
Tangerine Dream - Atlantic Bridges [Recorded 1988-1997] (1998)
Tangerine Dream - Antique Dreams (2000)
Tangerine Dream - Soundmill Navigator (2000)
Tangerine Dream - The Bootleg Box Set Vol. 1 [7CD] (2003)
Tangerine Dream - Purgatorio (2004)
Tangerine Dream - Arizona Live '92 (2004) [Reissue 2009]
Tangerine Dream - Phaedra 2005 (2005) [Japanese Edition 2009]
Tangerine Dream - Cleveland - June 24th 1986 (2005)
Tangerine Dream - Blue Dawn (2006)
Tangerine Dream - The Essential Tangerine Dream (2006)
Tangerine Dream - Plays Tangerine Dream (2006)
Tangerine Dream - Springtime In Nagasaki (2007)
Tangerine Dream - Autumn In Hiroshima (2008)
Tangerine Dream - Views From A Red Train (2008)
Tangerine Dream - Booster (2008)
Tangerine Dream - Booster Vol. 2 (2008)
Tangerine Dream - The Antholog... Space Years Volume One (2008)
Tangerine Dream - Booster III (2009)
Tangerine Dream - Axiat [Recorded 1999-2005] (2009)
Tangerine Dream - Music For Sports: Cool Races (2009)
Tangerine Dream - Music For Sports: Power And Motion (2009)
Tangerine Dream - DM V (Dream Mixes V) (2010)
Tangerine Dream - The London Eye Concert (2010)
Tangerine Dream - Zeitgeist Concert [3CD Box Set] (2010)
Tangerine Dream - The Virgin Years 1974-1978 [3CD Box Set] (2011)
Tangerine Dream - Booster IV (2011)
Tangerine Dream - Booster V (2012)
Tangerine Dream - The Official...ies Vol.1 [4CD Box Set] (2015)
Tangerine Dream - Live At The Tempodrome Berlin (2006) [DVD]
Tangerine Dream - Live At Coventry Cathedral 1975 (2007) [DVD]
Tangerine Dream - Madcap's Flaming Duty [DVD] (2007)
Tangerine Dream - 35th Phaedra Anniversary Concert [2DVD] (2007)
Edgar Froese - 2 Albums (1974-1995)
Edgar Froese - Ages (1978) [Reissue 1997]
Edgar Froese - Pinnacles (1983)