Tags
Language
Tags

Tangerine Dream - Three O'Clock High [OST] (1987)

Posted By: gribovar
Tangerine Dream - Three O'Clock High [OST] (1987)

Tangerine Dream - Three O'Clock High [OST] (1987)
EAC Rip | APE (image+.cue+log) - 204 MB | MP3 CBR 320 kbps (LAME 3.93) - 101 MB | Covers included
Genre: Electronic, Berlin School, Soundtrack | RAR 3% Rec. | Label: Varese Sarabande (VCD 47307)

This would have a better set overall had Sylvester Levay's contributions been left off. Edgar Froese and company were in fine form for this set, giving a muscular and biting edge that was lacking in many TD soundtracks. Levay's material, stuck in the middle, weakens the show considerably, while the closing songs are simply de rigueur.
Tracklist:
01. It's Jerry's Day Today
02. 46-32-15
03. No Detention
04. Any School Bully Will Do
05. Go To The Head Of The Class
06. Sit
07. The Fight
08. Jerry's Decision
09. The Fight Is On
10. Paper
11. Big, Bright Brass Knuckles
12. Buying Paper Like It's Going Out Of Style
13. Dangerous Trend
14. Who's Chasing Who
15. Bonding By Candlelight
16. You'll Never Believe It
17. Starting The Day Off Right
18. Weak At The Knees
19. Kill Him (The Football Dummy)
20. Not So Quiet In The Library/Get Lost In A Crowd
21. Something To Remember Me By
22. Arrival

Total time: 42:10

Exact Audio Copy V0.99 prebeta 5 from 4. May 2009

EAC extraction logfile from 21. February 2010, 1:11

Tangerine Dream / Three O'Clock High

Used drive : ASUS DRW-1814BL Adapter: 0 ID: 0

Read mode : Secure
Utilize accurate stream : Yes
Defeat audio cache : Yes
Make use of C2 pointers : No

Read offset correction : 6
Overread into Lead-In and Lead-Out : No
Fill up missing offset samples with silence : Yes
Delete leading and trailing silent blocks : No
Null samples used in CRC calculations : Yes
Used interface : Native Win32 interface for Win NT & 2000

Used output format : Internal WAV Routines
Sample format : 44.100 Hz; 16 Bit; Stereo


TOC of the extracted CD

Track | Start | Length | Start sector | End sector
––––––––––––––––––––––––––––-
1 | 0:00.37 | 0:44.28 | 37 | 3364
2 | 0:44.65 | 0:47.30 | 3365 | 6919
3 | 1:32.20 | 1:04.40 | 6920 | 11759
4 | 2:36.60 | 0:33.40 | 11760 | 14274
5 | 3:10.25 | 3:12.40 | 14275 | 28714
6 | 6:22.65 | 0:47.47 | 28715 | 32286
7 | 7:10.37 | 2:36.25 | 32287 | 44011
8 | 9:46.62 | 4:28.10 | 44012 | 64121
9 | 14:14.72 | 4:42.28 | 64122 | 85299
10 | 18:57.25 | 1:28.65 | 85300 | 91964
11 | 20:26.15 | 1:19.07 | 91965 | 97896
12 | 21:45.22 | 1:38.20 | 97897 | 105266
13 | 23:23.42 | 0:54.58 | 105267 | 109374
14 | 24:18.25 | 0:59.67 | 109375 | 113866
15 | 25:18.17 | 1:35.65 | 113867 | 121056
16 | 26:54.07 | 2:20.00 | 121057 | 131556
17 | 29:14.07 | 1:16.30 | 131557 | 137286
18 | 30:30.37 | 2:34.15 | 137287 | 148851
19 | 33:04.52 | 1:04.73 | 148852 | 153724
20 | 34:09.50 | 1:36.35 | 153725 | 160959
21 | 35:46.10 | 4:13.47 | 160960 | 179981
22 | 39:59.57 | 2:10.05 | 179982 | 189736


Range status and errors

Selected range

Filename D:\EAC\Tangerine Dream - Three O'Clock High.wav

Peak level 100.0 %
Range quality 100.0 %
Test CRC 767F03A5
Copy CRC 767F03A5
Copy OK

No errors occurred


AccurateRip summary

Track 1 accurately ripped (confidence 6) [21FE908D]
Track 2 accurately ripped (confidence 6) [B779A0DA]
Track 3 accurately ripped (confidence 6) [EDCD14F4]
Track 4 accurately ripped (confidence 6) [3891FDE3]
Track 5 accurately ripped (confidence 6) [02AE56A7]
Track 6 accurately ripped (confidence 6) [3BCCB2EF]
Track 7 accurately ripped (confidence 6) [5A5D9ED7]
Track 8 accurately ripped (confidence 6) [C79312FC]
Track 9 accurately ripped (confidence 6) [BE24497C]
Track 10 accurately ripped (confidence 6) [E5165C58]
Track 11 accurately ripped (confidence 6) [4001012F]
Track 12 accurately ripped (confidence 6) [F7F6BF74]
Track 13 accurately ripped (confidence 6) [680D3398]
Track 14 accurately ripped (confidence 6) [6C5A2855]
Track 15 accurately ripped (confidence 6) [804093DA]
Track 16 accurately ripped (confidence 6) [DE684C6C]
Track 17 accurately ripped (confidence 6) [3B322CC9]
Track 18 accurately ripped (confidence 6) [29859D07]
Track 19 accurately ripped (confidence 6) [0FD9BC51]
Track 20 accurately ripped (confidence 6) [B6D8DA85]
Track 21 accurately ripped (confidence 6) [3F2E4569]
Track 22 accurately ripped (confidence 6) [A1089027]

All tracks accurately ripped

End of status report

[CUETools log; Date: 03.02.2021 16:21:55; Version: 2.1.4]
Pregap length 00:00:37.
[CTDB TOCID: 3HvQcY2csn82eftMWdQjUlY.Z3Q-] found.
Track | CTDB Status
1 | (37/37) Accurately ripped
2 | (37/37) Accurately ripped
3 | (37/37) Accurately ripped
4 | (37/37) Accurately ripped
5 | (37/37) Accurately ripped
6 | (37/37) Accurately ripped
7 | (37/37) Accurately ripped
8 | (37/37) Accurately ripped
9 | (37/37) Accurately ripped
10 | (37/37) Accurately ripped
11 | (37/37) Accurately ripped
12 | (37/37) Accurately ripped
13 | (37/37) Accurately ripped
14 | (37/37) Accurately ripped
15 | (37/37) Accurately ripped
16 | (37/37) Accurately ripped
17 | (37/37) Accurately ripped
18 | (37/37) Accurately ripped
19 | (37/37) Accurately ripped
20 | (37/37) Accurately ripped
21 | (37/37) Accurately ripped
22 | (37/37) Accurately ripped
[AccurateRip ID: 001f02c1-01fd3562-1c09e116] found.
Track [ CRC | V2 ] Status
01 [21fe908d|06ba487b] (09+19/37) Accurately ripped
02 [b779a0da|a088e45c] (09+19/37) Accurately ripped
03 [edcd14f4|1192e445] (09+19/37) Accurately ripped
04 [3891fde3|db167c67] (09+19/37) Accurately ripped
05 [02ae56a7|330bd995] (09+19/37) Accurately ripped
06 [3bccb2ef|a004fca8] (09+19/37) Accurately ripped
07 [5a5d9ed7|56b7d4d0] (09+19/37) Accurately ripped
08 [c79312fc|ad6ffdc7] (09+19/37) Accurately ripped
09 [be24497c|7208de6e] (09+19/37) Accurately ripped
10 [e5165c58|6a47a45b] (09+19/37) Accurately ripped
11 [4001012f|b34d1800] (09+19/37) Accurately ripped
12 [f7f6bf74|5c61507e] (09+19/37) Accurately ripped
13 [680d3398|5d5a1c32] (09+19/37) Accurately ripped
14 [6c5a2855|c92ab6cd] (09+19/37) Accurately ripped
15 [804093da|421ed77f] (09+19/37) Accurately ripped
16 [de684c6c|a514ceb2] (09+19/37) Accurately ripped
17 [3b322cc9|63ebc6fd] (09+19/37) Accurately ripped
18 [29859d07|a8dc5e17] (09+19/37) Accurately ripped
19 [0fd9bc51|1c165814] (09+19/37) Accurately ripped
20 [b6d8da85|1b7ba242] (09+19/37) Accurately ripped
21 [3f2e4569|37878046] (09+19/37) Accurately ripped
22 [a1089027|42db0eb4] (09+19/37) Accurately ripped
Offsetted by -258:
01 [540feb67] (04/37) Accurately ripped
02 [12beb33d] (04/37) Accurately ripped
03 [2133215e] (04/37) Accurately ripped
04 [e7b83333] (04/37) Accurately ripped
05 [d3226b8d] (04/37) Accurately ripped
06 [1a5cb008] (04/37) Accurately ripped
07 [7abb17d8] (04/37) Accurately ripped
08 [4d28de27] (04/37) Accurately ripped
09 [4ecf9918] (04/37) Accurately ripped
10 [553e7816] (04/37) Accurately ripped
11 [3d88e7ec] (04/37) Accurately ripped
12 [2d505026] (04/37) Accurately ripped
13 [b2b4b050] (04/37) Accurately ripped
14 [fe404014] (04/37) Accurately ripped
15 [49228020] (04/37) Accurately ripped
16 [4416eb1c] (04/37) Accurately ripped
17 [800f0260] (04/37) Accurately ripped
18 [cbe5b248] (04/37) Accurately ripped
19 [8dac2c61] (04/37) Accurately ripped
20 [64d1d9a5] (04/37) Accurately ripped
21 [38623a98] (04/37) Accurately ripped
22 [050423c1] (04/37) Accurately ripped

Track Peak [ CRC32 ] [W/O NULL] [ LOG ]
– 100,0 [767F03A5] [60999E2D] CRC32
01 72,2 [E5389A9B] [7D0B3611]
02 63,6 [27C0DDC4] [6F0CF5DB]
03 34,1 [AF5D91C1] [F577158E]
04 58,7 [4ABF11FF] [7FD4E6E0]
05 33,1 [F51743BA] [552A5F0F]
06 37,2 [6C947F7D] [7ABA3900]
07 51,8 [4D639DC3] [0777E83B]
08 70,4 [3CDDF1F2] [4F650337]
09 70,9 [AF7F1C90] [3806F2C8]
10 68,5 [C63BE743] [38507A2C]
11 82,5 [88D04542] [7BB15158]
12 81,0 [2AC3404D] [26C4F80D]
13 32,6 [8002A556] [64EE6B97]
14 20,3 [786EA16B] [86D55EC1]
15 37,0 [13108FA7] [023C262A]
16 74,3 [CB092C11] [16AD5BD9]
17 49,5 [511F5A40] [2A96CEF3]
18 61,9 [25D0A91E] [346E9B0F]
19 59,7 [0FD332B4] [8A295B49]
20 55,9 [57A8D4DB] [FB14FD4D]
21 100,0 [A4095142] [82FAF85A]
22 96,0 [CBF46DAE] [0BBFA9C5]

Thanks to the original releaser

See also:
Tangerine Dream - The Electronic Journey (2010) [10CD Box Set]
Tangerine Dream - The Dream Roots Collection [5CD Box Set] (1996)
Tangerine Dream - Electronic Meditation (1970) [Reissue 1996]
Tangerine Dream - Alpha Centauri (1971) [Reissue 2011]
Tangerine Dream - Zeit (1972) [Reissue 1996]
Tangerine Dream - Atem (1973) [Reissue 2011]
Tangerine Dream - Phaedra (1974) [Original Edition]
Tangerine Dream - Phaedra (1974) [Definitive Edition 1995]
Tangerine Dream - Ricochet (1975) [Definitive Edition 1995]
Tangerine Dream - Stratosfear (1976) [Definitive Edition 1995]
Tangerine Dream - Sorcerer (OST) (1977) [Reissue 2011]
Tangerine Dream - Force Majeure (1979) [Reissue 1995]
Tangerine Dream - Pergamon (1980) [Reissue 1996]
Tangerine Dream - White Eagle (1982) [Reissue 1995]
Tangerine Dream - Logos Live (1982) [Definitive Edition 1995]
Tangerine Dream - Poland - The Warsaw Concert (1984) [Reissue 2011]
Tangerine Dream - Firestarter ...ion Picture Soundtrack] (1984)
Tangerine Dream - Legend (OST) (1986) [Reissue 1995]
Tangerine Dream - Tyger (1987) [Reissue 1996]
Tangerine Dream - Optical Race (1988)
Tangerine Dream - Live Miles (1988) [Reissue 2003]
Tangerine Dream - Lily On The Beach (1989)
Tangerine Dream - Melrose (1990)
Tangerine Dream - Dead Solid Perfect (OST) (1990)
Tangerine Dream - The Park Is Mine (OST) (1991)
Tangerine Dream - Deadly Care (OST) (1992)
Tangerine Dream - Quinoa (1992) [Reissue 2009]
Tangerine Dream - Catch Me If You Can (OST) (1994)
Tangerine Dream - Tyranny Of Beauty (1995)
Tangerine Dream - Goblins' Club (1996)
Tangerine Dream - Zoning (OST) (1996)
Tangerine Dream - The Analogue Space Years 1969-1973 (1998)
Tangerine Dream - The Hollywood Years Vol. 1 (1998)
Tangerine Dream - The Hollywood Years Vol. 2 (1998)
Tangerine Dream - Antique Dreams (2000)
Tangerine Dream - Soundmill Navigator (2000)
Tangerine Dream - The Bootleg Box Set Vol. 1 [7CD] (2003)
Tangerine Dream - Purgatorio (2004)
Tangerine Dream - Arizona Live '92 (2004) [Reissue 2009]
Tangerine Dream - Phaedra 2005 (2005) [Japanese Edition 2009]
Tangerine Dream - Cleveland - June 24th 1986 (2005)
Tangerine Dream - Blue Dawn (2006)
Tangerine Dream - The Essential Tangerine Dream (2006)
Tangerine Dream - Plays Tangerine Dream (2006)
Tangerine Dream - Views From A Red Train (2008)
Tangerine Dream - Booster (2008)
Tangerine Dream - Booster Vol. 2 (2008)
Tangerine Dream - The Antholog... Space Years Volume One (2008)
Tangerine Dream - Music For Sports: Cool Races (2009)
Tangerine Dream - Music For Sports: Power And Motion (2009)
Tangerine Dream - DM V (Dream Mixes V) (2010)
Tangerine Dream - The London Eye Concert (2010)
Tangerine Dream - The Virgin Years 1974-1978 [3CD Box Set] (2011)
Tangerine Dream - The Official...ies Vol.1 [4CD Box Set] (2015)
Tangerine Dream - Live At Coventry Cathedral 1975 (2007) [DVD]
Edgar Froese - 2 Albums (1974-1995)
Edgar Froese - Ages (1978) [Reissue 1997]
Edgar Froese - Pinnacles (1983)