Tags
Language
Tags

Tangerine Dream - Underwater Sunlight (1986) [Non-Remastered]

Posted By: gribovar
Tangerine Dream - Underwater Sunlight (1986) [Non-Remastered]

Tangerine Dream - Underwater Sunlight (1986) [Non-Remastered]
EAC Rip | APE (image+.cue+log) - 212 MB | MP3 CBR 320 kbps (LAME 3.93) - 94 MB | Covers - 36 MB
Genre: Electronic, New Age | RAR 3% Rec. | Label: Jive Electro (CHIP40)

Underwater Sunlight was the first album Paul Haslinger recorded with Tangerine Dream and his presence is immediately felt. With Haslinger, the group relied more heavily on strict structures and jarring compositional flourishes, which is only appropriate, since he came directly from a classical background. The group hadn't quite figured out how to fully incorporate these techniques into their music, but the results on Underwater are nevertheless fascinating.

Tracklist:
01. Song Of The Whale Part 1
02. Song Of The Whale Part 2
03. Dolphin Dance
04. Ride On The Ray
05. Scuba Scuba
06. Underwater Twilight

Total time: 40:17

Exact Audio Copy V0.99 prebeta 4 from 23. January 2008

EAC extraction logfile from 9. November 2008, 11:33

Tangerine Dream / Underwater Sunlight

Used drive : LITE-ON DVDRW LH-20A1S Adapter: 3 ID: 0

Read mode : Secure
Utilize accurate stream : Yes
Defeat audio cache : Yes
Make use of C2 pointers : No

Read offset correction : 6
Overread into Lead-In and Lead-Out : No
Fill up missing offset samples with silence : Yes
Delete leading and trailing silent blocks : No
Null samples used in CRC calculations : Yes
Used interface : Installed external ASPI interface

Used output format : Internal WAV Routines
Sample format : 44.100 Hz; 16 Bit; Stereo


TOC of the extracted CD

Track | Start | Length | Start sector | End sector
––––––––––––––––––––––––––––-
1 | 0:00.32 | 8:20.73 | 32 | 37604
2 | 8:21.30 | 10:54.02 | 37605 | 86656
3 | 19:15.32 | 5:07.00 | 86657 | 109681
4 | 24:22.32 | 5:35.00 | 109682 | 134806
5 | 29:57.32 | 4:27.50 | 134807 | 154881
6 | 34:25.07 | 5:51.60 | 154882 | 181266


Range status and errors

Selected range

Filename F:\Media\BTout\Tangerine Dream - Underwater Sunlight\Tangerine Dream - Underwater Sunlight.wav

Peak level 100.0 %
Range quality 100.0 %
Copy CRC 51CBD447
Copy OK

No errors occurred


AccurateRip summary

Track 1 accurately ripped (confidence 7) [7BF32815]
Track 2 accurately ripped (confidence 7) [CAC26AD8]
Track 3 accurately ripped (confidence 7) [47689734]
Track 4 accurately ripped (confidence 7) [3A1E5979]
Track 5 accurately ripped (confidence 7) [6D863DA5]
Track 6 accurately ripped (confidence 7) [C72AC055]

All tracks accurately ripped

End of status report

[CUETools log; Date: 14.04.2021 14:25:18; Version: 2.1.4]
Pregap length 00:00:32.
[CTDB TOCID: 4q5WMOKhRBfnxzMfI2szi9YHZvI-] found.
Track | CTDB Status
1 | (106/163) Accurately ripped
2 | ( 83/163) Accurately ripped, or (21/163) differs in 2 samples @01:04:62
3 | ( 82/163) Accurately ripped, or (21/163) differs in 1470 samples @02:43:37-02:43:39
4 | (107/163) Accurately ripped
5 | (106/163) Accurately ripped
6 | (106/163) Accurately ripped
[AccurateRip ID: 000ac1a4-0037a2b9-50097006] found.
Track [ CRC | V2 ] Status
01 [7bf32815|047645cc] (028+029/109) Accurately ripped
02 [cac26ad8|9809db49] (026+029/106) Accurately ripped
03 [47689734|9c4442f5] (026+027/104) Accurately ripped
04 [3a1e5979|0973bcf2] (026+029/107) Accurately ripped
05 [6d863da5|73c2e701] (026+028/106) Accurately ripped
06 [c72ac055|aaaa8f45] (026+029/104) Accurately ripped
Offsetted by 233:
01 [37958e85] (013/109) Accurately ripped
02 [fc1b1c43] (000/106) No match (V2 was not tested)
03 [13c683c2] (000/104) No match (V2 was not tested)
04 [54923a15] (013/107) Accurately ripped
05 [2b0db79f] (013/106) Accurately ripped
06 [5eefab33] (012/104) Accurately ripped

Track Peak [ CRC32 ] [W/O NULL] [ LOG ]
– 100,0 [51CBD447] [6A705ECC] CRC32
01 100,0 [E6A001C7] [D9CEDA53]
02 100,0 [43A834FA] [00D9E790]
03 98,2 [773E09C0] [0E226F22]
04 88,9 [2B5D7B1A] [C7066C2F]
05 79,8 [1E8E2C68] [B1AB8555]
06 86,6 [5CA23CF5] [50048C25]

Thanks to Yanni777

See also:
Tangerine Dream - The Electronic Journey (2010) [10CD Box Set]
Tangerine Dream - The Dream Roots Collection [5CD Box Set] (1996)
Tangerine Dream - Electronic Meditation (1970) [Reissue 1996]
Tangerine Dream - Alpha Centauri (1971) [Reissue 1996]
Tangerine Dream - Alpha Centauri (1971) [Reissue 2011]
Tangerine Dream - Zeit (1972) [Reissue 1996]
Tangerine Dream - Atem (1973) [Reissue 2011]
Tangerine Dream - Phaedra (1974) [Original Edition]
Tangerine Dream - Phaedra (1974) [Definitive Edition 1995]
Tangerine Dream - Rubycon (1975) [Non-remastered, Reissue 1988]
Tangerine Dream - Rubycon (1975) [Definitive Edition 1995]
Tangerine Dream - Ricochet (1975) [Definitive Edition 1995]
Tangerine Dream - Stratosfear (1976) [Definitive Edition 1995]
Tangerine Dream - Encore (1977)
Tangerine Dream - Sorcerer (OST) (1977) [Reissue 2011]
Tangerine Dream - Force Majeure (1979) [Reissue 1995]
Tangerine Dream - Tangram (1980)
Tangerine Dream - Pergamon (1980) [Reissue 1996]
Tangerine Dream - White Eagle (1982) [Reissue 1995]
Tangerine Dream - Logos Live (1982) [Definitive Edition 1995]
Tangerine Dream - Hyperborea (1983)
Tangerine Dream - Wavelength [OST] (1983)
Tangerine Dream - Poland - The Warsaw Concert (1984) [Reissue 2011]
Tangerine Dream - Firestarter ...ion Picture Soundtrack] (1984)
Tangerine Dream - Underwater Sunlight (1986) [Reissue 1996]
Tangerine Dream - Green Desert [Recorded 1973] (1986)
Tangerine Dream - Legend (OST) (1986) [Reissue 1995]
Tangerine Dream - Tyger (1987) [Reissue 1992, US version]
Tangerine Dream - Tyger (1987) [Reissue 1996]
Tangerine Dream - Three O'Clock High [OST] (1987)
Tangerine Dream - Optical Race (1988)
Tangerine Dream - Live Miles (1988) [Reissue 2003]
Tangerine Dream - Lily On The Beach (1989)
Tangerine Dream - Melrose (1990)
Tangerine Dream - Dead Solid Perfect (OST) (1990)
Tangerine Dream - The Park Is Mine (OST) (1991)
Tangerine Dream - Rockoon (1992) [Reissue 2000]
Tangerine Dream - Deadly Care (OST) (1992)
Tangerine Dream - Quinoa (1992) [Reissue 2009]
Tangerine Dream - The Story Of Tangerine Dream (1992)
Tangerine Dream - Catch Me If You Can (OST) (1994)
Tangerine Dream - Tyranny Of Beauty (1995)
Tangerine Dream - Goblins' Club (1996)
Tangerine Dream - Zoning (OST) (1996)
Tangerine Dream - The Analogue Space Years 1969-1973 (1998)
Tangerine Dream - The Hollywood Years Vol. 1 (1998)
Tangerine Dream - The Hollywood Years Vol. 2 (1998)
Tangerine Dream - Atlantic Bridges [Recorded 1988-1997] (1998)
Tangerine Dream - Antique Dreams (2000)
Tangerine Dream - Soundmill Navigator (2000)
Tangerine Dream - The Bootleg Box Set Vol. 1 [7CD] (2003)
Tangerine Dream - Purgatorio (2004)
Tangerine Dream - Arizona Live '92 (2004) [Reissue 2009]
Tangerine Dream - Phaedra 2005 (2005) [Japanese Edition 2009]
Tangerine Dream - Cleveland - June 24th 1986 (2005)
Tangerine Dream - Blue Dawn (2006)
Tangerine Dream - The Essential Tangerine Dream (2006)
Tangerine Dream - Plays Tangerine Dream (2006)
Tangerine Dream - Springtime In Nagasaki (2007)
Tangerine Dream - Autumn In Hiroshima (2008)
Tangerine Dream - Views From A Red Train (2008)
Tangerine Dream - Booster (2008)
Tangerine Dream - Booster Vol. 2 (2008)
Tangerine Dream - The Antholog... Space Years Volume One (2008)
Tangerine Dream - Booster III (2009)
Tangerine Dream - Axiat [Recorded 1999-2005] (2009)
Tangerine Dream - Music For Sports: Cool Races (2009)
Tangerine Dream - Music For Sports: Power And Motion (2009)
Tangerine Dream - DM V (Dream Mixes V) (2010)
Tangerine Dream - The London Eye Concert (2010)
Tangerine Dream - Zeitgeist Concert [3CD Box Set] (2010)
Tangerine Dream - The Virgin Years 1974-1978 [3CD Box Set] (2011)
Tangerine Dream - Booster IV (2011)
Tangerine Dream - Booster V (2012)
Tangerine Dream - The Official...ies Vol.1 [4CD Box Set] (2015)
Tangerine Dream - Live At The Tempodrome Berlin (2006) [DVD]
Tangerine Dream - Live At Coventry Cathedral 1975 (2007) [DVD]
Tangerine Dream - Madcap's Flaming Duty [DVD] (2007)
Tangerine Dream - 35th Phaedra Anniversary Concert [2DVD] (2007)
Edgar Froese - 2 Albums (1974-1995)
Edgar Froese - Ages (1978) [Reissue 1997]
Edgar Froese - Pinnacles (1983)