Subcategories

Taylor Swift - Albums Collection 2006-2014 (9CD + 2DVD) [Japanese Releases] Re-Up

Posted By: Designol
Taylor Swift - Albums Collection 2006-2014 (9CD + 2DVD) [Japanese Releases] Re-Up

Taylor Swift - Albums Collection 2006-2014 (9CD + 2DVD) [Japanese Releases]
EAC | FLAC | Image (Cue&Log) ~ 3.5 Gb | Mp3 (CBR320) ~ 1.2 Gb | Time: 08:48:06
DVD5 | NTSC | 4:3 (720x480) VBR | AC3 2.0 192 kbps | 01:47:28 | ~ 4 Gb
DVD5 | NTSC | 16:9 (720x480) VBR | LPCM 2.0 | 00:30:53 | ~ 2 Gb
Genre: Pop, Country Pop | Scans ~ 1 Gb

Collection includes: 'Taylor Swift' (2006) SHM-CD + Deluxe Edition; 'Fearless' (2008) SHM-CD + Platinum Edition (CD+DVD); 'Speak Now' (2010) 2CD Deluxe Edition; 'Red' (2012) 2CD Deluxe Edition; '1989 D.L.X.' (2014) (CD+DVD).

Taylor Swift is that rarest of pop phenomena: a superstar who managed to completely cross over from country to the mainstream. Other singers performed similar moves – notably, Dolly Parton and Willie Nelson both became enduring mainstream icons based on their '70s work – but Swift shed her country roots like they were a second skin; it was a necessary molting to reveal she was perhaps the sharpest, savviest populist singer/songwriter of her generation, one who could harness the Zeitgeist and turn it personal and, just as impressively, perform the reverse. These skills were evident on her earliest hits, especially the neo-tribute "Tim McGraw," but her second album, 2008's Fearless, showcased a songwriter discovering who she was and, in the process, finding a mass audience. Fearless wound up having considerable legs not only in the U.S., where it racked up six platinum singles on the strength of the Top Ten hits "Love Story" and "You Belong with Me," but throughout the world, performing particularly well in the U.K., Canada, and Australia. Speak Now, delivered almost two years later in the autumn of 2010, consolidated that success and Swift moved into the stratosphere of superstardom, with her popularity only increasing on 2012's Red and 2014's 1989, a pair of records that found her moving assuredly from country into a pop realm where she already belonged.

This sense of confidence had been apparent in Taylor Swift since the beginning. The daughter of two bankers – her father, Scott Kingsley Swift, worked at Merrill Lynch; her mother Andrea spent time as a mutual fund marketing executive – Swift was born in Reading, Pennsylvania and raised in suburban Wyomissing. She began to show interest in music at the age of nine, and Shania Twain wound up as her biggest formative influence. Swift started to work regularly at local talent contests, eventually winning a chance to open for Charlie Daniels. Soon, she learned how to play guitar and began writing songs, signing a music management deal with Dan Dymtrow; her family relocated to Nashville with the intent of furthering her music career. She was just 14 years old but on the radar of the music industry, signing a development deal with RCA Records in 2004. Swift sharpened her skills with a variety of professional songwriters, forming the strongest connections with Liz Rose. Taylor's original songs earned her a deal with Sony/ATV Music Publishing, but not long after that 2004 deal she parted ways with Dymtrow and RCA, all with the intent of launching her recording career now, not later.

Things started moving swiftly once Swift came to the attention of Scott Borchetta, a former DreamWorks Records exec about to launch Big Machine Records. Borchetta saw Swift perform at a songwriters showcase at the Bluebird Cafe and he signed her to Big Machine in 2005; shortly afterward, she started work on her debut with producer Nathan Chapman, who'd previously helmed demos for Taylor. Boasting original song credits on every one of the record's 11 songs (she penned three on her own), Taylor Swift appeared in October 2006 to strong reviews and Swift made sure to work the album hard, appearing at every radio or television event offered and marshaling a burgeoning fan base through use of MySpace. "Tim McGraw," the first song from the album, did well but "Teardrops on My Guitar" and "Our Song" did better on both the pop and country charts, where she racked up five consecutive Top Ten singles. Other successes followed in the wake of the debut – a Grammy nomination for Best New Artist (she lost to Amy Winehouse), stopgap EPs of Christmas songs – but Swift concentrated on delivering her sophomore set, Fearless.

Appearing in November 2008, Fearless was certified gold by the RIAA in its first week of release, and the record gained momentum throughout 2009, earning several platinum certifications as "Love Story," "White Horse," "You Belong with Me," "Fifteen," and "Fearless" all scaled the upper reaches of the country charts while "You Belong with Me" nearly topped Billboard's Top 100. Along with the success came some headlines, first in the form of an infamous appearance at the 2009 MTV Video Music Awards where her acceptance speech was interrupted by Kanye West, who burst on-stage to declare that Swift's rival Beyoncé deserved the award more, but her romances also started gaining attention, notably a liaison with Twilight star Taylor Lautner, who appeared with the singer in the 2009 film Valentine's Day.

Her flirtation with the silver screen proved brief, as she then poured herself into her third album, Speak Now. Released in October 2010, Speak Now was another massive first-week smash that refused to lose momentum. Hit singles like "Mine" and "Mean," which won two Grammys, played a big factor in its success not just on the country charts but on pop radio as well. Following a 2011 live album called World Tour Live: Speak Now, Swift turned toward following a pop path on her fourth album, hiring such mainstream musicians as Dan Wilson, Butch Walker, and Britney Spears producer Max Martin. This mainstream pulse was evident on "We Are Never Ever Getting Back Together," the first single from Red. Upon its October 2012 release, Red shattered expectations by selling over a million copies in its first week, a notable achievement that was doubly impressive in an era of declining sales. Once again, Swift's album had legs: it was certified platinum four times in the U.S. and its international sales outstripped those of Speak Now. She supported Red with an international tour in 2013 and more hits came, including "I Knew You Were Trouble" and "22."

As Swift geared up for the release of her fifth album in 2014, she made it clear that 1989 was designed as her first "documented, official" pop album and that there would be no country marketing push for the record. "Shake It Off," an ebullient dance-pop throwback, hit number one upon its August 2014 release. When 1989 appeared in late October 2014, it once again shot to number one and became her third straight album to sell one million copies in its first week (a new record for any artist).

Swift gathered many awards during the subsequent year, including Billboard's Woman of the Year, the Award for Excellence at the American Music Awards, and a special 50th Anniversary Milestone Award from the CMAs. Her 1989 World Tour crossed Asia, North America, and Europe during the last half of 2015, and she won three Grammy Awards at the 2016 ceremonies, including Album of the Year, Best Pop Vocal Album, and Best Music Video for "Bad Blood." At the end of 2016, she released "I Don't Wanna Live Forever," a duet with ZAYN from the soundtrack for Fifty Shades Darker. The single reached the Top Five across the world. Swift returned with her sixth album, Reputation, in November 2017, preceded by the August single "Look What You Made Me Do" and its September successor, "…Ready for It?"

Stephen Thomas Erlewine, Allmusic.com

Taylor Swift - Albums Collection 2006-2014 (9CD + 2DVD) [Japanese Releases] Re-Up

Taylor Swift - Albums Collection 2006-2014 (9CD + 2DVD) [Japanese Releases] Re-Up






Taylor Swift - Albums Collection 2006-2014 (9CD + 2DVD) [Japanese Releases] Re-Up

Taylor Swift - Taylor Swift (2006) [Japanese SHM-CD, 2008]
EAC | FLAC | Image (Cue&Log) ~ 380 Mb | Mp3 (CBR320) ~ 123 Mb
Label: Big Machine/Universal | # UICY-20408 | 00:54:02 | Scans ~ 114 Mb

All of 16 when she recorded this debut album, country-pop singer Taylor Swift's considerably strong voice straddles that precarious edge that both suggests experience far beyond her years, and simultaneously leaves no doubt that she's still got a lot of life to live. It's a fresh, still girlish voice, full of hope and naïveté, but it's also a confident and mature one. That Swift is a talent to be reckoned with is never in doubt: her delivery on tracks like the uptempo "The Outside," the spare acoustic ballad "Mary's Song (Oh My My My)," and especially the leadoff track, "Tim McGraw," which was the first single from the album, is that of a seasoned pro, despite Swift's newcomer status. "Tim McGraw" may also be the album's highlight – not a teenager's tribute to the country superstar, it instead uses McGraw as a marker in a lover's time line: "When you think Tim McGraw/I hope you think my favorite song." It's a device that's been used countless times in as many ways, that of associating a failed affair with items, places, and people, yet it works as a hook here and manages to come off as an original idea. Swift wrote or co-wrote every song on the record, a fairly remarkable feat considering the sophisticated manner in which she treats matters near and dear to the heart of one her age ("Now that I'm sitting here thinking it through/I've never been anywhere cold as you"). Producer/mentor Nathan Chapman has applied a gloss to some of Swift's songs that not all of them really require, and in some cases, would do better without. But Swift has no trouble overcoming any blandness taking place around her. She's come up with a commendable starter album that's as accomplished as any by a ten-year veteran who's seen a lot more road and felt a lot more emotion. Swift's young age may be a major point of interest in bringing listeners in, but by the end of the record, she's succeeded in keeping them.

Jeff Tamarkin, Allmusic.com

Tracklist:

01. Tim McGraw (03:54)
02. Picture to Burn (02:55)
03. Teardrops on my Guitar (03:24)
04. A Place in This World (03:22)
05. Cold As You (04:01)
06. The Outside (03:28)
07. Tied Together With a Smile (04:11)
08. Stay Beautiful (03:58)
09. Should've Said No (04:04)
10. Mary's Song (Oh My My My) (03:35)
11. Our Song (03:23)
12. I'm Only Me When I'm With You (03:35)
13. Invisible (03:25)
14. A Perfectly Good Heart (03:42)
15. Teardrops On My Guitar (pop version) (02:59)


Exact Audio Copy V1.0 beta 3 from 29. August 2011

Отчёт EAC об извлечении, выполненном 23. января 2015, 21:59

Taylor Swift / Taylor Swift (SHM-CD) (Japan)

Дисковод: TSSTcorpCDDVDW TS-L632H Adapter: 1 ID: 0

Режим чтения : Достоверность
Использование точного потока : Да
Отключение кэша аудио : Да
Использование указателей C2 : Нет

Коррекция смещения при чтении : 6
Способность читать области Lead-in и Lead-out : Нет
Заполнение пропущенных сэмплов тишиной : Да
Удаление блоков с тишиной в начале и конце : Нет
При вычислениях CRC использовались нулевые сэмплы : Да
Интерфейс : Встроенный Win32-интерфейс для Win NT/2000

Выходной формат : Пользовательский кодировщик
Выбранный битрейт : 128 kBit/s
Качество : Высокий
Добавление ID3-тега : Нет
Утилита сжатия : C:\Program Files\Exact Audio Copy\Flac\flac.exe
Дополнительные параметры : -V -8 -T "Date=%year%" -T "Genre=%genre%" %source%


TOC извлечённого CD

Трек | Старт | Длительность | Начальный сектор | Конечный сектор
––––––––––––––––––––––––––––––––––-
1 | 0:00.00 | 3:54.41 | 0 | 17590
2 | 3:54.41 | 2:55.21 | 17591 | 30736
3 | 6:49.62 | 3:24.53 | 30737 | 46089
4 | 10:14.40 | 3:22.06 | 46090 | 61245
5 | 13:36.46 | 4:01.17 | 61246 | 79337
6 | 17:37.63 | 3:28.74 | 79338 | 95011
7 | 21:06.62 | 4:11.16 | 95012 | 113852
8 | 25:18.03 | 3:58.45 | 113853 | 131747
9 | 29:16.48 | 4:04.06 | 131748 | 150053
10 | 33:20.54 | 3:35.14 | 150054 | 166192
11 | 36:55.68 | 3:23.33 | 166193 | 181450
12 | 40:19.26 | 3:35.45 | 181451 | 197620
13 | 43:54.71 | 3:25.64 | 197621 | 213059
14 | 47:20.60 | 3:42.11 | 213060 | 229720
15 | 51:02.71 | 2:59.05 | 229721 | 243150


Характеристики диапазона извлечения и сообщения об ошибках

Выбранный диапазон

Имя файла C:\My Rips\Audio\Taylor Swift - 2012 - Taylor Swift (SHM-CD) (Japan)\Taylor Swift - Taylor Swift (SHM-CD) (Japan).wav

Пиковый уровень 99.7 %
Скорость извлечения 4.1 X
Качество диапазона 100.0 %
CRC теста 4027DD62
CRC копии 4027DD62
Копирование… OK

Ошибок не произошло


AccurateRip: сводка

Трек 1 : извлечено точно (доверие 63) [D35DBB99] (AR v2)
Трек 2 : извлечено точно (доверие 63) [D63D151F] (AR v2)
Трек 3 : извлечено точно (доверие 62) [5B6DACFE] (AR v2)
Трек 4 : извлечено точно (доверие 63) [F7FC31F2] (AR v2)
Трек 5 : извлечено точно (доверие 63) [FB95868A] (AR v2)
Трек 6 : извлечено точно (доверие 63) [4CF1D16C] (AR v2)
Трек 7 : извлечено точно (доверие 62) [F2BC796C] (AR v2)
Трек 8 : извлечено точно (доверие 63) [A7CA4AF7] (AR v2)
Трек 9 : извлечено точно (доверие 64) [D2D15222] (AR v2)
Трек 10 : извлечено точно (доверие 63) [312E5F84] (AR v2)
Трек 11 : извлечено точно (доверие 64) [A617DA76] (AR v2)
Трек 12 : извлечено точно (доверие 62) [82023CC0] (AR v2)
Трек 13 : извлечено точно (доверие 63) [52592232] (AR v2)
Трек 14 : извлечено точно (доверие 63) [B362AD3E] (AR v2)
Трек 15 : извлечено точно (доверие 61) [66350AD8] (AR v2)

Все треки извлечены точно

Конец отчёта

==== Контрольная сумма отчёта 7E82768D87E5FECFAFF7617E371E4B00D2A98D961A920933FC3D14DBC91323FA ====

foobar2000 1.2 / Dynamic Range Meter 1.1.1
log date: 2015-01-30 01:12:43

––––––––––––––––––––––––––––––––––––––––
Analyzed: Taylor Swift / Taylor Swift (SHM-CD) (Japan)
––––––––––––––––––––––––––––––––––––––––

DR Peak RMS Duration Track
––––––––––––––––––––––––––––––––––––––––
DR6 -1.19 dB -9.42 dB 3:55 01-Tim McGraw
DR6 -0.12 dB -7.49 dB 2:55 02-Picture to Burn
DR6 -0.32 dB -9.25 dB 3:25 03-Teardrops on my Guitar
DR6 -0.12 dB -7.34 dB 3:22 04-A Place in This World
DR7 -0.12 dB -9.64 dB 4:01 05-Cold As You
DR6 -0.52 dB -8.23 dB 3:29 06-The Outside
DR6 -0.81 dB -8.58 dB 4:11 07-Tied Together With a Smile
DR7 -0.12 dB -9.22 dB 3:59 08-Stay Beautiful
DR6 -0.12 dB -8.04 dB 4:04 09-Should've Said No
DR7 -0.12 dB -8.65 dB 3:35 10-Mary's Song (Oh My My My)
DR4 -1.80 dB -8.03 dB 3:23 11-Our Song
DR6 -0.02 dB -7.84 dB 3:36 12-I'm Only Me When I'm With You
DR7 -0.40 dB -10.00 dB 3:26 13-Invisible
DR7 -0.02 dB -8.36 dB 3:42 14-A Perfectly Good Heart
DR6 -0.10 dB -7.92 dB 2:59 15-Teardrops On My Guitar (pop version)
––––––––––––––––––––––––––––––––––––––––

Number of tracks: 15
Official DR value: DR6

Samplerate: 44100 Hz
Channels: 2
Bits per sample: 16
Bitrate: 984 kbps
Codec: FLAC
================================================================================




Taylor Swift - Albums Collection 2006-2014 (9CD + 2DVD) [Japanese Releases] Re-Up

Taylor Swift - Taylor Swift (2006) [Japanese Deluxe Edition, 2010]
EAC | FLAC | Image (Cue&Log) ~ 372 Mb | Mp3 (CBR320) ~ 127 Mb
Label: Big Machine/Universal | # UICO-1186 | 00:55:47 | Scans ~ 106 Mb


Tracklist:

01. Tim McGraw (03:54)
02. Picture To Burn (02:55)
03. Teardrops On My Guitar (Radio Single Version) (03:24)
04. A Place In This World (03:22)
05. Cold As You (04:01)
06. The Outside (03:28)
07. Tied Together With A Smile (04:11)
08. Stay Beautiful (03:58)
09. Should've Said No (04:04)
10. Mary's Song (Oh My My My) (03:35)
11. Our Song (Radio Single Version) (03:23)
12. I'm Only Me When I'm With You (03:35)
13. Invisible (03:25)
14. A Perfectly Good Heart (03:43)
15. Taylor's 1st Phone Call With Tim McGraw (04:43)


Exact Audio Copy V1.0 beta 3 from 29. August 2011

Отчёт EAC об извлечении, выполненном 23. января 2015, 22:45

Taylor Swift / Taylor Swift (Deluxe Edition) (Japan)

Дисковод: TSSTcorpCDDVDW TS-L632H Adapter: 1 ID: 0

Режим чтения : Достоверность
Использование точного потока : Да
Отключение кэша аудио : Да
Использование указателей C2 : Нет

Коррекция смещения при чтении : 6
Способность читать области Lead-in и Lead-out : Нет
Заполнение пропущенных сэмплов тишиной : Да
Удаление блоков с тишиной в начале и конце : Нет
При вычислениях CRC использовались нулевые сэмплы : Да
Интерфейс : Встроенный Win32-интерфейс для Win NT/2000

Выходной формат : Пользовательский кодировщик
Выбранный битрейт : 128 kBit/s
Качество : Высокий
Добавление ID3-тега : Нет
Утилита сжатия : C:\Program Files\Exact Audio Copy\Flac\flac.exe
Дополнительные параметры : -V -8 -T "Date=%year%" -T "Genre=%genre%" %source%


TOC извлечённого CD

Трек | Старт | Длительность | Начальный сектор | Конечный сектор
––––––––––––––––––––––––––––––––––-
1 | 0:00.00 | 3:54.41 | 0 | 17590
2 | 3:54.41 | 2:55.21 | 17591 | 30736
3 | 6:49.62 | 3:24.53 | 30737 | 46089
4 | 10:14.40 | 3:22.06 | 46090 | 61245
5 | 13:36.46 | 4:01.17 | 61246 | 79337
6 | 17:37.63 | 3:28.74 | 79338 | 95011
7 | 21:06.62 | 4:11.16 | 95012 | 113852
8 | 25:18.03 | 3:58.45 | 113853 | 131747
9 | 29:16.48 | 4:04.06 | 131748 | 150053
10 | 33:20.54 | 3:35.14 | 150054 | 166192
11 | 36:55.68 | 3:23.33 | 166193 | 181450
12 | 40:19.26 | 3:35.45 | 181451 | 197620
13 | 43:54.71 | 3:25.64 | 197621 | 213059
14 | 47:20.60 | 3:43.10 | 213060 | 229794
15 | 51:03.70 | 4:43.18 | 229795 | 251037


Характеристики диапазона извлечения и сообщения об ошибках

Выбранный диапазон

Имя файла C:\My Rips\Audio\Taylor Swift - 2010 - Taylor Swift (Deluxe Edition) (Japan)\Taylor Swift - Taylor Swift (Deluxe Edition) (Japan).wav

Пиковый уровень 99.7 %
Скорость извлечения 4.1 X
Качество диапазона 100.0 %
CRC теста 5492B0A4
CRC копии 5492B0A4
Копирование… OK

Ошибок не произошло


AccurateRip: сводка

Трек 1 : извлечено точно (доверие 1) [D35DBB99] (AR v2)
Трек 2 : извлечено точно (доверие 1) [D63D151F] (AR v2)
Трек 3 : извлечено точно (доверие 1) [5B6DACFE] (AR v2)
Трек 4 : извлечено точно (доверие 1) [F7FC31F2] (AR v2)
Трек 5 : извлечено точно (доверие 1) [FB95868A] (AR v2)
Трек 6 : извлечено точно (доверие 1) [4CF1D16C] (AR v2)
Трек 7 : извлечено точно (доверие 1) [F2BC796C] (AR v2)
Трек 8 : извлечено точно (доверие 1) [A7CA4AF7] (AR v2)
Трек 9 : извлечено точно (доверие 1) [D2D15222] (AR v2)
Трек 10 : извлечено точно (доверие 1) [312E5F84] (AR v2)
Трек 11 : извлечено точно (доверие 1) [A617DA76] (AR v2)
Трек 12 : извлечено точно (доверие 1) [82023CC0] (AR v2)
Трек 13 : извлечено точно (доверие 1) [52592232] (AR v2)
Трек 14 : извлечено точно (доверие 1) [B362AD3E] (AR v2)
Трек 15 точность не определена (достоверность 1) [056E9F38], AccurateRip вернул [16D16D7E] (AR v2)

14 трек(и) скопированы точно
1 трек(и) не удалось проверить на точность

Некоторые треки не прошли проверку на точность

Конец отчёта

==== Контрольная сумма отчёта 2618DFFD8B4DB73C189746F348476FC58C5722D9AB4072630AC6E4462DFB98CA ====

foobar2000 1.2 / Dynamic Range Meter 1.1.1
log date: 2015-01-30 01:13:57

––––––––––––––––––––––––––––––––––––––––
Analyzed: Taylor Swift / Taylor Swift (Deluxe Edition) (Japan)
––––––––––––––––––––––––––––––––––––––––

DR Peak RMS Duration Track
––––––––––––––––––––––––––––––––––––––––
DR6 -1.19 dB -9.42 dB 3:55 01-Tim McGraw
DR6 -0.12 dB -7.49 dB 2:55 02-Picture To Burn
DR6 -0.32 dB -9.25 dB 3:25 03-Teardrops On My Guitar (Radio Single Version)
DR6 -0.12 dB -7.34 dB 3:22 04-A Place In This World
DR7 -0.12 dB -9.64 dB 4:01 05-Cold As You
DR6 -0.52 dB -8.23 dB 3:29 06-The Outside
DR6 -0.81 dB -8.58 dB 4:11 07-Tied Together With A Smile
DR7 -0.12 dB -9.22 dB 3:59 08-Stay Beautiful
DR6 -0.12 dB -8.04 dB 4:04 09-Should've Said No
DR7 -0.12 dB -8.65 dB 3:35 10-Mary's Song (Oh My My My)
DR4 -1.80 dB -8.03 dB 3:23 11-Our Song (Radio Single Version)
DR6 -0.02 dB -7.84 dB 3:36 12-I'm Only Me When I'm With You
DR7 -0.40 dB -10.00 dB 3:26 13-Invisible
DR7 -0.02 dB -8.42 dB 3:43 14-A Perfectly Good Heart
DR11 -2.82 dB -15.93 dB 4:43 15-Taylor's 1st Phone Call With Tim McGraw
––––––––––––––––––––––––––––––––––––––––

Number of tracks: 15
Official DR value: DR7

Samplerate: 44100 Hz
Channels: 2
Bits per sample: 16
Bitrate: 934 kbps
Codec: FLAC
================================================================================




Taylor Swift - Albums Collection 2006-2014 (9CD + 2DVD) [Japanese Releases] Re-Up

Taylor Swift - Fearless (2008) [Japanese SHM-CD, 2012]
EAC | FLAC | Image (Cue&Log) ~ 545 Mb | Mp3 (CBR320) ~ 177 Mb
Label: Big Machine/Universal | # UICY-20409 | 01:17:21 | Scans ~ 169 Mb

Taylor Swift abandons any pretense that she's a teen on her second album, Fearless – which isn't to say that she suddenly tarts herself up, running away from her youth in a manner that's all too familiar to many teen stars. Swift's maturation is deliberate and careful, styled after the crossover country-pop of Shania Twain and Faith Hill before they turned into divas. Despite the success of her self-titled 2006 debut, there's nothing at all diva-like about Swift on 2008's Fearless: she's soft-spoken and considerate, a big sister instead of a big star. Nowhere is this truer than on "Fifteen," a kind warning for a teen to watch her heart sung from the perspective of a woman who's perhaps twice that age – a sly trick for the 18-year-old Swift. There may be a hint of youthfulness to her singing but that's the only hint of girlishness here; her writing – and she had a hand in penning all 13 tracks here, with six of them bearing her solitary credit – is sharply, subtly crafted and the music is softly assured, never pushing its hooks too hard and settling into a warm bed of guitars and keyboards. Like many country-pop albums of the 2000s, the pop heavily outweighs the country – there aren't fiddles here, there are violins – yet Fearless never feels garish, a crass attempt at a crossover success. It's small-scale and sweetly tuneful, always seeming humble even when the power ballads build to a big close. Swift's gentle touch is as enduring as her songcraft, and this musical maturity may not quite jibe with her age but it does help make Fearless one of the best mainstream pop albums of 2008.

Stephen Thomas Erlewine, Allmusic.com

Tracklist:

01. Fearless (04:04)
02. Fifteen (04:56)
03. Love Story (03:55)
04. Hey Stephen (04:16)
05. White Horse (03:55)
06. You Belong With Me (03:52)
07. Breathe [feat. Colbie Caillat] (04:25)
08. Tell Me Why (03:21)
09. You're Not Sorry (04:22)
10. The Way I Loved You (04:05)
11. Forever & Always (03:46)
12. The Best Day (04:06)
13. Change (04:40)
14. Our Song (03:21)
15. Teardrops On My Guitar (03:15)
16. Should've Said No (04:04)
17. Beautiful Eyes (03:01)
18. Picture To Burn (02:54)
19. I'm Only Me When I'm With You (03:35)
20. I Heart? (03:17)


Exact Audio Copy V1.0 beta 3 from 29. August 2011

Отчёт EAC об извлечении, выполненном 27. августа 2014, 1:24

Taylor Swift / Fearless (Japan)

Дисковод: TSSTcorpCDDVDW TS-L632H Adapter: 1 ID: 0

Режим чтения : Достоверность
Использование точного потока : Да
Отключение кэша аудио : Да
Использование указателей C2 : Нет

Коррекция смещения при чтении : 6
Способность читать области Lead-in и Lead-out : Нет
Заполнение пропущенных сэмплов тишиной : Да
Удаление блоков с тишиной в начале и конце : Нет
При вычислениях CRC использовались нулевые сэмплы : Да
Интерфейс : Встроенный Win32-интерфейс для Win NT/2000

Выходной формат : Пользовательский кодировщик
Выбранный битрейт : 128 kBit/s
Качество : Высокий
Добавление ID3-тега : Нет
Утилита сжатия : C:\Program Files\Exact Audio Copy\Flac\flac.exe
Дополнительные параметры : -V -8 -T "Date=%year%" -T "Genre=%genre%" %source%


TOC извлечённого CD

Трек | Старт | Длительность | Начальный сектор | Конечный сектор
––––––––––––––––––––––––––––––––––-
1 | 0:00.00 | 4:04.38 | 0 | 18337
2 | 4:04.38 | 4:56.05 | 18338 | 40542
3 | 9:00.43 | 3:55.33 | 40543 | 58200
4 | 12:56.01 | 4:16.33 | 58201 | 77433
5 | 17:12.34 | 3:55.47 | 77434 | 95105
6 | 21:08.06 | 3:52.43 | 95106 | 112548
7 | 25:00.49 | 4:25.41 | 112549 | 132464
8 | 29:26.15 | 3:21.38 | 132465 | 147577
9 | 32:47.53 | 4:22.61 | 147578 | 167288
10 | 37:10.39 | 4:05.66 | 167289 | 185729
11 | 41:16.30 | 3:46.29 | 185730 | 202708
12 | 45:02.59 | 4:06.54 | 202709 | 221212
13 | 49:09.38 | 4:40.59 | 221213 | 242271
14 | 53:50.22 | 3:21.47 | 242272 | 257393
15 | 57:11.69 | 3:15.63 | 257394 | 272081
16 | 60:27.57 | 4:04.60 | 272082 | 290441
17 | 64:32.42 | 3:01.03 | 290442 | 304019
18 | 67:33.45 | 2:54.49 | 304020 | 317118
19 | 70:28.19 | 3:35.35 | 317119 | 333278
20 | 74:03.54 | 3:17.26 | 333279 | 348079


Характеристики диапазона извлечения и сообщения об ошибках

Выбранный диапазон

Имя файла C:\My Rips\Taylor Swift - Fearless (Japan) (2009)\Taylor Swift - Fearless (Japan).wav

Пиковый уровень 100.0 %
Скорость извлечения 4.8 X
Качество диапазона 99.9 %
CRC теста D10012F7
CRC копии D10012F7
Копирование… OK

Ошибок не произошло


AccurateRip: сводка

Трек 1 : извлечено точно (доверие 21) [45092378] (AR v2)
Трек 2 : извлечено точно (доверие 21) [C6D34D49] (AR v2)
Трек 3 : извлечено точно (доверие 21) [24396152] (AR v2)
Трек 4 : извлечено точно (доверие 21) [56A68594] (AR v2)
Трек 5 : извлечено точно (доверие 21) [DBD1767A] (AR v2)
Трек 6 : извлечено точно (доверие 19) [77F1F1E7] (AR v2)
Трек 7 : извлечено точно (доверие 20) [00B1DE15] (AR v2)
Трек 8 : извлечено точно (доверие 20) [1128E912] (AR v2)
Трек 9 : извлечено точно (доверие 19) [C1140D9B] (AR v2)
Трек 10 : извлечено точно (доверие 20) [F11365DC] (AR v2)
Трек 11 : извлечено точно (доверие 20) [065F0E72] (AR v2)
Трек 12 : извлечено точно (доверие 20) [00E1A629] (AR v2)
Трек 13 : извлечено точно (доверие 20) [E2A7384B] (AR v2)
Трек 14 : извлечено точно (доверие 20) [7159A052] (AR v2)
Трек 15 : извлечено точно (доверие 20) [775B55DA] (AR v2)
Трек 16 : извлечено точно (доверие 20) [C03B177A] (AR v2)
Трек 17 : извлечено точно (доверие 20) [1E2B80E5] (AR v2)
Трек 18 : извлечено точно (доверие 20) [7354E19D] (AR v2)
Трек 19 : извлечено точно (доверие 20) [6C5DB448] (AR v2)
Трек 20 : извлечено точно (доверие 20) [18397D5E] (AR v2)

Все треки извлечены точно

Конец отчёта

==== Контрольная сумма отчёта D2AD280FC82D72F01C44B51566D34916B42CC74FE2178764C38D25A0A535E28F ====

foobar2000 1.2 / Dynamic Range Meter 1.1.1
log date: 2015-01-30 01:13:10

––––––––––––––––––––––––––––––––––––––––
Analyzed: Taylor Swift / Fearless (Japan)
––––––––––––––––––––––––––––––––––––––––

DR Peak RMS Duration Track
––––––––––––––––––––––––––––––––––––––––
DR6 -0.02 dB -8.35 dB 4:05 01-Fearless
DR6 -0.28 dB -7.91 dB 4:56 02-Fifteen
DR6 -0.09 dB -8.70 dB 3:55 03-Love Story
DR9 -0.06 dB -10.61 dB 4:16 04-Hey Stephen
DR7 -0.92 dB -10.69 dB 3:56 05-White Horse
DR7 -0.07 dB -8.54 dB 3:53 06-You Belong With Me
DR7 -0.19 dB -9.66 dB 4:26 07-Breathe [feat. Colbie Caillat]
DR6 -0.02 dB -7.76 dB 3:22 08-Tell Me Why
DR6 -0.02 dB -8.05 dB 4:23 09-You're Not Sorry
DR6 -0.33 dB -7.89 dB 4:06 10-The Way I Loved You
DR6 -0.03 dB -7.82 dB 3:46 11-Forever & Always
DR7 -0.86 dB -9.61 dB 4:07 12-The Best Day
DR6 -0.02 dB -7.49 dB 4:41 13-Change
DR6 -0.08 dB -8.18 dB 3:22 14-Our Song
DR6 0.00 dB -8.51 dB 3:16 15-Teardrops On My Guitar
DR6 -0.09 dB -7.72 dB 4:05 16-Should've Said No
DR6 -0.09 dB -7.85 dB 3:01 17-Beautiful Eyes
DR6 -0.09 dB -7.75 dB 2:55 18-Picture To Burn
DR6 -0.02 dB -7.84 dB 3:35 19-I'm Only Me When I'm With You
DR6 -0.10 dB -8.03 dB 3:17 20-I Heart?
––––––––––––––––––––––––––––––––––––––––

Number of tracks: 20
Official DR value: DR7

Samplerate: 44100 Hz
Channels: 2
Bits per sample: 16
Bitrate: 985 kbps
Codec: FLAC
================================================================================




Taylor Swift - Albums Collection 2006-2014 (9CD + 2DVD) [Japanese Releases] Re-Up

Taylor Swift - Fearless (2008) [Japanese Platinum Edition, 2012]
EAC | FLAC | Image (Cue&Log) ~ 548 Mb | Mp3 (CBR320) ~ 182 Mb | Time: 01:19:45
DVD5 | NTSC | 4:3 (720x480) VBR | AC3 2.0 192 kbps | 01:47:28 | ~ 4 Gb
Label: Big Machine/Universal | # UICO-1180 | Scans ~ 159 Mb

Appearing roughly a year after the album's original release, the Platinum Edition of Fearless contains six bonus tracks, all grouped at the beginning of the album: "Jump Then Fall," "Untouchable," a "Piano Version" of "Forever & Always," "Come in with the Rain," "SuperStar," and "The Other Side of the Door." There's also a DVD containing five music videos ("Change," "The Best Day," "Love Story," "White Horse," "You Belong with Me"), behind-the-scenes footage for three of those videos and the Fearless 2009 tour, a photo gallery, a CMT Awards "Thug Story," and a deluxe booklet.

Stephen Thomas Erlewine, Allmusic.com

Tracklist:

01. Jump Then Fall (03:58)
02. Untouchable (05:12)
03. Forever & Always (Piano Version) (04:28)
04. Come In With The Rain (03:58)
05. Superstar (04:22)
06. The Other Side Of The Door (03:58)
07. Fearless (04:02)
08. Fifteen (04:55)
09. Love Story (03:56)
10. Hey Stephen (04:16)
11. White Horse (03:55)
12. You Belong With Me (03:52)
13. Breathe [feat. Colbie Caillat] (04:24)
14. Tell Me Why (03:21)
15. You're Not Sorry (04:23)
16. The Way I Loved You (04:05)
17. Forever & Always (03:46)
18. The Best Day (04:06)
19. Change (04:41)


Exact Audio Copy V1.0 beta 3 from 29. August 2011

Отчёт EAC об извлечении, выполненном 23. января 2015, 0:26

Taylor Swift / Fearless (Platinum Edition) (Japan)

Дисковод: TSSTcorpCDDVDW TS-L632H Adapter: 1 ID: 0

Режим чтения : Достоверность
Использование точного потока : Да
Отключение кэша аудио : Да
Использование указателей C2 : Нет

Коррекция смещения при чтении : 6
Способность читать области Lead-in и Lead-out : Нет
Заполнение пропущенных сэмплов тишиной : Да
Удаление блоков с тишиной в начале и конце : Нет
При вычислениях CRC использовались нулевые сэмплы : Да
Интерфейс : Встроенный Win32-интерфейс для Win NT/2000

Выходной формат : Пользовательский кодировщик
Выбранный битрейт : 128 kBit/s
Качество : Высокий
Добавление ID3-тега : Нет
Утилита сжатия : C:\Program Files\Exact Audio Copy\Flac\flac.exe
Дополнительные параметры : -V -8 -T "Date=%year%" -T "Genre=%genre%" %source%


TOC извлечённого CD

Трек | Старт | Длительность | Начальный сектор | Конечный сектор
––––––––––––––––––––––––––––––––––-
1 | 0:00.00 | 3:58.07 | 0 | 17856
2 | 3:58.07 | 5:12.00 | 17857 | 41256
3 | 9:10.07 | 4:28.35 | 41257 | 61391
4 | 13:38.42 | 3:58.62 | 61392 | 79303
5 | 17:37.29 | 4:22.62 | 79304 | 99015
6 | 22:00.16 | 3:58.10 | 99016 | 116875
7 | 25:58.26 | 4:02.73 | 116876 | 135098
8 | 30:01.24 | 4:55.24 | 135099 | 157247
9 | 34:56.48 | 3:56.19 | 157248 | 174966
10 | 38:52.67 | 4:16.03 | 174967 | 194169
11 | 43:08.70 | 3:55.30 | 194170 | 211824
12 | 47:04.25 | 3:52.08 | 211825 | 229232
13 | 50:56.33 | 4:24.71 | 229233 | 249103
14 | 55:21.29 | 3:21.39 | 249104 | 264217
15 | 58:42.68 | 4:23.15 | 264218 | 283957
16 | 63:06.08 | 4:05.31 | 283958 | 302363
17 | 67:11.39 | 3:46.22 | 302364 | 319335
18 | 70:57.61 | 4:06.23 | 319336 | 337808
19 | 75:04.09 | 4:41.04 | 337809 | 358887


Характеристики диапазона извлечения и сообщения об ошибках

Выбранный диапазон

Имя файла C:\My Rips\Audio\Taylor Swift - 2010 - Fearless (Platinum Edition) (Japan)\Taylor Swift - Fearless (Platinum Edition) (Japan).wav

Пиковый уровень 99.9 %
Скорость извлечения 4.9 X
Качество диапазона 100.0 %
CRC теста BBE0D305
CRC копии BBE0D305
Копирование… OK

Ошибок не произошло


AccurateRip: сводка

Трек 1 : извлечено точно (доверие 84) [6EB61C85] (AR v2)
Трек 2 : извлечено точно (доверие 84) [A336EE64] (AR v2)
Трек 3 : извлечено точно (доверие 84) [B877EA4F] (AR v2)
Трек 4 : извлечено точно (доверие 84) [693C02DA] (AR v2)
Трек 5 : извлечено точно (доверие 84) [7793A74B] (AR v2)
Трек 6 : извлечено точно (доверие 84) [9599B310] (AR v2)
Трек 7 : извлечено точно (доверие 81) [4129178E] (AR v2)
Трек 8 : извлечено точно (доверие 81) [E5081474] (AR v2)
Трек 9 : извлечено точно (доверие 80) [2FD84C2E] (AR v2)
Трек 10 : извлечено точно (доверие 81) [1E8DC43D] (AR v2)
Трек 11 : извлечено точно (доверие 81) [7F97F32C] (AR v2)
Трек 12 : извлечено точно (доверие 80) [A578E52F] (AR v2)
Трек 13 : извлечено точно (доверие 81) [B393E012] (AR v2)
Трек 14 : извлечено точно (доверие 81) [D6556A70] (AR v2)
Трек 15 : извлечено точно (доверие 80) [FF13677A] (AR v2)
Трек 16 : извлечено точно (доверие 80) [E1522669] (AR v2)
Трек 17 : извлечено точно (доверие 80) [1D173679] (AR v2)
Трек 18 : извлечено точно (доверие 80) [3CA3558D] (AR v2)
Трек 19 : извлечено точно (доверие 77) [6A10DAE6] (AR v2)

Все треки извлечены точно

Конец отчёта

==== Контрольная сумма отчёта 741A3A594BF1C58E6F6AD64F0CEFA99E1D1298C7F290E174DEE36106A2FE84D1 ====

foobar2000 1.2 / Dynamic Range Meter 1.1.1
log date: 2015-01-30 01:13:37

––––––––––––––––––––––––––––––––––––––––
Analyzed: Taylor Swift / Fearless (Platinum Edition) (Japan)
––––––––––––––––––––––––––––––––––––––––

DR Peak RMS Duration Track
––––––––––––––––––––––––––––––––––––––––
DR7 0.00 dB -8.65 dB 3:58 01-Jump Then Fall
DR6 -0.55 dB -8.97 dB 5:12 02-Untouchable
DR9 0.00 dB -12.39 dB 4:28 03-Forever & Always (Piano Version)
DR8 -0.02 dB -9.91 dB 3:59 04-Come In With The Rain
DR7 -0.38 dB -9.01 dB 4:23 05-Superstar
DR7 0.00 dB -8.89 dB 3:58 06-The Other Side Of The Door
DR6 -0.02 dB -8.29 dB 4:03 07-Fearless
DR6 -0.28 dB -7.91 dB 4:55 08-Fifteen
DR6 0.00 dB -8.10 dB 3:56 09-Love Story
DR9 -0.06 dB -10.61 dB 4:16 10-Hey Stephen
DR7 -0.92 dB -10.69 dB 3:55 11-White Horse
DR7 -0.07 dB -8.54 dB 3:52 12-You Belong With Me
DR7 -0.19 dB -9.66 dB 4:25 13-Breathe [feat. Colbie Caillat]
DR6 -0.02 dB -7.76 dB 3:22 14-Tell Me Why
DR6 -0.02 dB -8.05 dB 4:23 15-You're Not Sorry
DR6 -0.33 dB -7.89 dB 4:05 16-The Way I Loved You
DR6 -0.03 dB -7.82 dB 3:46 17-Forever & Always
DR7 -0.86 dB -9.56 dB 4:06 18-The Best Day
DR6 -0.02 dB -7.49 dB 4:41 19-Change
––––––––––––––––––––––––––––––––––––––––

Number of tracks: 19
Official DR value: DR7

Samplerate: 44100 Hz
Channels: 2
Bits per sample: 16
Bitrate: 962 kbps
Codec: FLAC
================================================================================


Taylor Swift - Albums Collection 2006-2014 (9CD + 2DVD) [Japanese Releases] Re-Up

Taylor Swift - Albums Collection 2006-2014 (9CD + 2DVD) [Japanese Releases] Re-Up

Taylor Swift - Albums Collection 2006-2014 (9CD + 2DVD) [Japanese Releases] Re-Up


DVD Content:

1.Change / Music Video
2.The Best Day / Music Video
3.Love Story / Music Video
4.White Horse / Music Video
5.You Belong with Me / Music Video

On the Set: Behind the Scenes at the Music Videos!:
1.Love story
2.White horse
3.You belong with me.

Fearless Tour 2009 Photo Gallery

Fearless Tour 2009 First Show Behind the Scenes!

The First Show:Evansville,in April 23, 2009

CMT Awards "Thug Story"

Clear channel stripped
1.Untouchable 2.Fearless




Taylor Swift - Albums Collection 2006-2014 (9CD + 2DVD) [Japanese Releases] Re-Up

Taylor Swift - Speak Now (2010) [2CD Japanese Deluxe Edition]
EAC | FLAC | Image (Cue&Log) ~ 712 Mb | Mp3 (CBR320) ~ 233 Mb | Extras (video) ~ 194 Mb
Label: Big Machine/Universal | # UICO-1201/2 | Time: 01:41:47 | Scans ~ 139 Mb

When Kanye West bum-rushed Taylor Swift’s acceptance speech at the 2009 VMAs, the world rallied around Swift not because Kanye was a “jackass,” as President Obama so succinctly summarized, but because the singer/songwriter conveyed the fragility of adolescence on her 2008 breakthrough, Fearless, so successfully that she inspired instinctive protectiveness even among those who never spent much time with the record. Not timid or a tart, Swift seemed like a genuine girl on Fearless, perhaps treating her songs a little too much like diaries, but that only made them more affecting. If anything, Swift ramps up the confessions on her 2010 sequel, Speak Now, but circumstances have changed: few listeners, if any, would have a clue about the identity of the boy who belongs with Taylor, but now that she’s a superstar, anybody with a passing familiarity with pop culture can discern which songs are about Kanye, Taylor Lautner (her ex), or Camilla Belle (the actress girl who stole Joe Jonas out from under our heroine). Not that Swift takes great pains to disguise who she’s writing about – not when she’s writing “Dear John,” an elegant evisceration of lecherous lothario John Mayer. Such gossip mongering is titillating but fleeting, suggesting that the charms of Speak Now are insubstantial, but Swift’s gift is that she sets the troubled mind of an awkward age in stone. She writes from the perspective of the moment yet has the skill of a songwriter beyond her years, articulating contradictions and confessions with keen detail and strong melody. Tellingly, underneath all her girlishness – and Taylor makes no apologies for being girly as she baits mean girls, dreamily thinks of stolen kisses on a sidewalk, or fantasizes about stealing away her ex-lover at the altar – there’s a steely strength. She walks away proudly from breakups and never dwells on mistakes; she moves forward. The same could be said about the sound of Speak Now itself, which is no great progression from Fearless but rather a subtle shift toward pure pop with the country accents, such as the Dixie Chicks foundation of “Mean,” used as flavoring. But that blend of pop and country, while certainly radio-friendly, is nearly as distinctive to Taylor Swift as her songwriting voice. She may be not a girl, and not yet a woman, but on Speak Now she captures that transition with a personal grace and skill that few singer/songwriters have.

Stephen Thomas Erlewine, Allmusic.com

Tracklist:

CD1:

01. Mine (03:51)
02. Sparks Fly (04:22)
03. Back To December (04:55)
04. Speak Now (04:03)
05. Dear John (06:45)
06. Mean (03:58)
07. The Story Of Us (04:27)
08. Never Grow Up (04:52)
09. Enchanted (05:53)
10. Better Than Revenge (03:40)
11. Innocent (05:03)
12. Haunted (04:05)
13. Last Kiss (06:09)
14. Long Live (05:19)
15. Back To December (US Version) (04:54)
16. The Story Of Us (US Version) (04:25)

CD2:

01. Ours (03:59)
02. If This Was A Movie (03:56)
03. Superman (04:37)
04. Back To December (Acoustic) (04:53)
05. Haunted (Acoustic) (03:38)
06. Mine (US version) (03:50)


Exact Audio Copy V1.0 beta 3 from 29. August 2011

Отчёт EAC об извлечении, выполненном 2. октября 2014, 21:31

Taylor Swift / Speak Now (Japanese Deluxe Edition)

Дисковод: TSSTcorpCDDVDW TS-L632H Adapter: 1 ID: 0

Режим чтения : Достоверность
Использование точного потока : Да
Отключение кэша аудио : Да
Использование указателей C2 : Нет

Коррекция смещения при чтении : 6
Способность читать области Lead-in и Lead-out : Нет
Заполнение пропущенных сэмплов тишиной : Да
Удаление блоков с тишиной в начале и конце : Нет
При вычислениях CRC использовались нулевые сэмплы : Да
Интерфейс : Встроенный Win32-интерфейс для Win NT/2000

Выходной формат : Пользовательский кодировщик
Выбранный битрейт : 128 kBit/s
Качество : Высокий
Добавление ID3-тега : Нет
Утилита сжатия : C:\Program Files\Exact Audio Copy\Flac\flac.exe
Дополнительные параметры : -V -8 -T "Date=%year%" -T "Genre=%genre%" %source%


TOC извлечённого CD

Трек | Старт | Длительность | Начальный сектор | Конечный сектор
––––––––––––––––––––––––––––––––––-
1 | 0:00.00 | 3:51.53 | 0 | 17377
2 | 3:51.53 | 4:22.69 | 17378 | 37096
3 | 8:14.47 | 4:55.08 | 37097 | 59229
4 | 13:09.55 | 4:03.26 | 59230 | 77480
5 | 17:13.06 | 6:45.68 | 77481 | 107923
6 | 23:58.74 | 3:58.52 | 107924 | 125825
7 | 27:57.51 | 4:27.49 | 125826 | 145899
8 | 32:25.25 | 4:52.69 | 145900 | 167868
9 | 37:18.19 | 5:53.19 | 167869 | 194362
10 | 43:11.38 | 3:40.23 | 194363 | 210885
11 | 46:51.61 | 5:03.30 | 210886 | 233640
12 | 51:55.16 | 4:05.31 | 233641 | 252046
13 | 56:00.47 | 6:09.09 | 252047 | 279730
14 | 62:09.56 | 5:19.48 | 279731 | 303703
15 | 67:29.29 | 4:54.64 | 303704 | 325817
16 | 72:24.18 | 4:25.62 | 325818 | 345754


Характеристики диапазона извлечения и сообщения об ошибках

Выбранный диапазон

Имя файла C:\My Rips\Taylor Swift - Speak Now\CD1\Taylor Swift - Speak Now (Japanese Deluxe Edition).wav

Пиковый уровень 99.8 %
Скорость извлечения 4.8 X
Качество диапазона 100.0 %
CRC теста 13335986
CRC копии 13335986
Копирование… OK

Ошибок не произошло


AccurateRip: сводка

Трек 1 : извлечено точно (доверие 17) [5E58C671] (AR v2)
Трек 2 : извлечено точно (доверие 17) [936074A4] (AR v2)
Трек 3 : извлечено точно (доверие 17) [4DE4CB2A] (AR v2)
Трек 4 : извлечено точно (доверие 17) [6A1094FC] (AR v2)
Трек 5 : извлечено точно (доверие 17) [35D67A50] (AR v2)
Трек 6 : извлечено точно (доверие 17) [658A6B23] (AR v2)
Трек 7 : извлечено точно (доверие 17) [6290150E] (AR v2)
Трек 8 : извлечено точно (доверие 17) [972E7838] (AR v2)
Трек 9 : извлечено точно (доверие 17) [57AA7674] (AR v2)
Трек 10 : извлечено точно (доверие 17) [8F41E52E] (AR v2)
Трек 11 : извлечено точно (доверие 17) [02429B7B] (AR v2)
Трек 12 : извлечено точно (доверие 17) [5CE713C1] (AR v2)
Трек 13 : извлечено точно (доверие 17) [FBE29CD3] (AR v2)
Трек 14 : извлечено точно (доверие 17) [7034EB20] (AR v2)
Трек 15 : извлечено точно (доверие 16) [B1699A0F] (AR v2)
Трек 16 : извлечено точно (доверие 15) [030B9135] (AR v2)

Все треки извлечены точно

Конец отчёта

==== Контрольная сумма отчёта 59AE931A2663617461AA29C21421F86B738F604002EF30D5026862E374FB2269 ====

foobar2000 1.2 / Dynamic Range Meter 1.1.1
log date: 2015-01-30 01:15:18

––––––––––––––––––––––––––––––––––––––––
Analyzed: Taylor Swift / Speak Now (Japanese Deluxe Edition)
––––––––––––––––––––––––––––––––––––––––

DR Peak RMS Duration Track
––––––––––––––––––––––––––––––––––––––––
DR6 -0.01 dB -7.78 dB 3:52 01-Mine
DR6 -0.34 dB -7.15 dB 4:23 02-Sparks Fly
DR6 -0.44 dB -9.01 dB 4:55 03-Back To December
DR6 -0.07 dB -7.90 dB 4:03 04-Speak Now
DR6 -0.01 dB -8.27 dB 6:46 05-Dear John
DR7 -0.60 dB -9.05 dB 3:59 06-Mean
DR6 -0.17 dB -7.47 dB 4:28 07-The Story Of Us
DR7 -1.28 dB -11.39 dB 4:53 08-Never Grow Up
DR6 -0.01 dB -7.73 dB 5:53 09-Enchanted
DR5 -0.29 dB -6.72 dB 3:40 10-Better Than Revenge
DR6 -0.01 dB -8.43 dB 5:03 11-Innocent
DR6 -0.01 dB -7.14 dB 4:05 12-Haunted
DR7 -0.01 dB -10.02 dB 6:09 13-Last Kiss
DR6 -0.01 dB -7.78 dB 5:20 14-Long Live
DR6 -0.44 dB -8.34 dB 4:55 15-Back To December (US Version)
DR6 -0.17 dB -7.75 dB 4:26 16-The Story Of Us (US Version)
––––––––––––––––––––––––––––––––––––––––

Number of tracks: 16
Official DR value: DR6

Samplerate: 44100 Hz
Channels: 2
Bits per sample: 16
Bitrate: 982 kbps
Codec: FLAC
================================================================================


Exact Audio Copy V1.0 beta 3 from 29. August 2011

Отчёт EAC об извлечении, выполненном 2. октября 2014, 22:01

Taylor Swift / Speak Now (Japanese Deluxe Edition)

Дисковод: TSSTcorpCDDVDW TS-L632H Adapter: 1 ID: 0

Режим чтения : Достоверность
Использование точного потока : Да
Отключение кэша аудио : Да
Использование указателей C2 : Нет

Коррекция смещения при чтении : 6
Способность читать области Lead-in и Lead-out : Нет
Заполнение пропущенных сэмплов тишиной : Да
Удаление блоков с тишиной в начале и конце : Нет
При вычислениях CRC использовались нулевые сэмплы : Да
Интерфейс : Встроенный Win32-интерфейс для Win NT/2000

Выходной формат : Пользовательский кодировщик
Выбранный битрейт : 128 kBit/s
Качество : Высокий
Добавление ID3-тега : Нет
Утилита сжатия : C:\Program Files\Exact Audio Copy\Flac\flac.exe
Дополнительные параметры : -V -8 -T "Date=%year%" -T "Genre=%genre%" %source%


TOC извлечённого CD

Трек | Старт | Длительность | Начальный сектор | Конечный сектор
––––––––––––––––––––––––––––––––––-
1 | 0:00.00 | 3:59.26 | 0 | 17950
2 | 3:59.26 | 3:56.08 | 17951 | 35658
3 | 7:55.34 | 4:37.39 | 35659 | 56472
4 | 12:32.73 | 4:53.71 | 56473 | 78518
5 | 17:26.69 | 3:38.71 | 78519 | 94939
6 | 21:05.65 | 3:50.58 | 94940 | 112247
7 | 27:28.48 | 22:15.64 | 123648 | 223836


Характеристики диапазона извлечения и сообщения об ошибках

Выбранный диапазон

Имя файла C:\My Rips\Taylor Swift - Speak Now\CD2\Taylor Swift - Speak Now (Japanese Deluxe Edition) Bonus.wav

Пиковый уровень 99.8 %
Скорость извлечения 3.3 X
Качество диапазона 99.9 %
CRC теста BFFC8F5B
CRC копии BFFC8F5B
Копирование… OK

Ошибок не произошло


AccurateRip: сводка

Трек 1 : извлечено точно (доверие 1) [6452BED4] (AR v2)
Трек 2 : извлечено точно (доверие 1) [F8D52F27] (AR v2)
Трек 3 : извлечено точно (доверие 1) [8F55FB48] (AR v2)
Трек 4 : извлечено точно (доверие 1) [6288D6E8] (AR v2)
Трек 5 : извлечено точно (доверие 1) [60347F5C] (AR v2)
Трек 6 : извлечено точно (доверие 1) [F413EEA8] (AR v2)

Все треки извлечены точно

Конец отчёта

==== Контрольная сумма отчёта 8F58F4F35A34CEF0C8EF3D867302801D2F63B838A4D7575C1A2207E68A0630C8 ====

foobar2000 1.2 / Dynamic Range Meter 1.1.1
log date: 2015-01-30 01:15:59

––––––––––––––––––––––––––––––––––––––––
Analyzed: Taylor Swift / Speak Now (Japanese Deluxe Edition)
––––––––––––––––––––––––––––––––––––––––

DR Peak RMS Duration Track
––––––––––––––––––––––––––––––––––––––––
DR8 -0.01 dB -9.75 dB 3:59 01-Ours
DR6 -0.01 dB -8.25 dB 3:56 02-If This Was A Movie
DR6 -0.01 dB -7.80 dB 4:38 03-Superman
DR8 -0.62 dB -10.68 dB 4:54 04-Back To December (Acoustic)
DR7 -0.68 dB -9.91 dB 3:39 05-Haunted (Acoustic)
DR5 -0.44 dB -7.03 dB 3:51 06-Mine (US version)
––––––––––––––––––––––––––––––––––––––––

Number of tracks: 6
Official DR value: DR7

Samplerate: 44100 Hz
Channels: 2
Bits per sample: 16
Bitrate: 972 kbps
Codec: FLAC
================================================================================




Taylor Swift - Albums Collection 2006-2014 (9CD + 2DVD) [Japanese Releases] Re-Up

Taylor Swift - Red (2012) [2CD Japanese Deluxe Edition]
EAC | FLAC | Image (Cue&Log) ~ 582 Mb | Mp3 (CBR320) ~ 207 Mb
Label: Big Machine/Universal | # POCS-24002/3 | 01:30:39 | Scans ~ 179 Mb

Alone among her peers, Taylor Swift appears genuine. Which isn't to say she's without affectation or that she avoids artifice. She uses both when it suits her, as any real pop star would – and if her 2012 album Red intends to do anything, it's to prove Taylor is a genuine superstar, the kind who transcends genre, the kind who can be referred to by a single name. Uneven as it is – and it is, running just a shade too long as it sprints along in its quest to be everything to everyone – Red accomplishes this goal with ease, establishing Taylor Swift as perhaps the only genuine cross-platform superstar of her time. Naturally, in order to accomplish this transition from country ingénue to pop star, Swift takes her country bona fides for granted, ignoring Nashville conventions as she rushes to collaborate with Britney Spears hitmaker Max Martin and Snow Patrol's Gary Lightbody. Red isn't sequenced like a proper album, it's a buffet, offering every kind of sound or identity a Swift fan could possibly want. Taylor deftly shifts styles, adapting well to the insistent pulse of Martin, easing into a shimmering melancholy reminiscent of Mazzy Star ("Sad Beautiful Tragic") and coolly riding a chilly new wave pulse ("The Lucky One"). Combined with the unabashed arena rock fanfare of "State of Grace" and the dance-pop of "We Are Never Ever Getting Back Together" and the dubstep feint "I Knew You Were Trouble" – not to mention the ludicrous club-filler "22" – Red barely winks at country, and it's a better album for it. It is, as all pop albums should be, recognizable primarily as the work of Taylor Swift alone: her girlish persona is at its center, allowing her to try on the latest fashions while always sounding like herself. Although she can still seem a little gangly in her lyrical details – her relationship songs are too on the nose and she has an odd obsession about her perceived persecution by the cool kids – these details hardly undermine the pristine pop confections surrounding them. If anything, these ungainly, awkward phrasings humanizes this mammoth pop monolith: she’s constructed something so precise its success seems preordained, but underneath it all, Taylor is still twitchy, which makes Red not just catchy but compelling.

Stephen Thomas Erlewine, Allmusic.com

Tracklist:

CD1:

01. State Of Grace (04:55)
02. Red (03:43)
03. Treacherous (04:02)
04. I Knew You Were Trouble. (03:39)
05. All Too Well (05:29)
06. 22 (03:52)
07. I Almost Do (04:04)
08. We Are Never Ever Getting Back Together (03:13)
09. Stay Stay Stay (03:25)
10. The Last Time [feat. Gary Lightbody of Snow Patrol] (04:59)
11. Holy Ground (03:22)
12. Sad Beautiful Tragic (04:44)
13. The Lucky One (04:00)
14. Everything Has Changed [feat. Ed Sheeran] (04:05)
15. Starlight (03:40)
16. Begin Again (03:57)

CD2:

01. The Moment I Knew (04:46)
02. Come Back… Be Here (03:43)
03. Girl At Home (03:40)
04. Treacherous (Original Demo Recording) (04:00)
05. Red (Original Demo Recording) (03:47)
06. State Of Grace (Acoustic version) (05:23)


Exact Audio Copy V1.0 beta 3 from 29. August 2011

Отчёт EAC об извлечении, выполненном 23. января 2015, 7:32

Taylor Swift / Red (Deluxe Edition)

Дисковод: TSSTcorpCDDVDW TS-L632H Adapter: 1 ID: 0

Режим чтения : Достоверность
Использование точного потока : Да
Отключение кэша аудио : Да
Использование указателей C2 : Нет

Коррекция смещения при чтении : 6
Способность читать области Lead-in и Lead-out : Нет
Заполнение пропущенных сэмплов тишиной : Да
Удаление блоков с тишиной в начале и конце : Нет
При вычислениях CRC использовались нулевые сэмплы : Да
Интерфейс : Встроенный Win32-интерфейс для Win NT/2000

Выходной формат : Пользовательский кодировщик
Выбранный битрейт : 128 kBit/s
Качество : Высокий
Добавление ID3-тега : Нет
Утилита сжатия : C:\Program Files\Exact Audio Copy\Flac\flac.exe
Дополнительные параметры : -V -8 -T "Date=%year%" -T "Genre=%genre%" %source%


TOC извлечённого CD

Трек | Старт | Длительность | Начальный сектор | Конечный сектор
––––––––––––––––––––––––––––––––––-
1 | 0:00.00 | 4:55.54 | 0 | 22178
2 | 4:55.54 | 3:43.07 | 22179 | 38910
3 | 8:38.61 | 4:02.57 | 38911 | 57117
4 | 12:41.43 | 3:39.54 | 57118 | 73596
5 | 16:21.22 | 5:29.12 | 73597 | 98283
6 | 21:50.34 | 3:52.09 | 98284 | 115692
7 | 25:42.43 | 4:04.42 | 115693 | 134034
8 | 29:47.10 | 3:13.11 | 134035 | 148520
9 | 33:00.21 | 3:25.64 | 148521 | 163959
10 | 36:26.10 | 4:59.01 | 163960 | 186385
11 | 41:25.11 | 3:22.72 | 186386 | 201607
12 | 44:48.08 | 4:44.65 | 201608 | 222972
13 | 49:32.73 | 4:00.20 | 222973 | 240992
14 | 53:33.18 | 4:05.31 | 240993 | 259398
15 | 57:38.49 | 3:40.45 | 259399 | 275943
16 | 61:19.19 | 3:57.46 | 275944 | 293764


Характеристики диапазона извлечения и сообщения об ошибках

Выбранный диапазон

Имя файла C:\My Rips\Audio\Taylor Swift - 2012 - Red (Deluxe Edition)\CD1\Taylor Swift - Red (Deluxe Edition) CD1.wav

Пиковый уровень 98.7 %
Скорость извлечения 1.7 X
Качество диапазона 100.0 %
CRC теста 4E5EABA3
CRC копии 4E5EABA3
Копирование… OK

Ошибок не произошло


AccurateRip: сводка

Трек 1 : извлечено точно (доверие 200) [59B6A9FF] (AR v2)
Трек 2 : извлечено точно (доверие 200) [31755D72] (AR v2)
Трек 3 : извлечено точно (доверие 200) [A824C164] (AR v2)
Трек 4 : извлечено точно (доверие 200) [A595466E] (AR v2)
Трек 5 : извлечено точно (доверие 200) [7D094736] (AR v2)
Трек 6 : извлечено точно (доверие 200) [37F9B9E0] (AR v2)
Трек 7 : извлечено точно (доверие 200) [0AE0690C] (AR v2)
Трек 8 : извлечено точно (доверие 200) [F01D148D] (AR v2)
Трек 9 : извлечено точно (доверие 200) [DEC41FAF] (AR v2)
Трек 10 : извлечено точно (доверие 200) [4EFA4269] (AR v2)
Трек 11 : извлечено точно (доверие 200) [935FAAAA] (AR v2)
Трек 12 : извлечено точно (доверие 200) [5B2838B0] (AR v2)
Трек 13 : извлечено точно (доверие 200) [BF14DA17] (AR v2)
Трек 14 : извлечено точно (доверие 200) [8175AD7C] (AR v2)
Трек 15 : извлечено точно (доверие 200) [4E8588F3] (AR v2)
Трек 16 : извлечено точно (доверие 200) [E0586188] (AR v2)

Все треки извлечены точно

Конец отчёта

==== Контрольная сумма отчёта D06D47DB8B027E6F0BDA842EA805C1D0AD80E2ED0A16E927FC511DBCF3CFF596 ====

foobar2000 1.2 / Dynamic Range Meter 1.1.1
log date: 2015-01-30 01:14:45

––––––––––––––––––––––––––––––––––––––––
Analyzed: Taylor Swift / Red (Deluxe Edition)
––––––––––––––––––––––––––––––––––––––––

DR Peak RMS Duration Track
––––––––––––––––––––––––––––––––––––––––
DR7 -0.45 dB -8.71 dB 4:56 01-State Of Grace
DR7 -0.30 dB -8.53 dB 3:43 02-Red
DR6 -0.28 dB -10.41 dB 4:03 03-Treacherous
DR7 -0.11 dB -9.94 dB 3:40 04-I Knew You Were Trouble.
DR7 -0.45 dB -9.67 dB 5:29 05-All Too Well
DR7 -0.35 dB -8.93 dB 3:52 06-22
DR7 -0.31 dB -10.02 dB 4:05 07-I Almost Do
DR5 -1.28 dB -8.87 dB 3:13 08-We Are Never Ever Getting Back Together
DR8 -0.36 dB -10.23 dB 3:26 09-Stay Stay Stay
DR6 -0.31 dB -9.22 dB 4:59 10-The Last Time [feat. Gary Lightbody of Snow Patrol]
DR7 -0.42 dB -8.71 dB 3:23 11-Holy Ground
DR10 -0.11 dB -13.32 dB 4:45 12-Sad Beautiful Tragic
DR6 -0.32 dB -8.82 dB 4:00 13-The Lucky One
DR7 -0.34 dB -9.50 dB 4:05 14-Everything Has Changed [feat. Ed Sheeran]
DR7 -0.36 dB -9.74 dB 3:41 15-Starlight
DR8 -0.45 dB -10.40 dB 3:58 16-Begin Again
––––––––––––––––––––––––––––––––––––––––

Number of tracks: 16
Official DR value: DR7

Samplerate: 44100 Hz
Channels: 2
Bits per sample: 16
Bitrate: 922 kbps
Codec: FLAC
================================================================================


Exact Audio Copy V1.0 beta 3 from 29. August 2011

Отчёт EAC об извлечении, выполненном 25. января 2015, 1:28

Taylor Swift / Red (Deluxe Edition)

Дисковод: TSSTcorpCDDVDW TS-L632H Adapter: 1 ID: 0

Режим чтения : Достоверность
Использование точного потока : Да
Отключение кэша аудио : Да
Использование указателей C2 : Нет

Коррекция смещения при чтении : 6
Способность читать области Lead-in и Lead-out : Нет
Заполнение пропущенных сэмплов тишиной : Да
Удаление блоков с тишиной в начале и конце : Нет
При вычислениях CRC использовались нулевые сэмплы : Да
Интерфейс : Встроенный Win32-интерфейс для Win NT/2000

Выходной формат : Пользовательский кодировщик
Выбранный битрейт : 128 kBit/s
Качество : Высокий
Добавление ID3-тега : Нет
Утилита сжатия : C:\Program Files\Exact Audio Copy\Flac\flac.exe
Дополнительные параметры : -V -8 -T "Date=%year%" -T "Genre=%genre%" %source%


TOC извлечённого CD

Трек | Старт | Длительность | Начальный сектор | Конечный сектор
––––––––––––––––––––––––––––––––––-
1 | 0:00.00 | 4:46.46 | 0 | 21495
2 | 4:46.46 | 3:43.69 | 21496 | 38289
3 | 8:30.40 | 3:40.63 | 38290 | 54852
4 | 12:11.28 | 4:00.20 | 54853 | 72872
5 | 16:11.48 | 3:47.06 | 72873 | 89903
6 | 19:58.54 | 5:23.05 | 89904 | 114133


Характеристики диапазона извлечения и сообщения об ошибках

Выбранный диапазон

Имя файла C:\My Rips\Audio\Taylor Swift - 2012 - Red (Deluxe Edition)\CD2\Taylor Swift - Red (Deluxe Edition) CD2.wav

Пиковый уровень 97.9 %
Скорость извлечения 3.4 X
Качество диапазона 100.0 %
CRC теста 857D4347
CRC копии 857D4347
Копирование… OK

Ошибок не произошло


AccurateRip: сводка

Трек 1 : извлечено точно (доверие 148) [A62173A4] (AR v2)
Трек 2 : извлечено точно (доверие 149) [224EC289] (AR v2)
Трек 3 : извлечено точно (доверие 148) [1B6099FA] (AR v2)
Трек 4 : извлечено точно (доверие 147) [90DA8C87] (AR v2)
Трек 5 : извлечено точно (доверие 148) [639801A8] (AR v2)
Трек 6 : извлечено точно (доверие 6) [A3A9FB27] (AR v2)

Все треки извлечены точно

Конец отчёта

==== Контрольная сумма отчёта 6BAB3F87109BE667C9A5C57B07D6B9F434EDB6896946D1273F6B5679AEEBF456 ====

foobar2000 1.2 / Dynamic Range Meter 1.1.1
log date: 2015-01-30 01:15:51

––––––––––––––––––––––––––––––––––––––––
Analyzed: Taylor Swift / Red (Deluxe Edition)
––––––––––––––––––––––––––––––––––––––––

DR Peak RMS Duration Track
––––––––––––––––––––––––––––––––––––––––
DR7 -0.26 dB -10.73 dB 4:47 01-The Moment I Knew
DR6 -0.38 dB -9.23 dB 3:44 02-Come Back… Be Here
DR8 -0.19 dB -9.60 dB 3:41 03-Girl At Home
DR10 -0.31 dB -12.28 dB 4:00 04-Treacherous (Original Demo Recording)
DR8 -0.18 dB -9.45 dB 3:47 05-Red (Original Demo Recording)
DR10 -0.47 dB -12.70 dB 5:23 06-State Of Grace (Acoustic version)
––––––––––––––––––––––––––––––––––––––––

Number of tracks: 6
Official DR value: DR8

Samplerate: 44100 Hz
Channels: 2
Bits per sample: 16
Bitrate: 841 kbps
Codec: FLAC
================================================================================




Taylor Swift - Albums Collection 2006-2014 (9CD + 2DVD) [Japanese Releases] Re-Up

Taylor Swift - 1989 D.L.X. (2014) [Japanese CD + DVD]
EAC | FLAC | Image (Cue&Log) ~ 448 Mb | Mp3 (CBR320) ~ 157 Mb | 01:08:45
DVD5 | NTSC | 16:9 (720x480) VBR | LPCM 2.0, 1536 kbps | 00:30:53 | ~ 2 Gb
Label: Big Machine/Universal | # POCS-24009 | Scans ~ 186 Mb

When she announced 1989 a few months prior to its October 2014 release, Taylor Swift called her sixth record her first "documented, official" pop album, explicitly severing herself from her country roots. Truth be told, Swift already made the leap from country to pop with 2012's Red, a nominally country LP distinguished by three songs co-written and produced by Max Martin and Shellback, a team that returns for twice that number on 1989 (Martin has one additional non-Shellback co-write with Swift). Taylor is rarely without co-writers here: only "This Love" belongs to her alone, with the other major collaborators being OneRepublic's Ryan Tedder, fun.'s Jack Antonoff, and Imogen Heap. This busy kitchen is typical of modern pop albums, as is the incessant gleam of 1989's steely productions, every element of which blinds when caught in the sun. Swift claims she patterned the album's sound after the MTV-ready sound of the year 1989, and while some cuts are conceivably anchored in the era of Debbie Gibson and George Michael – "Shake It Off" is giddy on the momentum of its own pom-poms, the bonus track "New Romantics" effectively conjures the ghost of 1983 new wave, "Out of the Woods" veers into territory previously pioneered by one-video wonder T'Pau (their big hit "Heart and Soul" arrived in 1987, two years before Taylor's year zero) – this is a modern album through and through. The heavy presence of Martin, who wound up producing all the vocals along with half the record, is something of a feint. Swift tailored 1989 after Tedder's patterns, constructing nearly every one of the album's 13 tracks as a glassy, imposing skyscraper that deliberately casts its shadow upon on its predecessor. Considering that this album begins with the fanfare of "Welcome to New York," an anthem for carpetbaggers reaping the spoils of rampant gentrification, that progressive escalation in size is something to behold, even if the towering scale winds up slightly overwhelming. Warmth, which previously was a hallmark of Swift's, has largely been substituted by belligerent ice: 1989 emphasizes its reflective surfaces, the hyperactive rhythm tracks – dance by definition but rarely danceable in practice (the effervescent "How You Get the Girl" is an exception) – functioning as an aural accent to the surging synthesizers and processed vocals. Underneath the digital clatter lie some sturdy songs because, at her core, Swift is a canny songsmith, but 1989 isn't a record about songs, it's all about sonic style. Taylor telegraphed as much when she called it an "official pop record" and its problems lie in the details, not the big picture. Undoubtedly, she has the charisma and chops to be convincing on both bubblegum and ballads but 1989 is something else entirely: a cold, somewhat distant celebration of all the transient transparencies of modern pop, undercut by its own desperate desire to be nothing but a sparkling soundtrack to an aspirational lifestyle.

Stephen Thomas Erlewine, Allmusic.com

Tracklist:

01. Welcome To New York (03:32)
02. Blank Space (03:51)
03. Style (03:50)
04. Out Of The Woods (03:55)
05. All You Had To Do Was Stay (03:13)
06. Shake It Off (03:39)
07. I Wish You Would (03:27)
08. Bad Blood (03:31)
09. Wildest Dreams (03:40)
10. How You Get The Girl (04:07)
11. This Love (04:10)
12. I Know Places (03:15)
13. Clean (04:31)
14. Wonderland (04:05)
15. You Are In Love (04:27)
16. New Romantics (03:50)
17. I Know Places (Songwriting voice memos) (03:36)
18. I Wish You Would (Songwriting voice memos) (01:47)
19. Blank Space (Songwriting voice memos) (02:11)


Exact Audio Copy V1.0 beta 3 from 29. August 2011

Отчёт EAC об извлечении, выполненном 4. ноября 2014, 21:25

Taylor Swift / 1989 D.L.X. (Japan)

Дисковод: TSSTcorpCDDVDW TS-L632H Adapter: 1 ID: 0

Режим чтения : Достоверность
Использование точного потока : Да
Отключение кэша аудио : Да
Использование указателей C2 : Нет

Коррекция смещения при чтении : 6
Способность читать области Lead-in и Lead-out : Нет
Заполнение пропущенных сэмплов тишиной : Да
Удаление блоков с тишиной в начале и конце : Нет
При вычислениях CRC использовались нулевые сэмплы : Да
Интерфейс : Встроенный Win32-интерфейс для Win NT/2000

Выходной формат : Пользовательский кодировщик
Выбранный битрейт : 128 kBit/s
Качество : Высокий
Добавление ID3-тега : Нет
Утилита сжатия : C:\Program Files\Exact Audio Copy\Flac\flac.exe
Дополнительные параметры : -V -8 -T "Date=%year%" -T "Genre=%genre%" %source%


TOC извлечённого CD

Трек | Старт | Длительность | Начальный сектор | Конечный сектор
––––––––––––––––––––––––––––––––––-
1 | 0:00.00 | 3:32.45 | 0 | 15944
2 | 3:32.45 | 3:51.62 | 15945 | 33331
3 | 7:24.32 | 3:51.00 | 33332 | 50656
4 | 11:15.32 | 3:55.60 | 50657 | 68341
5 | 15:11.17 | 3:13.22 | 68342 | 82838
6 | 18:24.39 | 3:39.15 | 82839 | 99278
7 | 22:03.54 | 3:27.33 | 99279 | 114836
8 | 25:31.12 | 3:31.70 | 114837 | 130731
9 | 29:03.07 | 3:40.33 | 130732 | 147264
10 | 32:43.40 | 4:07.40 | 147265 | 165829
11 | 36:51.05 | 4:10.07 | 165830 | 184586
12 | 41:01.12 | 3:15.53 | 184587 | 199264
13 | 44:16.65 | 4:31.00 | 199265 | 219589
14 | 48:47.65 | 4:05.42 | 219590 | 238006
15 | 52:53.32 | 4:27.08 | 238007 | 258039
16 | 57:20.40 | 3:50.35 | 258040 | 275324
17 | 61:11.00 | 3:36.25 | 275325 | 291549
18 | 64:47.25 | 1:47.10 | 291550 | 299584
19 | 66:34.35 | 2:11.14 | 299585 | 309423


Характеристики диапазона извлечения и сообщения об ошибках

Выбранный диапазон

Имя файла C:\My Rips\Taylor Swift - 1989 D.L.X. (Japan) (2014)\Taylor Swift - 1989 D.L.X. (Japan).wav

Пиковый уровень 99.8 %
Скорость извлечения 4.7 X
Качество диапазона 100.0 %
CRC теста 85C837BB
CRC копии 85C837BB
Копирование… OK

Ошибок не произошло


AccurateRip: сводка

Трек 1 отсутствует в базе данных
Трек 2 отсутствует в базе данных
Трек 3 отсутствует в базе данных
Трек 4 отсутствует в базе данных
Трек 5 отсутствует в базе данных
Трек 6 отсутствует в базе данных
Трек 7 отсутствует в базе данных
Трек 8 отсутствует в базе данных
Трек 9 отсутствует в базе данных
Трек 10 отсутствует в базе данных
Трек 11 отсутствует в базе данных
Трек 12 отсутствует в базе данных
Трек 13 отсутствует в базе данных
Трек 14 отсутствует в базе данных
Трек 15 отсутствует в базе данных
Трек 16 отсутствует в базе данных
Трек 17 отсутствует в базе данных
Трек 18 отсутствует в базе данных
Трек 19 отсутствует в базе данных

Ни одного трека нет в базе AccurateRip

Конец отчёта

==== Контрольная сумма отчёта 753F539151CDBFF974EEB8DE1F1C8E3212D7A79B88FEBC4C28E788BD6E2EB37B ====

foobar2000 1.2 / Dynamic Range Meter 1.1.1
log date: 2015-01-30 01:14:20

––––––––––––––––––––––––––––––––––––––––
Analyzed: Taylor Swift / 1989 D.L.X. (Japan)
––––––––––––––––––––––––––––––––––––––––

DR Peak RMS Duration Track
––––––––––––––––––––––––––––––––––––––––
DR5 -0.01 dB -7.43 dB 3:33 01-Welcome To New York
DR6 -0.01 dB -7.67 dB 3:52 02-Blank Space
DR5 -0.01 dB -7.12 dB 3:51 03-Style
DR6 -0.06 dB -8.14 dB 3:56 04-Out Of The Woods
DR6 -0.01 dB -7.92 dB 3:13 05-All You Had To Do Was Stay
DR6 -0.01 dB -7.77 dB 3:39 06-Shake It Off
DR6 -0.06 dB -8.14 dB 3:27 07-I Wish You Would
DR6 -0.01 dB -7.92 dB 3:32 08-Bad Blood
DR7 -0.01 dB -9.12 dB 3:40 09-Wildest Dreams
DR6 -0.01 dB -8.22 dB 4:08 10-How You Get The Girl
DR6 -0.01 dB -8.71 dB 4:10 11-This Love
DR6 -0.01 dB -8.10 dB 3:16 12-I Know Places
DR7 -0.01 dB -8.55 dB 4:31 13-Clean
DR6 -0.01 dB -8.38 dB 4:06 14-Wonderland
DR6 -0.01 dB -10.06 dB 4:27 15-You Are In Love
DR6 -0.01 dB -8.05 dB 3:50 16-New Romantics
DR15 -0.06 dB -19.77 dB 3:36 17-I Know Places (Songwriting voice memos)
DR13 -2.17 dB -19.35 dB 1:47 18-I Wish You Would (Songwriting voice memos)
DR13 -2.92 dB -18.34 dB 2:11 19-Blank Space (Songwriting voice memos)
––––––––––––––––––––––––––––––––––––––––

Number of tracks: 19
Official DR value: DR7

Samplerate: 44100 Hz
Channels: 2
Bits per sample: 16
Bitrate: 911 kbps
Codec: FLAC
================================================================================

Taylor Swift - Albums Collection 2006-2014 (9CD + 2DVD) [Japanese Releases] Re-Up

Taylor Swift - Albums Collection 2006-2014 (9CD + 2DVD) [Japanese Releases] Re-Up

Taylor Swift - Albums Collection 2006-2014 (9CD + 2DVD) [Japanese Releases] Re-Up

Taylor Swift - Albums Collection 2006-2014 (9CD + 2DVD) [Japanese Releases] Re-Up

Taylor Swift - Albums Collection 2006-2014 (9CD + 2DVD) [Japanese Releases] Re-Up


DVD Content:

- Music Video 00:03:52
- The Cheerleaders Scene 00:03:53
- Ballerinas Scene 00:03:37
- The Modern Dancers Scene 00:03:56
- The Animators Scene 00:03:53
- The Twerkers & Finger Tutting Scene 00:03:56
- The Ribbon Dancers Scene 00:03:35
- The Band, The Fans & The Extras Scene 00:04:08





All thanks to original releaser - serg-82

More interesting music in My Blog