Subcategories

Ted Nugent - Original Album Classics (2008) 5CD Box Set [Re-Up]

Posted By: Designol
Ted Nugent - Original Album Classics (2008) 5CD Box Set [Re-Up]

Ted Nugent - Original Album Classics (2008) 5CD Box Set
EAC | FLAC | Tracks (Cue&Log) ~ 1.57 Gb | Mp3 (CBR320) ~ 579 Mb | Scans included | 04:01:45
Hard Rock, Classic Rock, Heavy Metal | Label: Sony BMG/Legacy/Epic | # 88697302762

2008 five CD box. The Original Album Classics series, courtesy of Sony/BMG, packages together five classic albums from one of the most popular artists on the label's roster, housing them in an attractive slipcase. This set from the American Hard Rock guitar legend features the albums Ted Nugent (1975), Free For All (1976), Cat Scratch Fever (1977), Weekend Warriors (1978) and Scream Dream (1980).

Ted Nugent - Original Album Classics (2008) 5CD Box Set [Re-Up]






Ted Nugent - Original Album Classics (2008) 5CD Box Set [Re-Up]

CD1: Ted Nugent - Ted Nugent (1975)
EAC | FLAC | Tracks (Cue&Log) ~ 430 Mb | Mp3 (CBR320) ~ 147 Mb | 01:02:16 | Scans included

After disintegrating the Amboy Dukes in the early '70s, Ted Nugent finally decided to strike out on his own as a solo star. Even without a recording contract, Nugent toured constantly, built up a fervent following, and created a smoking hard rock quartet with the help of singer/guitarist Derek St. Holmes, bassist Rob Grange, and drummer Cliff Davies. The band's first release, 1975's Ted Nugent, is a prime slice of testosterone-heavy, raging, unapologetic rock & roll, and along with the band's 1977 release Cat Scratch Fever, it is Nugent's best solo studio album. While the grinding opening track, "Stranglehold," stretches beyond eight minutes and contains several extended, fiery-hot guitar leads, it does not come off as your typical '70s overindulgent fare – every single note counts, as Nugent wails away as if his life depended on it. Other Nuge classics include "Motor City Madhouse," plus the St. Holmes-sung "Hey Baby" and "Just What the Doctor Ordered," all eventually becoming arena staples and making the band one of the late-'70s top concert draws. Additional highlights are the unexpected breezy jazz ballad "You Make Me Feel Right at Home," plus the untamed rockers "Stormtroopin'" and "Queen of the Forest." Nugent himself hails Ted Nugent as his best work, and with good reason. It's an essential hard rock classic.

Review by Greg Prato, Allmusic.com

Tracklist:

01. Stranglehold (8:24)
02. Stormtroopin' (3:10)
03. Hey Baby (4:02)
04. Just What The Doctor Ordered (3:45)
05. Snakeskin Cowboys (4:34)
06. Motor City Madhouse (4:33)
07. Where Have You Been All My Life (4:04)
08. You Make Me Feel Right At Home (2:56)
09. Queen Of The Forest (3:45)
10. Stormtroopin' (Live) (6:36)
11. Just What The Doctor Ordered (Live) (4:52)
12. Motor City Madhouse (Live) (8:38)
13. Magic Party (Outtake) (2:55)


Exact Audio Copy V0.99 prebeta 5 from 4. May 2009

EAC extraction logfile from 28. August 2010, 21:28

Ted Nugent / Ted Nugent

Used drive : SONY CD-ROM CDU5231 Adapter: 3 ID: 1

Read mode : Secure
Utilize accurate stream : Yes
Defeat audio cache : Yes
Make use of C2 pointers : No

Read offset correction : 691
Overread into Lead-In and Lead-Out : No
Fill up missing offset samples with silence : Yes
Delete leading and trailing silent blocks : No
Null samples used in CRC calculations : Yes
Used interface : Native Win32 interface for Win NT & 2000
Gap handling : Appended to previous track

Used output format : Internal WAV Routines
Sample format : 44.100 Hz; 16 Bit; Stereo


TOC of the extracted CD

Track | Start | Length | Start sector | End sector
––––––––––––––––––––––––––––-
1 | 0:00.00 | 8:23.70 | 0 | 37794
2 | 8:23.70 | 3:09.47 | 37795 | 52016
3 | 11:33.42 | 4:02.00 | 52017 | 70166
4 | 15:35.42 | 3:45.35 | 70167 | 87076
5 | 19:21.02 | 4:33.58 | 87077 | 107609
6 | 23:54.60 | 4:33.15 | 107610 | 128099
7 | 28:28.00 | 4:04.27 | 128100 | 146426
8 | 32:32.27 | 2:56.30 | 146427 | 159656
9 | 35:28.57 | 3:45.35 | 159657 | 176566
10 | 39:14.17 | 6:36.08 | 176567 | 206274
11 | 45:50.25 | 4:52.15 | 206275 | 228189
12 | 50:42.40 | 8:38.22 | 228190 | 267061
13 | 59:20.62 | 2:55.25 | 267062 | 280211


Track 1

Filename D:\1975 - Ted Nugent\01 - Stranglehold.wav

Pre-gap length 0:00:02.00

Peak level 100.0 %
Track quality 100.0 %
Test CRC D35F4D0E
Copy CRC D35F4D0E
Accurately ripped (confidence 7) [C33DAF52]
Copy OK

Track 2

Filename D:\1975 - Ted Nugent\02 - Stormtroopin'.wav

Pre-gap length 0:00:00.65

Peak level 100.0 %
Track quality 100.0 %
Test CRC AE24DA67
Copy CRC AE24DA67
Accurately ripped (confidence 6) [A30C4423]
Copy OK

Track 3

Filename D:\1975 - Ted Nugent\03 - Hey Baby.wav

Peak level 100.0 %
Track quality 100.0 %
Test CRC 46661A5C
Copy CRC 46661A5C
Accurately ripped (confidence 6) [7FC7D8EC]
Copy OK

Track 4

Filename D:\1975 - Ted Nugent\04 - Just What The Doctor Ordered.wav

Pre-gap length 0:00:01.00

Peak level 100.0 %
Track quality 99.9 %
Test CRC E3153D10
Copy CRC E3153D10
Accurately ripped (confidence 6) [8DA20355]
Copy OK

Track 5

Filename D:\1975 - Ted Nugent\05 - Snakeskin Cowboys.wav

Peak level 100.0 %
Track quality 100.0 %
Test CRC 17C160C4
Copy CRC 17C160C4
Accurately ripped (confidence 6) [CE81754E]
Copy OK

Track 6

Filename D:\1975 - Ted Nugent\06 - Motor City Madhouse.wav

Pre-gap length 0:00:00.20

Peak level 100.0 %
Track quality 100.0 %
Test CRC 5F314500
Copy CRC 5F314500
Accurately ripped (confidence 6) [2949872B]
Copy OK

Track 7

Filename D:\1975 - Ted Nugent\07 - Where Have You Been All My Life.wav

Peak level 100.0 %
Track quality 100.0 %
Test CRC 15C08B14
Copy CRC 15C08B14
Accurately ripped (confidence 6) [479386D9]
Copy OK

Track 8

Filename D:\1975 - Ted Nugent\08 - You Make Me Feel Right At Home.wav

Peak level 100.0 %
Track quality 100.0 %
Test CRC F2F0A017
Copy CRC F2F0A017
Accurately ripped (confidence 6) [0EFC6EF9]
Copy OK

Track 9

Filename D:\1975 - Ted Nugent\09 - Queen Of The Forest.wav

Peak level 100.0 %
Track quality 99.9 %
Test CRC 54E5D1DA
Copy CRC 54E5D1DA
Accurately ripped (confidence 6) [455E0E79]
Copy OK

Track 10

Filename D:\1975 - Ted Nugent\10 - Stormtroopin' (live).wav

Pre-gap length 0:00:10.00

Peak level 100.0 %
Track quality 100.0 %
Test CRC 10D6D1B1
Copy CRC 10D6D1B1
Accurately ripped (confidence 6) [CEA300BD]
Copy OK

Track 11

Filename D:\1975 - Ted Nugent\11 - Just What The Doctor Ordered (live).wav

Peak level 100.0 %
Track quality 99.9 %
Test CRC 077D9824
Copy CRC 077D9824
Accurately ripped (confidence 6) [B3704CA3]
Copy OK

Track 12

Filename D:\1975 - Ted Nugent\12 - Motor City Madhouse (live).wav

Peak level 100.0 %
Track quality 100.0 %
Test CRC EF1AFF12
Copy CRC EF1AFF12
Accurately ripped (confidence 6) [C5F17F1B]
Copy OK

Track 13

Filename D:\1975 - Ted Nugent\13 - Magic Party (outtake).wav

Pre-gap length 0:00:02.02

Peak level 100.0 %
Track quality 99.9 %
Test CRC FBB73198
Copy CRC FBB73198
Accurately ripped (confidence 6) [AC444778]
Copy OK


All tracks accurately ripped

No errors occurred

End of status report

[CUETools log; Date: 21.04.2017 0:45:38; Version: 2.1.4]
[CTDB TOCID: .heNQgFntuVdtqasmi7ki_fl1o0-] found.
Track | CTDB Status
1 | (47/47) Accurately ripped
2 | (47/47) Accurately ripped
3 | (47/47) Accurately ripped
4 | (47/47) Accurately ripped
5 | (47/47) Accurately ripped
6 | (47/47) Accurately ripped
7 | (47/47) Accurately ripped
8 | (47/47) Accurately ripped
9 | (47/47) Accurately ripped
10 | (47/47) Accurately ripped
11 | (47/47) Accurately ripped
12 | (47/47) Accurately ripped
13 | (47/47) Accurately ripped
[AccurateRip ID: 001db614-0125fa55-a90e980d] found.
Track [ CRC | V2 ] Status
01 [c33daf52|aa0df665] (14+62/82) Accurately ripped
02 [a30c4423|a9525b32] (13+62/81) Accurately ripped
03 [7fc7d8ec|73fb59aa] (13+62/81) Accurately ripped
04 [8da20355|93484ee3] (13+62/81) Accurately ripped
05 [ce81754e|dadcd33f] (13+62/81) Accurately ripped
06 [2949872b|47efec1f] (13+62/81) Accurately ripped
07 [479386d9|3bc99550] (13+62/80) Accurately ripped
08 [0efc6ef9|885bd6cd] (13+62/80) Accurately ripped
09 [455e0e79|b592d24a] (13+62/80) Accurately ripped
10 [cea300bd|2f2f07e1] (13+63/81) Accurately ripped
11 [b3704ca3|304a5483] (13+63/81) Accurately ripped
12 [c5f17f1b|83b79af8] (13+62/80) Accurately ripped
13 [ac444778|3b31c8ab] (13+61/79) Accurately ripped
Offsetted by -635:
01 [2ed25fb4] (00/82) No match (V2 was not tested)
02 [7007deb8] (00/81) No match (V2 was not tested)
03 [b6f66aa5] (00/81) No match (V2 was not tested)
04 [3b095b3f] (00/81) No match (V2 was not tested)
05 [b85fc275] (00/81) No match (V2 was not tested)
06 [700fbf73] (00/81) No match (V2 was not tested)
07 [77b98ddd] (00/80) No match (V2 was not tested)
08 [4bc72ceb] (00/80) No match (V2 was not tested)
09 [b197c7a7] (00/80) No match (V2 was not tested)
10 [bc6874a2] (00/81) No match (V2 was not tested)
11 [806e7e66] (00/81) No match (V2 was not tested)
12 [ddb65fee] (00/80) No match (V2 was not tested)
13 [49956d77] (00/79) No match (V2 was not tested)

Track Peak [ CRC32 ] [W/O NULL] [ LOG ]
– 100,0 [0787AE5F] [B1A01F41]
01 99,9 [D35F4D0E] [EA55E8C6] CRC32
02 99,9 [AE24DA67] [68565BEC] CRC32
03 99,9 [46661A5C] [6379E104] CRC32
04 99,9 [E3153D10] [C34EE01B] CRC32
05 99,9 [17C160C4] [B1E5088D] CRC32
06 99,9 [5F314500] [29AC960F] CRC32
07 99,9 [15C08B14] [E6B6F009] CRC32
08 99,9 [F2F0A017] [D97E918F] CRC32
09 99,9 [54E5D1DA] [BD1B8FC6] CRC32
10 99,9 [10D6D1B1] [02F0742E] CRC32
11 100,0 [077D9824] [99B7CA28] CRC32
12 99,9 [EF1AFF12] [E8303979] CRC32
13 99,9 [FBB73198] [35C722BC] CRC32

foobar2000 1.2 / Dynamic Range Meter 1.1.1
log date: 2017-04-21 00:57:56

––––––––––––––––––––––––––––––––––––––––
Analyzed: Ted Nugent / Ted Nugent
––––––––––––––––––––––––––––––––––––––––

DR Peak RMS Duration Track
––––––––––––––––––––––––––––––––––––––––
DR8 0.00 dB -10.39 dB 8:24 01-Stranglehold
DR9 0.00 dB -10.37 dB 3:10 02-Stormtroopin'
DR9 0.00 dB -9.80 dB 4:02 03-Hey Baby
DR8 0.00 dB -9.97 dB 3:45 04-Just What The Doctor Ordered
DR8 0.00 dB -9.68 dB 4:34 05-Snakeskin Cowboys
DR9 0.00 dB -10.49 dB 4:33 06-Motor City Madhouse
DR8 0.00 dB -9.47 dB 4:04 07-Where Have You Been All My Life
DR11 0.00 dB -13.08 dB 2:56 08-You Make Me Feel Right At Home
DR8 0.00 dB -9.30 dB 3:45 09-Queen Of The Forest
DR8 0.00 dB -9.63 dB 6:36 10-Stormtroopin' (Live)
DR7 0.00 dB -8.79 dB 4:52 11-Just What The Doctor Ordered (Live)
DR8 0.00 dB -9.78 dB 8:38 12-Motor City Madhouse (Live)
DR8 0.00 dB -9.73 dB 2:55 13-Magic Party (Outtake)
––––––––––––––––––––––––––––––––––––––––

Number of tracks: 13
Official DR value: DR8

Samplerate: 44100 Hz
Channels: 2
Bits per sample: 16
Bitrate: 943 kbps
Codec: FLAC
================================================================================




Ted Nugent - Original Album Classics (2008) 5CD Box Set [Re-Up]

CD2: Ted Nugent - Free-For-All (1976)
EAC | FLAC | Tracks (Cue&Log) ~ 376 Mb | Mp3 (CBR320) ~ 130 Mb | 00:54:57 | Scans included

While Ted Nugent's second solo album, 1976's Free-for-All, was another raging slab of rock & roll, it wasn't quite as consistent as his self-titled debut. The main reason was due to singer/rhythm guitarist Derek St. Holmes' departure from the band just as recording of the album began (due to constant grappling with the Nuge about certain musical issues). To solve the problem, producer Tom Werman convinced a then-unknown singer by the name of Meat Loaf to handle the vocal chores on the songs Derek was going to sing. While it seems like a mismatch in theory, the results were not catastrophic – such rockers as "Writing on the Wall" (a virtual rewrite of "Stranglehold"), "Street Rats," and "Hammerdown" are classic Nuge stompers. But they would have been stronger with St. Holmes' contributions, as evidenced by a bonus outtake of "Street Rats" with St. Holmes on vocals and the turbo-charged "Turn It Up." But still, the title track is one of Ted's all-time best (featuring a downright vicious groove), as is the rocking tale about the 1967 Detroit riots, "Dog Eat Dog." Despite St. Holmes' absence (he would return in time for the album's subsequent tour), Free-for-All solidified Ted's commercial success, reaching the Top 25.

Review by Greg Prato, Allmusic.com

Tracklist:

01. Free-For-All (3:22)
02. Dog Eat Dog (4:04)
03. Writing On The Wall (7:12)
04. Turn It Up (3:39)
05. Street Rats (3:39)
06. Together (5:55)
07. Light My Way (3:04)
08. Hammerdown (4:11)
09. I Love You So I Told You A Lie (4:00)
10. Free-For-All (Live) (5:14)
11. Dog Eat Dog (Live) (6:20)
12. Street Rats (Alternate Version) (4:17)


Exact Audio Copy V0.99 prebeta 5 from 4. May 2009

EAC extraction logfile from 29. August 2010, 9:22

Ted Nugent / Free For All

Used drive : SONY CD-ROM CDU5231 Adapter: 3 ID: 1

Read mode : Secure
Utilize accurate stream : Yes
Defeat audio cache : Yes
Make use of C2 pointers : No

Read offset correction : 691
Overread into Lead-In and Lead-Out : No
Fill up missing offset samples with silence : Yes
Delete leading and trailing silent blocks : No
Null samples used in CRC calculations : Yes
Used interface : Native Win32 interface for Win NT & 2000
Gap handling : Appended to previous track

Used output format : Internal WAV Routines
Sample format : 44.100 Hz; 16 Bit; Stereo


TOC of the extracted CD

Track | Start | Length | Start sector | End sector
––––––––––––––––––––––––––––-
1 | 0:00.00 | 3:22.02 | 0 | 15151
2 | 3:22.02 | 4:03.53 | 15152 | 33429
3 | 7:25.55 | 7:12.37 | 33430 | 65866
4 | 14:38.17 | 3:38.73 | 65867 | 82289
5 | 18:17.15 | 3:39.30 | 82290 | 98744
6 | 21:56.45 | 5:55.25 | 98745 | 125394
7 | 27:51.70 | 3:03.70 | 125395 | 139189
8 | 30:55.65 | 4:11.05 | 139190 | 158019
9 | 35:06.70 | 3:59.57 | 158020 | 176001
10 | 39:06.52 | 5:13.63 | 176002 | 199539
11 | 44:20.40 | 6:19.40 | 199540 | 228004
12 | 50:40.05 | 4:16.45 | 228005 | 247249


Track 1

Filename D:\1976 - Free-For-All\01 - Free-For-All.wav

Pre-gap length 0:00:02.00

Peak level 100.0 %
Track quality 100.0 %
Test CRC B823AFFF
Copy CRC B823AFFF
Accurately ripped (confidence 7) [6A24AAB2]
Copy OK

Track 2

Filename D:\1976 - Free-For-All\02 - Dog Eat Dog.wav

Pre-gap length 0:00:00.19

Peak level 100.0 %
Track quality 100.0 %
Test CRC CE79B229
Copy CRC CE79B229
Accurately ripped (confidence 7) [CAA8FABE]
Copy OK

Track 3

Filename D:\1976 - Free-For-All\03 - Writing On The Wall.wav

Peak level 100.0 %
Track quality 100.0 %
Test CRC D76DC299
Copy CRC D76DC299
Accurately ripped (confidence 7) [D49F36C9]
Copy OK

Track 4

Filename D:\1976 - Free-For-All\04 - Turn It Up.wav

Pre-gap length 0:00:01.27

Peak level 100.0 %
Track quality 100.0 %
Test CRC FC5147EE
Copy CRC FC5147EE
Accurately ripped (confidence 7) [EACE6E64]
Copy OK

Track 5

Filename D:\1976 - Free-For-All\05 - Street Rats.wav

Pre-gap length 0:00:01.35

Peak level 100.0 %
Track quality 100.0 %
Test CRC EC713FE5
Copy CRC EC713FE5
Accurately ripped (confidence 7) [41F073F9]
Copy OK

Track 6

Filename D:\1976 - Free-For-All\06 - Together.wav

Pre-gap length 0:00:02.65

Peak level 100.0 %
Track quality 99.9 %
Test CRC 1C5674D7
Copy CRC 1C5674D7
Accurately ripped (confidence 7) [4B61572A]
Copy OK

Track 7

Filename D:\1976 - Free-For-All\07 - Light My Way.wav

Pre-gap length 0:00:00.62

Peak level 100.0 %
Track quality 99.9 %
Test CRC 5C6D9557
Copy CRC 5C6D9557
Accurately ripped (confidence 7) [6C76EDF8]
Copy OK

Track 8

Filename D:\1976 - Free-For-All\08 - Hammerdown.wav

Pre-gap length 0:00:02.00

Peak level 100.0 %
Track quality 100.0 %
Test CRC 8912AF33
Copy CRC 8912AF33
Accurately ripped (confidence 7) [FA49C80C]
Copy OK

Track 9

Filename D:\1976 - Free-For-All\09 - I Love You So I Told You A Lie.wav

Pre-gap length 0:00:02.48

Peak level 100.0 %
Track quality 99.9 %
Test CRC 1E718602
Copy CRC 1E718602
Accurately ripped (confidence 7) [EA513267]
Copy OK

Track 10

Filename D:\1976 - Free-For-All\10 - Free-For-All (live).wav

Pre-gap length 0:00:10.00

Peak level 100.0 %
Track quality 100.0 %
Test CRC F0E2299B
Copy CRC F0E2299B
Accurately ripped (confidence 7) [3E7753D5]
Copy OK

Track 11

Filename D:\1976 - Free-For-All\11 - Dog Eat Dog (live).wav

Peak level 100.0 %
Track quality 99.9 %
Test CRC CB07EE23
Copy CRC CB07EE23
Accurately ripped (confidence 7) [305B0762]
Copy OK

Track 12

Filename D:\1976 - Free-For-All\12 - Street Rats (alternate version).wav

Peak level 100.0 %
Track quality 100.0 %
Test CRC 757E8725
Copy CRC 757E8725
Accurately ripped (confidence 7) [3BA41F87]
Copy OK


All tracks accurately ripped

No errors occurred

End of status report

[CUETools log; Date: 21.04.2017 0:45:55; Version: 2.1.4]
[CTDB TOCID: rwQTBD19TzqOeUoDV5ihSSySrs8-] found.
Track | CTDB Status
1 | (47/47) Accurately ripped
2 | (47/47) Accurately ripped
3 | (47/47) Accurately ripped
4 | (47/47) Accurately ripped
5 | (47/47) Accurately ripped
6 | (47/47) Accurately ripped
7 | (47/47) Accurately ripped
8 | (47/47) Accurately ripped
9 | (47/47) Accurately ripped
10 | (47/47) Accurately ripped
11 | (47/47) Accurately ripped
12 | (47/47) Accurately ripped
[AccurateRip ID: 0017f076-00e08f2e-a20ce00c] found.
Track [ CRC | V2 ] Status
01 [6a24aab2|9f65526b] (16+62/84) Accurately ripped
02 [caa8fabe|b2530d90] (16+62/84) Accurately ripped
03 [d49f36c9|ecc77db9] (16+62/84) Accurately ripped
04 [eace6e64|75fbb192] (16+62/84) Accurately ripped
05 [41f073f9|7a9f4fae] (16+62/84) Accurately ripped
06 [4b61572a|51adb872] (16+62/84) Accurately ripped
07 [6c76edf8|a512e085] (16+62/84) Accurately ripped
08 [fa49c80c|38062eba] (16+62/84) Accurately ripped
09 [ea513267|16ce6f03] (16+62/84) Accurately ripped
10 [3e7753d5|d5526be3] (16+62/84) Accurately ripped
11 [305b0762|0edbbd5a] (16+62/84) Accurately ripped
12 [3ba41f87|13546aec] (16+61/83) Accurately ripped
Offsetted by -36:
01 [1bd90ae2] (00/84) No match (V2 was not tested)
02 [391084c4] (00/84) No match (V2 was not tested)
03 [7ac5b2ff] (00/84) No match (V2 was not tested)
04 [9d0dcfc0] (00/84) No match (V2 was not tested)
05 [3538a9a1] (00/84) No match (V2 was not tested)
06 [3a540c26] (00/84) No match (V2 was not tested)
07 [30b8b540] (00/84) No match (V2 was not tested)
08 [ce7cce54] (00/84) No match (V2 was not tested)
09 [24c5bdff] (00/84) No match (V2 was not tested)
10 [4f4946e8] (00/84) No match (V2 was not tested)
11 [953fa6bb] (00/84) No match (V2 was not tested)
12 [11f88b0d] (00/83) No match (V2 was not tested)

Track Peak [ CRC32 ] [W/O NULL] [ LOG ]
– 100,0 [2104CA24] [013E7120]
01 99,9 [B823AFFF] [26A388BC] CRC32
02 99,9 [CE79B229] [922A3FD9] CRC32
03 99,9 [D76DC299] [6DFED436] CRC32
04 99,9 [FC5147EE] [8310D223] CRC32
05 99,9 [EC713FE5] [E94BAA7C] CRC32
06 99,9 [1C5674D7] [0C0ACBE4] CRC32
07 100,0 [5C6D9557] [8E43D5B2] CRC32
08 99,9 [8912AF33] [31A22A1B] CRC32
09 99,9 [1E718602] [36E36893] CRC32
10 99,9 [F0E2299B] [F350789A] CRC32
11 99,9 [CB07EE23] [B74CC9AB] CRC32
12 99,9 [757E8725] [B810FD20] CRC32

foobar2000 1.2 / Dynamic Range Meter 1.1.1
log date: 2017-04-21 00:58:20

––––––––––––––––––––––––––––––––––––––––
Analyzed: Ted Nugent / Free-For-All
––––––––––––––––––––––––––––––––––––––––

DR Peak RMS Duration Track
––––––––––––––––––––––––––––––––––––––––
DR8 0.00 dB -9.85 dB 3:22 01-Free-For-All
DR9 0.00 dB -9.93 dB 4:04 02-Dog Eat Dog
DR8 0.00 dB -9.17 dB 7:12 03-Writing On The Wall
DR7 0.00 dB -8.28 dB 3:39 04-Turn It Up
DR9 0.00 dB -10.31 dB 3:39 05-Street Rats
DR7 0.00 dB -9.48 dB 5:55 06-Together
DR8 0.00 dB -9.18 dB 3:04 07-Light My Way
DR8 0.00 dB -9.27 dB 4:11 08-Hammerdown
DR8 0.00 dB -9.69 dB 4:00 09-I Love You So I Told You A Lie
DR8 0.00 dB -9.93 dB 5:14 10-Free-For-All (Live)
DR8 0.00 dB -10.45 dB 6:20 11-Dog Eat Dog (Live)
DR8 0.00 dB -9.98 dB 4:17 12-Street Rats (Alternate Version)
––––––––––––––––––––––––––––––––––––––––

Number of tracks: 12
Official DR value: DR8

Samplerate: 44100 Hz
Channels: 2
Bits per sample: 16
Bitrate: 958 kbps
Codec: FLAC
================================================================================




Ted Nugent - Original Album Classics (2008) 5CD Box Set [Re-Up]

CD3: Ted Nugent - Cat Scratch Fever (1977)
EAC | FLAC | Tracks (Cue&Log) ~ 324 Mb | Mp3 (CBR320) ~ 118 Mb | 00:49:27 | Scans included

Despite becoming one of the rock's biggest concert attractions, Ted Nugent needed that one album and single that would break through in a big way, and the 1977 album and single of the same name, Cat Scratch Fever, did the trick. Cat Scratch Fever matched the focused ferocity of Nugent's excellent 1975 debut (due to singer Derek St. Holmes' re-entry into the band), featuring another first-rate set of brash hard rockers. While the title track is a certified classic anthem (the only solo Nugent single to crack the Top 30), other tracks are just as delightful, such as the oh-so-subtle "Wang Dang Sweet Poontang." Further standouts include such underrated compositions as "Live It Up," "Workin' Hard, Playin' Hard," and "Out of Control," plus the exquisitely melodic instrumental "Home Bound," which the Beastie Boys would sample on their 1992 mega-hit album Check Your Head (the track "The Biz vs. the Nuge"). A Top 20 release, Cat Scratch Fever was the last Nugent release to feature his original solo band (St. Holmes, along with bassist Rob Grange, left for good in 1978). And while he enjoyed further chart success with such titles as Weekend Warriors and Double Live Gonzo, many consider Cat Scratch Fever to be Nugent's finest hour.

Review by Greg Prato, Allmusic.com

Tracklist:

01. Cat Scratch Fever (3:40)
02. Wang Dang Sweet Poontang (3:17)
03. Death By Misadventure (3:31)
04. Live It Up (4:02)
05. Home Bound (4:46)
06. Workin' Hard, Playin' Hard (5:44)
07. Sweet Sally (2:34)
08. A Thousand Knives (4:48)
09. Fist Fightin' Son Of A Gun (2:51)
10. Out Of Control (3:37)
11. Cat Scratch Fever (Live) (4:49)
12. Wang Dang Sweet Poontang (Live) (5:47)


Exact Audio Copy V0.99 prebeta 5 from 4. May 2009

EAC extraction logfile from 29. August 2010, 9:44

Ted Nugent / Cat Scratch Fever

Used drive : SONY CD-ROM CDU5231 Adapter: 3 ID: 1

Read mode : Secure
Utilize accurate stream : Yes
Defeat audio cache : Yes
Make use of C2 pointers : No

Read offset correction : 691
Overread into Lead-In and Lead-Out : No
Fill up missing offset samples with silence : Yes
Delete leading and trailing silent blocks : No
Null samples used in CRC calculations : Yes
Used interface : Native Win32 interface for Win NT & 2000
Gap handling : Appended to previous track

Used output format : Internal WAV Routines
Sample format : 44.100 Hz; 16 Bit; Stereo


TOC of the extracted CD

Track | Start | Length | Start sector | End sector
––––––––––––––––––––––––––––-
1 | 0:00.00 | 3:40.27 | 0 | 16526
2 | 3:40.27 | 3:16.58 | 16527 | 31284
3 | 6:57.10 | 3:31.35 | 31285 | 47144
4 | 10:28.45 | 4:01.55 | 47145 | 65274
5 | 14:30.25 | 4:45.60 | 65275 | 86709
6 | 19:16.10 | 5:44.07 | 86710 | 112516
7 | 25:00.17 | 2:34.05 | 112517 | 124071
8 | 27:34.22 | 4:47.70 | 124072 | 145666
9 | 32:22.17 | 2:51.33 | 145667 | 158524
10 | 35:13.50 | 3:37.25 | 158525 | 174824
11 | 38:51.00 | 4:49.27 | 174825 | 196526
12 | 43:40.27 | 5:47.08 | 196527 | 222559


Track 1

Filename D:\1977 - Cat Scratch Fever\01 - Cat Scratch Fever.wav

Pre-gap length 0:00:02.00

Peak level 100.0 %
Track quality 100.0 %
Test CRC 446B140E
Copy CRC 446B140E
Accurately ripped (confidence 7) [55DC4B9A]
Copy OK

Track 2

Filename D:\1977 - Cat Scratch Fever\02 - Wang Dang Sweet Poontang.wav

Pre-gap length 0:00:00.72

Peak level 100.0 %
Track quality 100.0 %
Test CRC 2912D3CC
Copy CRC 2912D3CC
Accurately ripped (confidence 7) [AEB0BE0B]
Copy OK

Track 3

Filename D:\1977 - Cat Scratch Fever\03 - Death By Misadventure.wav

Pre-gap length 0:00:00.20

Peak level 100.0 %
Track quality 100.0 %
Test CRC DB5E49CE
Copy CRC DB5E49CE
Accurately ripped (confidence 7) [341AB9BF]
Copy OK

Track 4

Filename D:\1977 - Cat Scratch Fever\04 - Live It Up.wav

Pre-gap length 0:00:01.50

Peak level 100.0 %
Track quality 99.9 %
Test CRC CF06A634
Copy CRC CF06A634
Accurately ripped (confidence 7) [0FC90B9F]
Copy OK

Track 5

Filename D:\1977 - Cat Scratch Fever\05 - Home Bound.wav

Pre-gap length 0:00:01.58

Peak level 100.0 %
Track quality 100.0 %
Test CRC E5FA6590
Copy CRC E5FA6590
Accurately ripped (confidence 7) [2634B8D5]
Copy OK

Track 6

Filename D:\1977 - Cat Scratch Fever\06 - Workin' Hard, Playin' Hard.wav

Pre-gap length 0:00:01.43

Peak level 100.0 %
Track quality 100.0 %
Test CRC 908B6C87
Copy CRC 908B6C87
Accurately ripped (confidence 7) [D1E0EE49]
Copy OK

Track 7

Filename D:\1977 - Cat Scratch Fever\07 - Sweet Sally.wav

Pre-gap length 0:00:01.27

Peak level 100.0 %
Track quality 99.9 %
Test CRC 8AA27036
Copy CRC 8AA27036
Accurately ripped (confidence 7) [2860086B]
Copy OK

Track 8

Filename D:\1977 - Cat Scratch Fever\08 - A Thousand Knives.wav

Pre-gap length 0:00:01.50

Peak level 100.0 %
Track quality 100.0 %
Test CRC 55276F02
Copy CRC 55276F02
Accurately ripped (confidence 7) [072C4550]
Copy OK

Track 9

Filename D:\1977 - Cat Scratch Fever\09 - Fist Fightnin' Son Of A Gun.wav

Pre-gap length 0:00:01.45

Peak level 100.0 %
Track quality 100.0 %
Test CRC 7B8E1737
Copy CRC 7B8E1737
Accurately ripped (confidence 7) [D3B898BF]
Copy OK

Track 10

Filename D:\1977 - Cat Scratch Fever\10 - Out Of Control.wav

Pre-gap length 0:00:02.58

Peak level 100.0 %
Track quality 100.0 %
Test CRC 43BD3182
Copy CRC 43BD3182
Accurately ripped (confidence 7) [444B15E3]
Copy OK

Track 11

Filename D:\1977 - Cat Scratch Fever\11 - Cat Scratch Fever (live).wav

Pre-gap length 0:00:10.00

Peak level 100.0 %
Track quality 100.0 %
Test CRC 902AC09F
Copy CRC 902AC09F
Accurately ripped (confidence 7) [8B24CEE4]
Copy OK

Track 12

Filename D:\1977 - Cat Scratch Fever\12 - Wang Dang Sweet Poontang (live).wav

Peak level 100.0 %
Track quality 100.0 %
Test CRC A9C53E18
Copy CRC A9C53E18
Accurately ripped (confidence 7) [19EE3842]
Copy OK


All tracks accurately ripped

No errors occurred

End of status report

[CUETools log; Date: 21.04.2017 0:46:09; Version: 2.1.4]
[CTDB TOCID: 5MnrtzN33RZen5R7Q2j9hFc00pI-] found.
Track | CTDB Status
1 | (49/49) Accurately ripped
2 | (49/49) Accurately ripped
3 | (49/49) Accurately ripped
4 | (49/49) Accurately ripped
5 | (49/49) Accurately ripped
6 | (49/49) Accurately ripped
7 | (49/49) Accurately ripped
8 | (49/49) Accurately ripped
9 | (49/49) Accurately ripped
10 | (49/49) Accurately ripped
11 | (49/49) Accurately ripped
12 | (49/49) Accurately ripped
[AccurateRip ID: 00151503-00c69104-8b0b970c] found.
Track [ CRC | V2 ] Status
01 [55dc4b9a|cfb8682f] (15+64/85) Accurately ripped
02 [aeb0be0b|93c10a78] (15+64/85) Accurately ripped
03 [341ab9bf|31a8f6f6] (15+64/85) Accurately ripped
04 [0fc90b9f|9bddb553] (15+64/85) Accurately ripped
05 [2634b8d5|35df8d18] (15+64/85) Accurately ripped
06 [d1e0ee49|c0c28335] (15+64/85) Accurately ripped
07 [2860086b|dc0d7dd1] (15+64/85) Accurately ripped
08 [072c4550|d39fd4bf] (15+64/85) Accurately ripped
09 [d3b898bf|24aff763] (15+63/84) Accurately ripped
10 [444b15e3|a5b6126a] (15+64/85) Accurately ripped
11 [8b24cee4|899fea8b] (15+64/85) Accurately ripped
12 [19ee3842|118deba2] (15+63/84) Accurately ripped
Offsetted by -635:
01 [27d0d1db] (00/85) No match (V2 was not tested)
02 [ac772b05] (00/85) No match (V2 was not tested)
03 [415e20af] (00/85) No match (V2 was not tested)
04 [a55c28db] (00/85) No match (V2 was not tested)
05 [0e425e5a] (00/85) No match (V2 was not tested)
06 [a50da4f8] (00/85) No match (V2 was not tested)
07 [0dc02c65] (00/85) No match (V2 was not tested)
08 [ea81ad0e] (00/85) No match (V2 was not tested)
09 [ddfa19b3] (00/84) No match (V2 was not tested)
10 [f0e4d7a9] (00/85) No match (V2 was not tested)
11 [1f99e4e1] (00/85) No match (V2 was not tested)
12 [deed7f4a] (00/84) No match (V2 was not tested)
Offsetted by 6:
01 [56923cb2] (00/85) No match (V2 was not tested)
02 [8fab3d37] (00/85) No match (V2 was not tested)
03 [48f15edf] (00/85) No match (V2 was not tested)
04 [208385e7] (00/85) No match (V2 was not tested)
05 [5da9e8db] (00/85) No match (V2 was not tested)
06 [41924c1b] (00/85) No match (V2 was not tested)
07 [0c00c997] (00/85) No match (V2 was not tested)
08 [53a39a34] (00/85) No match (V2 was not tested)
09 [85d0f917] (00/84) No match (V2 was not tested)
10 [ade67537] (00/85) No match (V2 was not tested)
11 [964bb524] (00/85) No match (V2 was not tested)
12 [61f4dfa0] (00/84) No match (V2 was not tested)

Track Peak [ CRC32 ] [W/O NULL] [ LOG ]
– 100,0 [11F04BCA] [EA58C6FF]
01 99,9 [446B140E] [3426C173] CRC32
02 99,9 [2912D3CC] [7362FB71] CRC32
03 99,9 [DB5E49CE] [5C65203F] CRC32
04 99,9 [CF06A634] [806D3B47] CRC32
05 100,0 [E5FA6590] [583DE1B8] CRC32
06 100,0 [908B6C87] [0A34A3F0] CRC32
07 99,9 [8AA27036] [ABC26D2C] CRC32
08 99,9 [55276F02] [F24267B3] CRC32
09 99,9 [7B8E1737] [ADC26E7A] CRC32
10 99,9 [43BD3182] [E25897FB] CRC32
11 99,9 [902AC09F] [55F9F57C] CRC32
12 99,9 [A9C53E18] [DB0271D8] CRC32

foobar2000 1.2 / Dynamic Range Meter 1.1.1
log date: 2017-04-21 00:58:41

––––––––––––––––––––––––––––––––––––––––
Analyzed: Ted Nugent / Cat Scratch Fever
––––––––––––––––––––––––––––––––––––––––

DR Peak RMS Duration Track
––––––––––––––––––––––––––––––––––––––––
DR8 0.00 dB -9.25 dB 3:40 01-Cat Scratch Fever
DR7 0.00 dB -8.78 dB 3:17 02-Wang Dang Sweet Poontang
DR9 0.00 dB -9.91 dB 3:31 03-Death By Misadventure
DR8 0.00 dB -9.67 dB 4:02 04-Live It Up
DR9 0.00 dB -10.75 dB 4:46 05-Home Bound
DR7 0.00 dB -9.84 dB 5:44 06-Workin' Hard, Playin' Hard
DR8 0.00 dB -8.92 dB 2:34 07-Sweet Sally
DR8 0.00 dB -9.11 dB 4:48 08-A Thousand Knives
DR8 0.00 dB -9.21 dB 2:51 09-Fist Fightin' Son Of A Gun
DR8 0.00 dB -9.34 dB 3:37 10-Out Of Control
DR8 0.00 dB -9.63 dB 4:49 11-Cat Scratch Fever (Live)
DR7 0.00 dB -8.81 dB 5:47 12-Wang Dang Sweet Poontang (Live)
––––––––––––––––––––––––––––––––––––––––

Number of tracks: 12
Official DR value: DR8

Samplerate: 44100 Hz
Channels: 2
Bits per sample: 16
Bitrate: 995 kbps
Codec: FLAC
================================================================================




Ted Nugent - Original Album Classics (2008) 5CD Box Set [Re-Up]

CD4: Ted Nugent - Weekend Warrior (1978)
EAC | FLAC | Tracks (Cue&Log) ~ 237 Mb | Mp3 (CBR320) ~ 95 Mb | 00:39:35 | Scans included

Weekend Warriors, Ted Nugent's follow-up to the career peaks of Cat Scratch Fever and Double Live Gonzo, isn't quite as strong as his two previous albums, but it remains one of his better albums, featuring a handful of prime hard rockers.

Review by Stephen Thomas Erlewine, Allmusic.com

Tracklist:

01. Need You Bad (4:19)
02. One Woman (4:06)
03. I Got The Feelin' (3:03)
04. Tight Spots (2:55)
05. Venom Soup (5:50)
06. Smokescreen (4:15)
07. Weekend Warriors (3:07)
08. Cruisin' (3:28)
09. Good Friends And A Bottle Of Wine (4:04)
10. Name Your Poison (4:28)


Exact Audio Copy V0.99 prebeta 5 from 4. May 2009

EAC extraction logfile from 29. August 2010, 10:08

Ted Nugent / Weekend Warriors

Used drive : SONY CD-ROM CDU5231 Adapter: 3 ID: 1

Read mode : Secure
Utilize accurate stream : Yes
Defeat audio cache : Yes
Make use of C2 pointers : No

Read offset correction : 691
Overread into Lead-In and Lead-Out : No
Fill up missing offset samples with silence : Yes
Delete leading and trailing silent blocks : No
Null samples used in CRC calculations : Yes
Used interface : Native Win32 interface for Win NT & 2000
Gap handling : Appended to previous track

Used output format : Internal WAV Routines
Sample format : 44.100 Hz; 16 Bit; Stereo


TOC of the extracted CD

Track | Start | Length | Start sector | End sector
––––––––––––––––––––––––––––-
1 | 0:00.00 | 4:19.03 | 0 | 19427
2 | 4:19.03 | 4:06.12 | 19428 | 37889
3 | 8:25.15 | 3:02.65 | 37890 | 51604
4 | 11:28.05 | 2:55.05 | 51605 | 64734
5 | 14:23.10 | 5:50.03 | 64735 | 90987
6 | 20:13.13 | 4:14.60 | 90988 | 110097
7 | 24:27.73 | 3:07.10 | 110098 | 124132
8 | 27:35.08 | 3:28.01 | 124133 | 139733
9 | 31:03.09 | 4:04.09 | 139734 | 158042
10 | 35:07.18 | 4:27.50 | 158043 | 178117


Track 1

Filename D:\1978 - Weekend Warriors\01 - Need You Bad.wav

Pre-gap length 0:00:02.00

Peak level 81.9 %
Track quality 100.0 %
Test CRC 92F6F3BA
Copy CRC 92F6F3BA
Accurately ripped (confidence 6) [232B8B33]
Copy OK

Track 2

Filename D:\1978 - Weekend Warriors\02 - One Woman.wav

Pre-gap length 0:00:02.18

Peak level 75.8 %
Track quality 100.0 %
Test CRC A768E280
Copy CRC A768E280
Accurately ripped (confidence 6) [5EE58D90]
Copy OK

Track 3

Filename D:\1978 - Weekend Warriors\03 - I Got The Feelin'.wav

Pre-gap length 0:00:02.32

Peak level 70.7 %
Track quality 100.0 %
Test CRC 183AE861
Copy CRC 183AE861
Accurately ripped (confidence 6) [EB1ABA6B]
Copy OK

Track 4

Filename D:\1978 - Weekend Warriors\04 - Tight Spots.wav

Pre-gap length 0:00:02.60

Peak level 81.7 %
Track quality 100.0 %
Test CRC 374294A3
Copy CRC 374294A3
Accurately ripped (confidence 6) [ECAAA0AB]
Copy OK

Track 5

Filename D:\1978 - Weekend Warriors\05 - Venom Soup.wav

Pre-gap length 0:00:02.60

Peak level 69.2 %
Track quality 100.0 %
Test CRC 8D985EEB
Copy CRC 8D985EEB
Accurately ripped (confidence 6) [01F52DDC]
Copy OK

Track 6

Filename D:\1978 - Weekend Warriors\06 - Smokescreen.wav

Pre-gap length 0:00:03.10

Peak level 71.7 %
Track quality 100.0 %
Test CRC 7C715C10
Copy CRC 7C715C10
Accurately ripped (confidence 6) [A6E4B22D]
Copy OK

Track 7

Filename D:\1978 - Weekend Warriors\07 - Weekend Warriors.wav

Pre-gap length 0:00:02.35

Peak level 71.5 %
Track quality 100.0 %
Test CRC EF15635F
Copy CRC EF15635F
Accurately ripped (confidence 6) [C5564DA9]
Copy OK

Track 8

Filename D:\1978 - Weekend Warriors\08 - Cruisin'.wav

Pre-gap length 0:00:02.40

Peak level 73.4 %
Track quality 100.0 %
Test CRC 22A8F6A9
Copy CRC 22A8F6A9
Accurately ripped (confidence 6) [C59C109F]
Copy OK

Track 9

Filename D:\1978 - Weekend Warriors\09 - Good Friends And A Bottle Of Wine.wav

Pre-gap length 0:00:03.01

Peak level 73.0 %
Track quality 100.0 %
Test CRC E8421789
Copy CRC E8421789
Accurately ripped (confidence 6) [5941C753]
Copy OK

Track 10

Filename D:\1978 - Weekend Warriors\10 - Name Your Poison.wav

Pre-gap length 0:00:02.58

Peak level 76.2 %
Track quality 99.9 %
Test CRC 2E47E6CF
Copy CRC 2E47E6CF
Accurately ripped (confidence 6) [901E5D26]
Copy OK


All tracks accurately ripped

No errors occurred

End of status report

[CUETools log; Date: 21.04.2017 0:46:22; Version: 2.1.4]
[CTDB TOCID: nGEnEs3LQ4HqKBj2qh_VzfdA6GM-] found.
Track | CTDB Status
1 | (54/54) Accurately ripped
2 | (54/54) Accurately ripped
3 | (54/54) Accurately ripped
4 | (54/54) Accurately ripped
5 | (54/54) Accurately ripped
6 | (54/54) Accurately ripped
7 | (54/54) Accurately ripped
8 | (54/54) Accurately ripped
9 | (54/54) Accurately ripped
10 | (54/54) Accurately ripped
[AccurateRip ID: 000edfb4-0076dc42-8909460a] found.
Track [ CRC | V2 ] Status
01 [232b8b33|b6afaf10] (014+063/112) Accurately ripped
02 [5ee58d90|39ed810c] (014+063/112) Accurately ripped
03 [eb1aba6b|f9ba444c] (014+063/112) Accurately ripped
04 [ecaaa0ab|469e88b0] (015+063/113) Accurately ripped
05 [01f52ddc|d2c52211] (014+063/112) Accurately ripped
06 [a6e4b22d|77a652c2] (014+063/112) Accurately ripped
07 [c5564da9|3641038e] (014+063/112) Accurately ripped
08 [c59c109f|0a3d5e01] (014+063/112) Accurately ripped
09 [5941c753|c53c5cf5] (014+063/112) Accurately ripped
10 [901e5d26|4e56ae60] (014+063/112) Accurately ripped
Offsetted by -635:
01 [369207ab] (009/112) Accurately ripped
02 [6ee571a9] (009/112) Accurately ripped
03 [ffb33a79] (009/112) Accurately ripped
04 [af33c943] (009/113) Accurately ripped
05 [c94f2fca] (009/112) Accurately ripped
06 [6a6b8c8c] (009/112) Accurately ripped
07 [63e584d1] (009/112) Accurately ripped
08 [b0fb9702] (009/112) Accurately ripped
09 [22ed464b] (009/112) Accurately ripped
10 [455bef26] (009/112) Accurately ripped
Offsetted by 6:
01 [e27b9bc3] (000/112) No match (V2 was not tested)
02 [5d391979] (000/112) No match (V2 was not tested)
03 [f6e518fc] (000/112) No match (V2 was not tested)
04 [b2862957] (000/113) No match (V2 was not tested)
05 [92243a47] (000/112) No match (V2 was not tested)
06 [d613695e] (000/112) No match (V2 was not tested)
07 [ecc2cbc6] (000/112) No match (V2 was not tested)
08 [edcf1c59] (000/112) No match (V2 was not tested)
09 [8af235aa] (000/112) No match (V2 was not tested)
10 [321ca91b] (000/112) No match (V2 was not tested)

Track Peak [ CRC32 ] [W/O NULL] [ LOG ]
– 81,9 [3ED1A29F] [1C5E960E]
01 81,9 [92F6F3BA] [F7E0CA03] CRC32
02 75,8 [A768E280] [7D57DA89] CRC32
03 70,7 [183AE861] [2F5DEBF1] CRC32
04 81,7 [374294A3] [DF5EE109] CRC32
05 69,2 [8D985EEB] [43953D51] CRC32
06 71,7 [7C715C10] [097EF246] CRC32
07 71,5 [EF15635F] [2F8F3BA0] CRC32
08 73,4 [22A8F6A9] [9FE5D2DF] CRC32
09 73,0 [E8421789] [7F100FE8] CRC32
10 76,2 [2E47E6CF] [7441F923] CRC32

foobar2000 1.2 / Dynamic Range Meter 1.1.1
log date: 2017-04-21 00:58:56

––––––––––––––––––––––––––––––––––––––––
Analyzed: Ted Nugent / Weekend Warriors
––––––––––––––––––––––––––––––––––––––––

DR Peak RMS Duration Track
––––––––––––––––––––––––––––––––––––––––
DR11 -1.73 dB -15.27 dB 4:19 01-Need You Bad
DR11 -2.40 dB -16.21 dB 4:06 02-One Woman
DR11 -3.01 dB -15.63 dB 3:03 03-I Got The Feelin'
DR12 -1.75 dB -16.63 dB 2:55 04-Tight Spots
DR11 -3.20 dB -16.75 dB 5:50 05-Venom Soup
DR12 -2.88 dB -16.39 dB 4:15 06-Smokescreen
DR11 -2.90 dB -16.28 dB 3:07 07-Weekend Warriors
DR11 -2.68 dB -15.94 dB 3:28 08-Cruisin'
DR12 -2.73 dB -16.31 dB 4:04 09-Good Friends And A Bottle Of Wine
DR11 -2.36 dB -16.24 dB 4:28 10-Name Your Poison
––––––––––––––––––––––––––––––––––––––––

Number of tracks: 10
Official DR value: DR11

Samplerate: 44100 Hz
Channels: 2
Bits per sample: 16
Bitrate: 830 kbps
Codec: FLAC
================================================================================




Ted Nugent - Original Album Classics (2008) 5CD Box Set [Re-Up]

CD5: Ted Nugent - Scream Dream (1980)
EAC | FLAC | Tracks (Cue&Log) ~ 235 Mb | Mp3 (CBR320) ~ 86 Mb | 00:35:30 | Scans included

Don't know if Tom Werman is considered a production genius, but this in-house hair architect helmed some of the sharpest recordings in the catalogs of Cheap Trick, Mötley Crüe, and the Producers. He also varnished Ted Nugent's three-and-a-half stadium stompers per album and added enough subtle seasonings to the remaining roadkill to construct a consistent record while the MC Madman ran off to the stage or the woods. In 1979, Nugent's face graced a pinball game, but behind the bells and lights, he still needed the studio support of Werman on State of Shock to make the predictable pieces fit. The terrible one uses and abuses the same formula every outing, so nothing unexpected is expected. But drummer Cliff Davies takes over Werman's boards completely, and the crisp cutout sound starkly exposes recycled riffs and bloozy boredom. Nuge's brush with the Beatles pops out, but hints of his '80s dearth creep among too many fair-to-middling grooves, some of which, in Nuge's tender terms, "Bite Down Hard." Course some erudite scholars justifiably claim State of Shock sizzles with the true Ted Nugent, no longer disinfected for the airwaves. Granted, "Paralyzed," "Snake Charmer," and "It Don't Matter" are electrifying, with razor-sharp guitar, but these afternoon buzzers would sound better at the next Nugent show, fired off with his other silver-tippers. Most rock music of the late '70s attained a dreamy level of sophistication where the listeners put on gargantuan headphones just to be closer to the music, regardless of the lyrics, but no need for phones here. State of Shock is only half-cocked and ended Nugent's platinum period. Next time out he produces himself, and then keyboards hunt down the Nuge.

Review by Doug Stone, Allmusic.com

Tracklist:

01. Wango Tango (4:50)
02. Scream Dream (3:19)
03. Hard As Nails (3:39)
04. I Gotta Move (2:19)
05. Violent Love (2:55)
06. Flesh & Blood (4:45)
07. Spit It Out (3:54)
08. Come And Get It (3:18)
09. Terminus El Dorado (4:13)
10. Don't Cry (I'll Be Back Before You Know It Baby) (2:19)


Exact Audio Copy V0.99 prebeta 5 from 4. May 2009

EAC extraction logfile from 28. August 2010, 19:31

Ted Nugent / Scream Dream

Used drive : SONY CD-ROM CDU5231 Adapter: 3 ID: 1

Read mode : Secure
Utilize accurate stream : Yes
Defeat audio cache : Yes
Make use of C2 pointers : No

Read offset correction : 691
Overread into Lead-In and Lead-Out : No
Fill up missing offset samples with silence : Yes
Delete leading and trailing silent blocks : No
Null samples used in CRC calculations : Yes
Used interface : Native Win32 interface for Win NT & 2000
Gap handling : Appended to previous track

Used output format : Internal WAV Routines
Sample format : 44.100 Hz; 16 Bit; Stereo


TOC of the extracted CD

Track | Start | Length | Start sector | End sector
––––––––––––––––––––––––––––-
1 | 0:00.00 | 4:50.00 | 0 | 21749
2 | 4:50.00 | 3:18.67 | 21750 | 36666
3 | 8:08.67 | 3:39.05 | 36667 | 53096
4 | 11:47.72 | 2:18.50 | 53097 | 63496
5 | 14:06.47 | 2:54.48 | 63497 | 76594
6 | 17:01.20 | 4:44.45 | 76595 | 97939
7 | 21:45.65 | 3:53.47 | 97940 | 115461
8 | 25:39.37 | 3:18.05 | 115462 | 130316
9 | 28:57.42 | 4:13.33 | 130317 | 149324
10 | 33:11.00 | 2:19.00 | 149325 | 159749


Track 1

Filename D:\1980 - Scream Dream\01 - Wango Tango.wav

Pre-gap length 0:00:02.00

Peak level 99.9 %
Track quality 100.0 %
Test CRC 954117AB
Copy CRC 954117AB
Accurately ripped (confidence 6) [0642275A]
Copy OK

Track 2

Filename D:\1980 - Scream Dream\02 - Scream Dream.wav

Pre-gap length 0:00:02.00

Peak level 93.3 %
Track quality 99.9 %
Test CRC 0E456352
Copy CRC 0E456352
Accurately ripped (confidence 6) [5CA20CE4]
Copy OK

Track 3

Filename D:\1980 - Scream Dream\03 - Hard As Nails.wav

Pre-gap length 0:00:01.00

Peak level 100.0 %
Track quality 100.0 %
Test CRC 06288488
Copy CRC 06288488
Accurately ripped (confidence 6) [9168E657]
Copy OK

Track 4

Filename D:\1980 - Scream Dream\04 - I Gotta Move.wav

Pre-gap length 0:00:00.40

Peak level 100.0 %
Track quality 100.0 %
Test CRC 97EB2216
Copy CRC 97EB2216
Accurately ripped (confidence 6) [62ABFE72]
Copy OK

Track 5

Filename D:\1980 - Scream Dream\05 - Violent Love.wav

Pre-gap length 0:00:01.15

Peak level 94.9 %
Track quality 100.0 %
Test CRC 02234843
Copy CRC 02234843
Accurately ripped (confidence 6) [81FB434A]
Copy OK

Track 6

Filename D:\1980 - Scream Dream\06 - Flesh & Blood.wav

Pre-gap length 0:00:00.50

Peak level 100.0 %
Track quality 99.9 %
Test CRC 1053BF0F
Copy CRC 1053BF0F
Accurately ripped (confidence 6) [DA313FC2]
Copy OK

Track 7

Filename D:\1980 - Scream Dream\07 - Spit It Out.wav

Pre-gap length 0:00:00.70

Peak level 83.5 %
Track quality 100.0 %
Test CRC 789DDEC5
Copy CRC 789DDEC5
Accurately ripped (confidence 6) [5594DEFD]
Copy OK

Track 8

Filename D:\1980 - Scream Dream\08 - Come And Get It.wav

Peak level 73.4 %
Track quality 100.0 %
Test CRC EA364FCC
Copy CRC EA364FCC
Accurately ripped (confidence 6) [E8EB0A4C]
Copy OK

Track 9

Filename D:\1980 - Scream Dream\09 - Terminus El Dorado.wav

Pre-gap length 0:00:01.02

Peak level 100.0 %
Track quality 100.0 %
Test CRC 59EA8B8C
Copy CRC 59EA8B8C
Accurately ripped (confidence 6) [65B0CEBD]
Copy OK

Track 10

Filename D:\1980 - Scream Dream\10 - Don't Cry (I'll Be Back Before You Know It Baby).wav

Pre-gap length 0:00:00.30

Peak level 85.1 %
Track quality 100.0 %
Test CRC 5C8B9D8E
Copy CRC 5C8B9D8E
Accurately ripped (confidence 6) [83258D91]
Copy OK


All tracks accurately ripped

No errors occurred

End of status report

[CUETools log; Date: 21.04.2017 0:46:33; Version: 2.1.4]
[CTDB TOCID: QfvT03tukewR_UDPKtb_wVk4iJI-] found.
Track | CTDB Status
1 | (43/43) Accurately ripped
2 | (43/43) Accurately ripped
3 | (43/43) Accurately ripped
4 | (43/43) Accurately ripped
5 | (43/43) Accurately ripped
6 | (43/43) Accurately ripped
7 | (43/43) Accurately ripped
8 | (43/43) Accurately ripped
9 | (43/43) Accurately ripped
10 | (43/43) Accurately ripped
[AccurateRip ID: 000dccd0-006d7d96-8608520a] found.
Track [ CRC | V2 ] Status
01 [0642275a|67cc8284] (16+64/86) Accurately ripped
02 [5ca20ce4|c86956f3] (16+64/86) Accurately ripped
03 [9168e657|ee8ced35] (16+64/86) Accurately ripped
04 [62abfe72|f0701946] (16+64/86) Accurately ripped
05 [81fb434a|0f2f0e30] (16+64/86) Accurately ripped
06 [da313fc2|3e3aff77] (16+64/85) Accurately ripped
07 [5594defd|592fb4d2] (16+64/85) Accurately ripped
08 [e8eb0a4c|295ae380] (16+64/85) Accurately ripped
09 [65b0cebd|f07188b3] (16+64/85) Accurately ripped
10 [83258d91|32d7d130] (16+64/85) Accurately ripped
Offsetted by -36:
01 [1f1d3b4e] (00/86) No match (V2 was not tested)
02 [9d513998] (00/86) No match (V2 was not tested)
03 [64d2e917] (00/86) No match (V2 was not tested)
04 [643d0776] (00/86) No match (V2 was not tested)
05 [615bd05a] (00/86) No match (V2 was not tested)
06 [fa41744e] (00/85) No match (V2 was not tested)
07 [857e2259] (00/85) No match (V2 was not tested)
08 [710e6758] (00/85) No match (V2 was not tested)
09 [60261285] (00/85) No match (V2 was not tested)
10 [4b2d0feb] (00/85) No match (V2 was not tested)
Offsetted by -30:
01 [704e0d50] (00/86) No match
02 [bd34077a] (00/86) No match
03 [ec413df7] (00/86) No match
04 [63fa30a0] (00/86) No match
05 [91766382] (00/86) No match
06 [74e96b8c] (00/85) No match (V2 was not tested)
07 [5bcc171f] (00/85) No match (V2 was not tested)
08 [5a6257d6] (00/85) No match (V2 was not tested)
09 [61128739] (00/85) No match (V2 was not tested)
10 [e69685ad] (00/85) No match (V2 was not tested)
Offsetted by 6:
01 [5772f95c] (00/86) No match (V2 was not tested)
02 [7c84dac6] (00/86) No match (V2 was not tested)
03 [18d73b37] (00/86) No match (V2 was not tested)
04 [6269279c] (00/86) No match (V2 was not tested)
05 [b215d672] (00/86) No match (V2 was not tested)
06 [54d93700] (00/85) No match (V2 was not tested)
07 [2be8d3c3] (00/85) No match (V2 was not tested)
08 [d238faca] (00/85) No match (V2 was not tested)
09 [669d4371] (00/85) No match (V2 was not tested)
10 [85e22a94] (00/85) No match (V2 was not tested)

Track Peak [ CRC32 ] [W/O NULL] [ LOG ]
– 100,0 [76242809] [9ED54C10]
01 99,9 [954117AB] [6A94F5D4] CRC32
02 93,3 [0E456352] [1B5553A9] CRC32
03 100,0 [06288488] [75E415E1] CRC32
04 100,0 [97EB2216] [7ECE3862] CRC32
05 94,9 [02234843] [A14069FD] CRC32
06 100,0 [1053BF0F] [80415E13] CRC32
07 83,5 [789DDEC5] [FBD40A5D] CRC32
08 73,4 [EA364FCC] [25D44BA9] CRC32
09 100,0 [59EA8B8C] [49D561CF] CRC32
10 85,1 [5C8B9D8E] [6F4698B2] CRC32

foobar2000 1.2 / Dynamic Range Meter 1.1.1
log date: 2017-04-21 00:59:11

––––––––––––––––––––––––––––––––––––––––
Analyzed: Ted Nugent / Scream Dream
––––––––––––––––––––––––––––––––––––––––

DR Peak RMS Duration Track
––––––––––––––––––––––––––––––––––––––––
DR13 -0.01 dB -13.39 dB 4:50 01-Wango Tango
DR12 -0.60 dB -13.74 dB 3:19 02-Scream Dream
DR13 0.00 dB -13.70 dB 3:39 03-Hard As Nails
DR12 0.00 dB -13.82 dB 2:19 04-I Gotta Move
DR12 -0.45 dB -13.38 dB 2:55 05-Violent Love
DR14 0.00 dB -15.02 dB 4:45 06-Flesh & Blood
DR13 -1.57 dB -15.99 dB 3:54 07-Spit It Out
DR11 -2.68 dB -15.06 dB 3:18 08-Come And Get It
DR13 0.00 dB -13.93 dB 4:13 09-Terminus El Dorado
DR12 -1.40 dB -14.31 dB 2:19 10-Don't Cry (I'll Be Back Before You Know It Baby)
––––––––––––––––––––––––––––––––––––––––

Number of tracks: 10
Official DR value: DR12

Samplerate: 44100 Hz
Channels: 2
Bits per sample: 16
Bitrate: 901 kbps
Codec: FLAC
================================================================================




Ted Nugent - Original Album Classics (2008) 5CD Box Set [Re-Up]