Tags
Language
Tags

Ten Years After - Stonedhenge (1969) 2CDs, Remastered, Deluxe Edition 2015 [Re-Up]

Posted By: Designol
Ten Years After - Stonedhenge (1969) 2CDs, Remastered, Deluxe Edition 2015 [Re-Up]

Ten Years After - Stonedhenge (1969) 2CDs, Remastered, Deluxe Edition 2015
EAC | FLAC | Image (Cue&Log) ~ 472 Mb | Mp3 (CBR320) ~ 232 Mb | Scans ~ 59 Mb
Label: Deram/Universal | # 472 644-6 | Time: 01:41:40
Blues-Rock, Psychedelic Rock, Jazz-Rock

"I'm Going Home" from Ten Years After's previous release put them on the charts, at least in the U.K. (the band's U.S. breakthrough was at Woodstock a year after its release), but the four-piece was already experimenting with ways to expand their basic boogie rock template. Stonedhenge was the result, as producer Mike Vernon helped steer the band into a more jazz- and blues-oriented direction. That's especially evident in the swinging "Woman Trouble," but this set is generally more prone to broadening the sound without losing TYA's basic concept. It doesn't always gel – the four short pieces that feature each musician alone on their instrument is an interesting idea that ends up as a distraction – yet the album boasts some terrific performances by a group that was hitting its peak. Canned Heat, who TYA supported in America and who were also trying to push their own boogie envelope, were a big influence, born out by the very Heat-sounding "Hear Me Calling." Alvin Lee keeps his fleet fingers in check, preferring to work his style into a more organic fusion. Tracks such as the creeping "A Sad Song" successfully build tension without the need for speedy guitar solos. The eight-minute "No Title" takes the basic TYA blueprint but slowly creates a moody atmosphere for three minutes until Lee cranks out a terse, loud extension on its main riff that sets the stage for Chick Churchill's eerie organ solo. The quartet and their producer also experimented with primitive panning and tape manipulation to impressive results. The closing "Speed Kills" returns TYA to its basics, perhaps as a way to let its existing fans know they can still churn out the rocking when needed. The album was remastered and expanded in 2002 by adding informative liner notes from drummer Ric Lee, four extra tracks including the tiresome, 15-minute "Boogie On," and an edited single version of "I'm Going Home," U,K, artwork (the initial U.S. edition was an embarrassing botch job) and pristine sound from the original tapes.

Review by Hal Horowitz, Allmusic.com

Ten Years After - Stonedhenge (1969) 2CDs, Remastered, Deluxe Edition 2015 [Re-Up]



Tracklist:

CD1:

01. Going To Try (Mono, Deram LP DML 1029) (04:46)
02. I Can't Live Without Lydia (Mono, Deram LP DML 1029) (01:24)
03. Woman Trouble (Mono, Deram LP DML 1029) (04:35)
04. Skoobly-Oobly-Doobob (Mono, Deram LP DML 1029) (01:36)
05. Hear Me Calling (Mono, Deram LP DML 1029) (05:48)
06. A Sad Song (Mono, Deram LP DML 1029) (03:22)
07. Three Blind Mice (Mono, Deram LP DML 1029) (00:56)
08. No Title (Mono, Deram LP DML 1029) (08:11)
09. Faro (Mono, Deram LP DML 1029) (01:10)
10. Speed Kills (Mono, Deram LP DML 1029) (03:38)
11. Going To Try (Deram LP SML 1029) (04:48)
12. I Can't Live Without Lydia (Deram LP SML 1029) (01:23)
13. Woman Trouble (Deram LP SML 1029) (04:37)
14. Skoobly-Oobly-Doobob (Deram LP SML 1029) (01:44)
15. Hear Me Calling (Deram LP SML 1029) (05:44)
16. A Sad Song (Deram LP SML 1029) (03:23)
17. Three Blind Mice (Deram LP SML 1029) (00:56)
18. No Title (Deram LP SML 1029) (08:12)
19. Faro (Deram LP SML 1029) (01:10)
20. Speed Kills (Deram LP SML 1029) (03:41)

CD2:

01. Hear Me Calling (single Deram DM 221) (03:44)
02. Woman Trouble (Recorded in the USA, July 1968) (04:50)
03. Boogie On (Deram LP 'Alvin Lee & Company' SML 1096) (14:28)
04. Rock Your Mama (recorded for BBC 'Top Gear', London 1968) (02:28)
05. Portable People (recorded for BBC 'Top Gear', London 1968) (02:04)
06. I Ain't seen No Whisky (recorded for BBC 'Top Gear', London 1968) (02:51)


Exact Audio Copy V1.0 beta 4 from 7. December 2014

EAC extraction logfile from 5. November 2016, 10:52

Ten Years After / Stonedhenge CD1 (2015, 2CD, 472 644-6)

Used drive : ATAPI iHAS124 B Adapter: 1 ID: 0

Read mode : Secure
Utilize accurate stream : Yes
Defeat audio cache : Yes
Make use of C2 pointers : No

Read offset correction : 6
Overread into Lead-In and Lead-Out : No
Fill up missing offset samples with silence : Yes
Delete leading and trailing silent blocks : No
Null samples used in CRC calculations : Yes
Used interface : Installed external ASPI interface

Used output format : User Defined Encoder
Selected bitrate : 128 kBit/s
Quality : High
Add ID3 tag : Yes
Command line compressor : C:\Program Files (x86)\Exact Audio Copy\Flac\flac.exe
Additional command line options : -V -8 -T "Date=%year%" -T "Genre=%genre%" %source%


TOC of the extracted CD

Track | Start | Length | Start sector | End sector
––––––––––––––––––––––––––––-
1 | 0:00.00 | 4:46.62 | 0 | 21511
2 | 4:46.62 | 1:24.01 | 21512 | 27812
3 | 6:10.63 | 4:35.48 | 27813 | 48485
4 | 10:46.36 | 1:36.10 | 48486 | 55695
5 | 12:22.46 | 5:48.18 | 55696 | 81813
6 | 18:10.64 | 3:22.68 | 81814 | 97031
7 | 21:33.57 | 0:56.15 | 97032 | 101246
8 | 22:29.72 | 8:11.46 | 101247 | 138117
9 | 30:41.43 | 1:10.71 | 138118 | 143438
10 | 31:52.39 | 3:38.59 | 143439 | 159847
11 | 35:31.23 | 4:48.34 | 159848 | 181481
12 | 40:19.57 | 1:23.03 | 181482 | 187709
13 | 41:42.60 | 4:37.05 | 187710 | 208489
14 | 46:19.65 | 1:44.01 | 208490 | 216290
15 | 48:03.66 | 5:44.58 | 216291 | 242148
16 | 53:48.49 | 3:23.24 | 242149 | 257397
17 | 57:11.73 | 0:56.18 | 257398 | 261615
18 | 58:08.16 | 8:12.43 | 261616 | 298558
19 | 66:20.59 | 1:10.48 | 298559 | 303856
20 | 67:31.32 | 3:41.67 | 303857 | 320498


Range status and errors

Selected range

Filename F:\CD\Ten Years After - Stonedhenge CD1.wav

Peak level 100.0 %
Extraction speed 6.5 X
Range quality 100.0 %
Test CRC 124D7414
Copy CRC 124D7414
Copy OK

No errors occurred


AccurateRip summary

Track 1 accurately ripped (confidence 12) [B33EFB54] (AR v2)
Track 2 accurately ripped (confidence 12) [DAB45DB4] (AR v2)
Track 3 accurately ripped (confidence 12) [C9026405] (AR v2)
Track 4 accurately ripped (confidence 12) [1E27F905] (AR v2)
Track 5 accurately ripped (confidence 12) [A78D4BE5] (AR v2)
Track 6 accurately ripped (confidence 12) [397BF276] (AR v2)
Track 7 accurately ripped (confidence 12) [9FE191F7] (AR v2)
Track 8 accurately ripped (confidence 12) [FC1C6473] (AR v2)
Track 9 accurately ripped (confidence 12) [8187A1C3] (AR v2)
Track 10 accurately ripped (confidence 12) [D1742253] (AR v2)
Track 11 accurately ripped (confidence 12) [B386057A] (AR v2)
Track 12 accurately ripped (confidence 12) [729EE36F] (AR v2)
Track 13 accurately ripped (confidence 12) [CBD96797] (AR v2)
Track 14 accurately ripped (confidence 12) [2EC07EF4] (AR v2)
Track 15 accurately ripped (confidence 12) [6BE299DF] (AR v2)
Track 16 accurately ripped (confidence 12) [66DE46BC] (AR v2)
Track 17 accurately ripped (confidence 12) [6F4BE014] (AR v2)
Track 18 accurately ripped (confidence 12) [03B2CA90] (AR v2)
Track 19 accurately ripped (confidence 12) [4FA62D5A] (AR v2)
Track 20 accurately ripped (confidence 12) [99BCE8C2] (AR v2)

All tracks accurately ripped

End of status report

–– CUETools DB Plugin V2.1.4

[CTDB TOCID: Etq.XSeOmncV9qUGwcu3BwLwGkc-] found
Submit result: Etq.XSeOmncV9qUGwcu3BwLwGkc- has been confirmed
Track | CTDB Status
1 | (17/17) Accurately ripped
2 | (17/17) Accurately ripped
3 | (17/17) Accurately ripped
4 | (17/17) Accurately ripped
5 | (17/17) Accurately ripped
6 | (17/17) Accurately ripped
7 | (17/17) Accurately ripped
8 | (17/17) Accurately ripped
9 | (17/17) Accurately ripped
10 | (17/17) Accurately ripped
11 | (17/17) Accurately ripped
12 | (17/17) Accurately ripped
13 | (17/17) Accurately ripped
14 | (17/17) Accurately ripped
15 | (17/17) Accurately ripped
16 | (17/17) Accurately ripped
17 | (17/17) Accurately ripped
18 | (17/17) Accurately ripped
19 | (17/17) Accurately ripped
20 | (17/17) Accurately ripped


==== Log checksum 3B842D151790C59B5DEB339C018F5547B8C6570245C88263B43AD6607E8EC4CA ====

foobar2000 1.2 / Dynamic Range Meter 1.1.1
log date: 2016-11-06 17:09:54

––––––––––––––––––––––––––––––––––––––––
Analyzed: Ten Years After / Stonedhenge CD1. Original Mono and Stereo album (2015, 2CD, 472 644-6, 472 644-7)
––––––––––––––––––––––––––––––––––––––––

DR Peak RMS Duration Track
––––––––––––––––––––––––––––––––––––––––
DR10 -0.14 dB -12.73 dB 4:47 01-Going To Try (Mono, Deram LP DML 1029)
DR13 -0.28 dB -15.73 dB 1:24 02-I Can't Live Without Lydia (Mono, Deram LP DML 1029)
DR12 -0.26 dB -13.20 dB 4:36 03-Woman Trouble (Mono, Deram LP DML 1029)
DR14 -0.21 dB -15.67 dB 1:36 04-Skoobly-Oobly-Doobob (Mono, Deram LP DML 1029)
DR9 -0.06 dB -11.26 dB 5:48 05-Hear Me Calling (Mono, Deram LP DML 1029)
DR10 0.00 dB -13.83 dB 3:23 06-A Sad Song (Mono, Deram LP DML 1029)
DR13 -0.33 dB -16.64 dB 0:56 07-Three Blind Mice (Mono, Deram LP DML 1029)
DR13 -1.24 dB -18.73 dB 8:12 08-No Title (Mono, Deram LP DML 1029)
DR8 -4.58 dB -14.82 dB 1:11 09-Faro (Mono, Deram LP DML 1029)
DR9 -0.18 dB -11.80 dB 3:39 10-Speed Kills (Mono, Deram LP DML 1029)
DR12 -0.63 dB -16.59 dB 4:48 11-Going To Try (Deram LP SML 1029)
DR13 -0.67 dB -17.65 dB 1:23 12-I Can't Live Without Lydia (Deram LP SML 1029)
DR14 -0.23 dB -16.01 dB 4:37 13-Woman Trouble (Deram LP SML 1029)
DR14 -2.17 dB -19.34 dB 1:44 14-Skoobly-Oobly-Doobob (Deram LP SML 1029)
DR12 -0.19 dB -15.05 dB 5:45 15-Hear Me Calling (Deram LP SML 1029)
DR12 -0.32 dB -17.95 dB 3:23 16-A Sad Song (Deram LP SML 1029)
DR14 -0.16 dB -16.79 dB 0:56 17-Three Blind Mice (Deram LP SML 1029)
DR14 -1.17 dB -19.29 dB 8:13 18-No Title (Deram LP SML 1029)
DR10 -4.90 dB -20.93 dB 1:11 19-Faro (Deram LP SML 1029)
DR11 0.00 dB -13.66 dB 3:42 20-Speed Kills (Deram LP SML 1029)
––––––––––––––––––––––––––––––––––––––––

Number of tracks: 20
Official DR value: DR12

Samplerate: 44100 Hz
Channels: 2
Bits per sample: 16
Bitrate: 633 kbps
Codec: FLAC
================================================================================


Exact Audio Copy V1.0 beta 4 from 7. December 2014

EAC extraction logfile from 5. November 2016, 10:56

Ten Years After / Stonedhenge CD2 (2015, 2CD, 472 644-6)

Used drive : Optiarc BD RW BD-5300S Adapter: 0 ID: 0

Read mode : Secure
Utilize accurate stream : Yes
Defeat audio cache : Yes
Make use of C2 pointers : No

Read offset correction : 6
Overread into Lead-In and Lead-Out : No
Fill up missing offset samples with silence : Yes
Delete leading and trailing silent blocks : No
Null samples used in CRC calculations : Yes
Used interface : Installed external ASPI interface

Used output format : User Defined Encoder
Selected bitrate : 128 kBit/s
Quality : High
Add ID3 tag : Yes
Command line compressor : C:\Program Files (x86)\Exact Audio Copy\Flac\flac.exe
Additional command line options : -V -8 -T "Date=%year%" -T "Genre=%genre%" %source%


TOC of the extracted CD

Track | Start | Length | Start sector | End sector
––––––––––––––––––––––––––––-
1 | 0:00.00 | 3:44.50 | 0 | 16849
2 | 3:44.50 | 4:50.21 | 16850 | 38620
3 | 8:34.71 | 14:28.04 | 38621 | 103724
4 | 23:03.00 | 2:28.47 | 103725 | 114871
5 | 25:31.47 | 2:04.18 | 114872 | 124189
6 | 27:35.65 | 2:51.06 | 124190 | 137020


Range status and errors

Selected range

Filename F:\CD\Ten Years After - Stonedhenge CD2.wav

Peak level 97.0 %
Extraction speed 2.9 X
Range quality 100.0 %
Test CRC 305E23D2
Copy CRC 305E23D2
Copy OK

No errors occurred


AccurateRip summary

Track 1 accurately ripped (confidence 11) [9B48BBB7] (AR v2)
Track 2 accurately ripped (confidence 11) [35829137] (AR v2)
Track 3 accurately ripped (confidence 11) [06BA3727] (AR v2)
Track 4 accurately ripped (confidence 11) [4AFB5391] (AR v2)
Track 5 accurately ripped (confidence 11) [285EC1DB] (AR v2)
Track 6 accurately ripped (confidence 11) [A44FB46B] (AR v2)

All tracks accurately ripped

End of status report

–– CUETools DB Plugin V2.1.4

[CTDB TOCID: ruZIYB0vy3vZI6OgYyWJAmFtnz8-] found
Submit result: ruZIYB0vy3vZI6OgYyWJAmFtnz8- has been confirmed
Track | CTDB Status
1 | (18/18) Accurately ripped
2 | (18/18) Accurately ripped
3 | (18/18) Accurately ripped
4 | (18/18) Accurately ripped
5 | (18/18) Accurately ripped
6 | (18/18) Accurately ripped


==== Log checksum 2F99A58266363CA2D70C089A11EF12756F3E339FC54CD992247F825F63DFA96E ====

foobar2000 1.2 / Dynamic Range Meter 1.1.1
log date: 2016-11-06 17:10:05

––––––––––––––––––––––––––––––––––––––––
Analyzed: Ten Years After / Stonedhenge CD2 (2015, 2CD, 472 644-6, 472 644-8)
––––––––––––––––––––––––––––––––––––––––

DR Peak RMS Duration Track
––––––––––––––––––––––––––––––––––––––––
DR11 -2.15 dB -16.04 dB 3:45 01-Hear Me Calling (single Deram DM 221)
DR11 -0.26 dB -14.46 dB 4:50 02-Woman Trouble (Recorded in the USA, July 1968)
DR12 -0.92 dB -16.74 dB 14:28 03-Boogie On (Deram LP 'Alvin Lee & Company' SML 1096)
DR10 -3.00 dB -15.05 dB 2:29 04-Rock Your Mama (recorded for BBC 'Top Gear', London 1968)
DR8 -1.72 dB -13.16 dB 2:04 05-Portable People (recorded for BBC 'Top Gear', London 1968)
DR10 -3.07 dB -14.84 dB 2:51 06-I Ain't seen No Whisky (recorded for BBC 'Top Gear', London 1968)
––––––––––––––––––––––––––––––––––––––––

Number of tracks: 6
Official DR value: DR10

Samplerate: 44100 Hz
Channels: 2
Bits per sample: 16
Bitrate: 688 kbps
Codec: FLAC
================================================================================

Ten Years After - Stonedhenge (1969) 2CDs, Remastered, Deluxe Edition 2015 [Re-Up]

Ten Years After - Stonedhenge (1969) 2CDs, Remastered, Deluxe Edition 2015 [Re-Up]

All thanks to original releaser - gerrV

More interesting music in My Blog