Tags
Language
Tags

The Allman Brothers Band featuring Jerry Garcia - Live At The Cow Palace, New Years Eve 1973 (2015) [3Cd Box Set]

Posted By: v3122
The Allman Brothers Band featuring Jerry Garcia - Live At The Cow Palace, New Years Eve 1973 (2015) [3Cd Box Set]

The Allman Brothers Band featuring Jerry Garcia - Live At The Cow Palace, New Years Eve 1973 (2015)
EAC | Flac(Image) + Cue + Log & MP3 CBR 320Kbps
Leftfield Media, LFM3CD535 | ~ 1583 or 570 Mb | Artwork(jpg) -> 142 Mb
Blues Rock / Classic Rock

~ Live FF Broadcast from the Cow Palace, San Francisco, 31st December 1973 ~

The Allman Brothers Band featuring Jerry Garcia - Live At The Cow Palace, New Years Eve 1973 (2015):

The Allman Brothers Band featuring Jerry Garcia - Live At The Cow Palace, New Years Eve 1973 (2015) [3Cd Box Set]

Tracklist CD1:

01. Wasted Words (5:28)
02. Done Somebody Wrong (6:02)
03. One Way Out (9:51)
04. Stormy Monday (8:59)
05. Midnight Rider (5:01)
06. Blue Sky (7:43)
07. In Memory Of Elizabeth Reed (17:31)
08. Statesboro Blues (6:58)
09. Southbound (7:22)
10. Come And Go Blues (5:29)

Exact Audio Copy V1.0 beta 3 from 29. August 2011

EAC extraction logfile from 20. February 2016, 18:39

The Allman Brothers Band / Live At The Cow Palace, New Years Eve 1973 (CD1)

Used drive : PLEXTOR DVDR PX-L890SA Adapter: 5 ID: 1

Read mode : Secure
Utilize accurate stream : Yes
Defeat audio cache : Yes
Make use of C2 pointers : No

Read offset correction : 6
Overread into Lead-In and Lead-Out : No
Fill up missing offset samples with silence : Yes
Delete leading and trailing silent blocks : No
Null samples used in CRC calculations : Yes
Used interface : Native Win32 interface for Win NT & 2000
Gap handling : Appended to previous track

Used output format : User Defined Encoder
Selected bitrate : 128 kBit/s
Quality : High
Add ID3 tag : No
Command line compressor : C:\Program Files (x86)\Exact Audio Copy\FLAC\FLAC.EXE
Additional command line options : -8 -V -T "ARTIST=%artist%" -T "TITLE=%title%" -T "ALBUM=%albumtitle%" -T "DATE=%year%" -T "TRACKNUMBER=%tracknr%" -T "TOTALTRACKS=%numtracks%" -T "GENRE=%genre%" -T "ALBUMARTIST=%albumartist%" -T "ALBUM ARTIST=%albumartist%" -T "COMMENT=EAC Secure Mode, Test & Copy, AccurateRip, FLAC -8" %source%


TOC of the extracted CD

Track | Start | Length | Start sector | End sector
––––––––––––––––––––––––––––-
1 | 0:00.00 | 5:28.21 | 0 | 24620
2 | 5:28.21 | 6:02.18 | 24621 | 51788
3 | 11:30.39 | 9:50.58 | 51789 | 96096
4 | 21:21.22 | 8:59.33 | 96097 | 136554
5 | 30:20.55 | 5:00.66 | 136555 | 159120
6 | 35:21.46 | 7:42.55 | 159121 | 193825
7 | 43:04.26 | 17:30.42 | 193826 | 272617
8 | 60:34.68 | 6:58.00 | 272618 | 303967
9 | 67:32.68 | 7:21.68 | 303968 | 337110
10 | 74:54.61 | 5:28.56 | 337111 | 361766


Track 1

Filename E:\01 - Wasted Words.wav

Pre-gap length 0:00:02.00

Peak level 100.0 %
Extraction speed 4.1 X
Track quality 100.0 %
Test CRC 990FB30B
Copy CRC 990FB30B
Accurately ripped (confidence 3) [2A3C827F] (AR v2)
Copy OK

Track 2

Filename E:\02 - Done Somebody Wrong.wav

Peak level 100.0 %
Extraction speed 4.7 X
Track quality 100.0 %
Test CRC 2E6D92E6
Copy CRC 2E6D92E6
Accurately ripped (confidence 3) [138C8D89] (AR v2)
Copy OK

Track 3

Filename E:\03 - One Way Out.wav

Peak level 100.0 %
Extraction speed 5.5 X
Track quality 100.0 %
Test CRC 2E8FFBF5
Copy CRC 2E8FFBF5
Accurately ripped (confidence 3) [94F75F66] (AR v2)
Copy OK

Track 4

Filename E:\04 - Stormy Monday.wav

Peak level 100.0 %
Extraction speed 6.1 X
Track quality 100.0 %
Test CRC AB7A9BF4
Copy CRC AB7A9BF4
Accurately ripped (confidence 3) [3033A377] (AR v2)
Copy OK

Track 5

Filename E:\05 - Midnight Rider.wav

Peak level 100.0 %
Extraction speed 6.2 X
Track quality 100.0 %
Test CRC 37471410
Copy CRC 37471410
Accurately ripped (confidence 3) [E96744BE] (AR v2)
Copy OK

Track 6

Filename E:\06 - Blue Sky.wav

Peak level 100.0 %
Extraction speed 6.9 X
Track quality 100.0 %
Test CRC 88839B07
Copy CRC 88839B07
Accurately ripped (confidence 3) [2AD171BD] (AR v2)
Copy OK

Track 7

Filename E:\07 - In Memory Of Elizabeth Reed.wav

Peak level 100.0 %
Extraction speed 7.9 X
Track quality 100.0 %
Test CRC AF3E3637
Copy CRC AF3E3637
Accurately ripped (confidence 3) [C9E88DF6] (AR v2)
Copy OK

Track 8

Filename E:\08 - Statesboro Blues.wav

Peak level 92.8 %
Extraction speed 7.0 X
Track quality 99.9 %
Test CRC F77C3E8F
Copy CRC F77C3E8F
Accurately ripped (confidence 3) [EEAAB87A] (AR v2)
Copy OK

Track 9

Filename E:\09 - Southbound.wav

Peak level 100.0 %
Extraction speed 7.3 X
Track quality 99.9 %
Test CRC BB0D2067
Copy CRC BB0D2067
Accurately ripped (confidence 3) [B9AA89DE] (AR v2)
Copy OK

Track 10

Filename E:\10 - Come And Go Blues.wav

Peak level 100.0 %
Extraction speed 8.4 X
Track quality 100.0 %
Test CRC 7680407D
Copy CRC 7680407D
Accurately ripped (confidence 3) [285D88EB] (AR v2)
Copy OK


All tracks accurately ripped

No errors occurred

End of status report

==== Log checksum 495B0F1E7456BB2E303DAB6300611DD75408A8F18CBFC6FD2AD6A95CDC9F99DB ====


[CUETools log; Date: 11.09.2019 3:56:35; Version: 2.1.4]
[AccurateRip ID: 001d9041-00f1dbf4-8712d70a] found.
Track [ CRC | V2 ] Status
01 [e7f478fc|2a3c827f] (00+13/13) Accurately ripped
02 [5609772c|138c8d89] (00+13/13) Accurately ripped
03 [7556651d|94f75f66] (00+13/13) Accurately ripped
04 [c6c0a74a|3033a377] (00+13/13) Accurately ripped
05 [ff66096b|e96744be] (00+13/13) Accurately ripped
06 [a7fef3f2|2ad171bd] (00+13/13) Accurately ripped
07 [00005b8b|c9e88df6] (00+13/13) Accurately ripped
08 [7bf71254|eeaab87a] (00+13/13) Accurately ripped
09 [dbe571d0|b9aa89de] (00+13/13) Accurately ripped
10 [dffbf2da|285d88eb] (00+13/13) Accurately ripped

Track Peak [ CRC32 ] [W/O NULL] [ LOG ]
– 100,0 [A109E66A] [F42359B5]
01 100,0 [990FB30B] [1F8419D4] CRC32
02 100,0 [2E6D92E6] [D01DF8DB] CRC32
03 100,0 [2E8FFBF5] [FC87E9A9] CRC32
04 100,0 [AB7A9BF4] [7FAD6127] CRC32
05 100,0 [37471410] [00CD2C1C] CRC32
06 100,0 [88839B07] [C1BEF8AD] CRC32
07 100,0 [AF3E3637] [CE27BA19] CRC32
08 92,8 [F77C3E8F] [BC5A4D1A] CRC32
09 100,0 [BB0D2067] [E8EEED10] CRC32
10 100,0 [7680407D] [1A0CEA06] CRC32


The Allman Brothers Band featuring Jerry Garcia - Live At The Cow Palace, New Years Eve 1973 (2015) [3Cd Box Set]

Tracklist CD2:

01. Ramblin' Man (8:06)
02. Trouble No More (4:22)
03. Jessica (12:59)
04. Les Brers In A Minor (6:09)
05. Drum Solo (8:07)
06. Les Brers In A Minor Pt 2 (9:50)
07. Whipping Post (11:53)
08. Linda Lou-Mary Lou (9:18)
09. Hideaway-You Upset Me (10:09)

Exact Audio Copy V1.0 beta 3 from 29. August 2011

EAC extraction logfile from 20. February 2016, 19:12

The Allman Brothers Band / Live At The Cow Palace, New Years Eve 1973 (CD2)

Used drive : PLEXTOR DVDR PX-L890SA Adapter: 5 ID: 1

Read mode : Secure
Utilize accurate stream : Yes
Defeat audio cache : Yes
Make use of C2 pointers : No

Read offset correction : 6
Overread into Lead-In and Lead-Out : No
Fill up missing offset samples with silence : Yes
Delete leading and trailing silent blocks : No
Null samples used in CRC calculations : Yes
Used interface : Native Win32 interface for Win NT & 2000
Gap handling : Appended to previous track

Used output format : User Defined Encoder
Selected bitrate : 128 kBit/s
Quality : High
Add ID3 tag : No
Command line compressor : C:\Program Files (x86)\Exact Audio Copy\FLAC\FLAC.EXE
Additional command line options : -8 -V -T "ARTIST=%artist%" -T "TITLE=%title%" -T "ALBUM=%albumtitle%" -T "DATE=%year%" -T "TRACKNUMBER=%tracknr%" -T "TOTALTRACKS=%numtracks%" -T "GENRE=%genre%" -T "ALBUMARTIST=%albumartist%" -T "ALBUM ARTIST=%albumartist%" -T "COMMENT=EAC Secure Mode, Test & Copy, AccurateRip, FLAC -8" %source%


TOC of the extracted CD

Track | Start | Length | Start sector | End sector
––––––––––––––––––––––––––––-
1 | 0:00.00 | 8:06.00 | 0 | 36449
2 | 8:06.00 | 4:22.17 | 36450 | 56116
3 | 12:28.17 | 12:59.05 | 56117 | 114546
4 | 25:27.22 | 6:09.15 | 114547 | 142236
5 | 31:36.37 | 8:06.66 | 142237 | 178752
6 | 39:43.28 | 9:49.74 | 178753 | 223001
7 | 49:33.27 | 11:52.62 | 223002 | 276463
8 | 61:26.14 | 9:17.62 | 276464 | 318300
9 | 70:44.01 | 10:08.38 | 318301 | 363938


Track 1

Filename E:\01 - Ramblin' Man.wav

Pre-gap length 0:00:02.00

Peak level 100.0 %
Extraction speed 4.0 X
Track quality 99.9 %
Test CRC 6034FCC7
Copy CRC 6034FCC7
Accurately ripped (confidence 3) [6857A72A] (AR v2)
Copy OK

Track 2

Filename E:\02 - Trouble No More.wav

Peak level 100.0 %
Extraction speed 4.7 X
Track quality 100.0 %
Test CRC 5C268C34
Copy CRC 5C268C34
Accurately ripped (confidence 3) [2311D425] (AR v2)
Copy OK

Track 3

Filename E:\03 - Jessica.wav

Peak level 100.0 %
Extraction speed 5.8 X
Track quality 100.0 %
Test CRC 8E1382FE
Copy CRC 8E1382FE
Accurately ripped (confidence 3) [243D57B4] (AR v2)
Copy OK

Track 4

Filename E:\04 - Les Brers In A Minor.wav

Peak level 100.0 %
Extraction speed 5.2 X
Track quality 99.9 %
Test CRC 770969EE
Copy CRC 770969EE
Accurately ripped (confidence 3) [EC970966] (AR v2)
Copy OK

Track 5

Filename E:\05 - Drum Solo.wav

Peak level 100.0 %
Extraction speed 6.7 X
Track quality 100.0 %
Test CRC CCA997DA
Copy CRC CCA997DA
Accurately ripped (confidence 3) [EBC8781A] (AR v2)
Copy OK

Track 6

Filename E:\06 - Les Brers In A Minor Pt 2.wav

Peak level 100.0 %
Extraction speed 6.6 X
Track quality 99.9 %
Test CRC 7F584796
Copy CRC 7F584796
Accurately ripped (confidence 3) [1110053C] (AR v2)
Copy OK

Track 7

Filename E:\07 - Whipping Post.wav

Peak level 100.0 %
Extraction speed 7.9 X
Track quality 100.0 %
Test CRC 628E56C4
Copy CRC 628E56C4
Accurately ripped (confidence 3) [A6F00350] (AR v2)
Copy OK

Track 8

Filename E:\08 - Linda Lou-Mary Lou.wav

Peak level 100.0 %
Extraction speed 8.3 X
Track quality 100.0 %
Test CRC 8CB19D96
Copy CRC 8CB19D96
Accurately ripped (confidence 3) [C8FCD093] (AR v2)
Copy OK

Track 9

Filename E:\09 - Hideaway-You Upset Me.wav

Peak level 100.0 %
Extraction speed 8.8 X
Track quality 100.0 %
Test CRC 020F24DB
Copy CRC 020F24DB
Accurately ripped (confidence 3) [AA8E32DB] (AR v2)
Copy OK


All tracks accurately ripped

No errors occurred

End of status report

==== Log checksum 63B2B8980621A1C80F4AE31B74A99E841165E1E4068040EF0C871B4FF8AE63AF ====


[CUETools log; Date: 11.09.2019 4:03:21; Version: 2.1.4]
[AccurateRip ID: 001a16f2-00c2b3a0-9f12f409] found.
Track [ CRC | V2 ] Status
01 [ba9aad4d|6857a72a] (00+13/13) Accurately ripped
02 [503e4423|2311d425] (00+13/13) Accurately ripped
03 [6b2c6c87|243d57b4] (00+13/13) Accurately ripped
04 [d7ad3280|ec970966] (00+13/13) Accurately ripped
05 [ec63e1b5|ebc8781a] (00+13/13) Accurately ripped
06 [13601b72|1110053c] (00+13/13) Accurately ripped
07 [71532e3e|a6f00350] (00+13/13) Accurately ripped
08 [123c68f5|c8fcd093] (00+13/13) Accurately ripped
09 [79c2de1d|aa8e32db] (00+12/12) Accurately ripped

Track Peak [ CRC32 ] [W/O NULL] [ LOG ]
– 100,0 [393563B8] [B05F91E7]
01 100,0 [6034FCC7] [1EAA9575] CRC32
02 100,0 [5C268C34] [9ED64959] CRC32
03 100,0 [8E1382FE] [FEA042B7] CRC32
04 100,0 [770969EE] [6303BF18] CRC32
05 100,0 [CCA997DA] [F701F3FA] CRC32
06 100,0 [7F584796] [90665A4E] CRC32
07 100,0 [628E56C4] [84D19AB9] CRC32
08 100,0 [8CB19D96] [EDCC5B75] CRC32
09 100,0 [020F24DB] [1AC5F697] CRC32


The Allman Brothers Band featuring Jerry Garcia - Live At The Cow Palace, New Years Eve 1973 (2015) [3Cd Box Set]

Tracklist CD3:

01. Bo Diddley-Mountain Jam (27:12)
02. Save My Life (18:55)
03. Blues Jam (11:22)
04. You Don't Love Me (9:49)
05. Will The Circle Be Unbroken (4:46)
06. Mountain Jam (8:01)

Exact Audio Copy V1.0 beta 3 from 29. August 2011

EAC extraction logfile from 20. February 2016, 19:39

The Allman Brothers Band / Live At The Cow Palace, New Years Eve 1973 (CD3)

Used drive : PLEXTOR DVDR PX-L890SA Adapter: 5 ID: 1

Read mode : Secure
Utilize accurate stream : Yes
Defeat audio cache : Yes
Make use of C2 pointers : No

Read offset correction : 6
Overread into Lead-In and Lead-Out : No
Fill up missing offset samples with silence : Yes
Delete leading and trailing silent blocks : No
Null samples used in CRC calculations : Yes
Used interface : Native Win32 interface for Win NT & 2000
Gap handling : Appended to previous track

Used output format : User Defined Encoder
Selected bitrate : 128 kBit/s
Quality : High
Add ID3 tag : No
Command line compressor : C:\Program Files (x86)\Exact Audio Copy\FLAC\FLAC.EXE
Additional command line options : -8 -V -T "ARTIST=%artist%" -T "TITLE=%title%" -T "ALBUM=%albumtitle%" -T "DATE=%year%" -T "TRACKNUMBER=%tracknr%" -T "TOTALTRACKS=%numtracks%" -T "GENRE=%genre%" -T "ALBUMARTIST=%albumartist%" -T "ALBUM ARTIST=%albumartist%" -T "COMMENT=EAC Secure Mode, Test & Copy, AccurateRip, FLAC -8" %source%


TOC of the extracted CD

Track | Start | Length | Start sector | End sector
––––––––––––––––––––––––––––-
1 | 0:00.00 | 27:11.74 | 0 | 122398
2 | 27:11.74 | 18:55.28 | 122399 | 207551
3 | 46:07.27 | 11:22.15 | 207552 | 258716
4 | 57:29.42 | 9:49.16 | 258717 | 302907
5 | 67:18.58 | 4:45.64 | 302908 | 324346
6 | 72:04.47 | 8:01.12 | 324347 | 360433


Track 1

Filename E:\01 - Bo Diddley-Mountain Jam.wav

Pre-gap length 0:00:02.00

Peak level 100.0 %
Extraction speed 5.4 X
Track quality 100.0 %
Test CRC CFFFA21A
Copy CRC CFFFA21A
Accurately ripped (confidence 3) [9AF82BE0] (AR v2)
Copy OK

Track 2

Filename E:\02 - Save My Life.wav

Peak level 100.0 %
Extraction speed 7.0 X
Track quality 100.0 %
Test CRC B12D8957
Copy CRC B12D8957
Accurately ripped (confidence 3) [42D83FAD] (AR v2)
Copy OK

Track 3

Filename E:\03 - Blues Jam.wav

Peak level 100.0 %
Extraction speed 7.8 X
Track quality 100.0 %
Test CRC AB6A7DEF
Copy CRC AB6A7DEF
Accurately ripped (confidence 3) [05D05A90] (AR v2)
Copy OK

Track 4

Filename E:\04 - You Don't Love Me.wav

Peak level 100.0 %
Extraction speed 8.2 X
Track quality 100.0 %
Test CRC 4F643D64
Copy CRC 4F643D64
Accurately ripped (confidence 3) [DEE7A67B] (AR v2)
Copy OK

Track 5

Filename E:\05 - Will The Circle Be Unbroken.wav

Peak level 100.0 %
Extraction speed 6.7 X
Track quality 99.9 %
Test CRC 1102AB2D
Copy CRC 1102AB2D
Accurately ripped (confidence 3) [754FB760] (AR v2)
Copy OK

Track 6

Filename E:\06 - Mountain Jam.wav

Peak level 100.0 %
Extraction speed 8.7 X
Track quality 100.0 %
Test CRC B8210290
Copy CRC B8210290
Accurately ripped (confidence 3) [C6D75BEB] (AR v2)
Copy OK


All tracks accurately ripped

No errors occurred

End of status report

==== Log checksum 4C2A7A3943556391E8FBD6A5153E5E3AFF53E044B94B35806299DA457FB4F1A4 ====


[CUETools log; Date: 11.09.2019 4:46:57; Version: 2.1.4]
[AccurateRip ID: 00180da5-0078549f-4b12c506] found.
Track [ CRC | V2 ] Status
01 [84e4180e|9af82be0] (00+13/13) Accurately ripped
02 [10d90600|42d83fad] (00+13/13) Accurately ripped
03 [1662df68|05d05a90] (00+13/13) Accurately ripped
04 [002c02fc|dee7a67b] (00+13/13) Accurately ripped
05 [1127e6fc|754fb760] (00+13/13) Accurately ripped
06 [029e5096|c6d75beb] (00+13/13) Accurately ripped

Track Peak [ CRC32 ] [W/O NULL] [ LOG ]
– 100,0 [8075F8BE] [2A429512]
01 100,0 [CFFFA21A] [2E38A94D] CRC32
02 100,0 [B12D8957] [43FE26DE] CRC32
03 100,0 [AB6A7DEF] [B601A5EF] CRC32
04 100,0 [4F643D64] [7618646F] CRC32
05 100,0 [1102AB2D] [97B1B26B] CRC32
06 100,0 [B8210290] [E0DD8CAC] CRC32


The Allman Brothers Band featuring Jerry Garcia - Live At The Cow Palace, New Years Eve 1973 (2015) [3Cd Box Set]

All thanks go to jlgt

The Allman Brothers in my Blog

Download The Allman Brothers Band featuring Jerry Garcia - Live At The Cow Palace, New Years Eve 1973 (2015):