Tags
Language
Tags
June 2024
Su Mo Tu We Th Fr Sa
26 27 28 29 30 31 1
2 3 4 5 6 7 8
9 10 11 12 13 14 15
16 17 18 19 20 21 22
23 24 25 26 27 28 29
30 1 2 3 4 5 6

VA - The Best American Legends Album In The World...Ever! (2020)

Posted By: Rtax
VA - The Best American Legends Album In The World...Ever! (2020)

VA - The Best American Legends Album In The World…Ever! (2020)
EAC Rip | FLAC (tracks, cue, log) - 1.5 GB | MP3 CBR 320 kbps - 520 MB
3:43:33 | Rock, Pop, AOR | Label: Now Music

Featuring an amazing mixture of music from the past six decades, 'The Best American Legends Album In The World… Ever!' delivers 60 classic tracks from 60 American superstar acts that have been part of shaping the global pop charts over the past 60 years.

Tracklist
Disc: 1
1 American Pie - Don McLean
2 America - Simon & Garfunkel
3 California Dreamin' - The Mamas & The Papas
4 Surfin' U.S.A - The Beach Boys
5 Mr. Tambourine Man - The Byrds
6 Everybody's Talkin' - Nilsson
7 Wichita Lineman - Glen Campbell
8 Take Me Home, Country Roads - John Denver
9 The Devil Went Down to Georgia - The Charlie Daniels Band
10 Bat Out of Hell - Meat Loaf
11 Walk This Way - Run D.M.C., Aerosmith
12 Eye of the Tiger - Survivor
13 More Than a Feeling - Boston
14 Sweet Home Alabama - Lynyrd Skynyrd
15 Nutbush City Limits - Ike & Tina Turner
16 Living in America - James Brown
17 I Drove All Night - Roy Orbison
18 I Want You - Bob Dylan
19 In the Ghetto - Elvis Presley
20 Hallellujah - Jeff Buckley

Disc: 2
1 Africa - Toto
2 Keep On Loving You - REO Speedwagon
3 If I Could Turn Back Time - Cher
4 Union City Blue - Blondie
5 Love Is a Battlefield - Pat Benatar
6 Bette Davis Eyes - Kim Carnes
7 Maneater - Hall & Oates
8 Footloose - Kenny Loggins
9 The Power of Love - Huey Lewis & The News
10 (I've Had) the Time of My Life - Bill Medley, Jennifer Warnes
11 Islands in the Stream - Dolly Parton, Kenny Rogers
12 Graceland - Paul Simon
13 We Got the Beat - The Go-Go's
14 I Love Rock 'N' Roll - Britney Spears
15 Stronger (What Doesn't Kill You) - Kelly Clarkson
16 Try - P!nk
17 Party in the U.S.A. - Miley Cyrus
18 All I Wanna Do - Sheryl Crow
19 All I Wanna Do Is Make Love to You - Heart
20 Hazard - Richard Marx

Disc: 3
1 Video Games - Lana Del Rey
2 The Edge of Glory - Lady Gaga
3 Moves Like Jagger (Feat. Christina Aguilera) - Maroon 5, Christina Aguilera
4 Stop! In the Name of Love - Diana Ross & The Supremes
5 Dancing in the Street - Martha Reeves & The Vandellas
6 Reach Out I'll Be There - Four Tops
7 Get Ready - The Temptations
8 For Once in My Life - Stevie Wonder
9 What's Going On - Marvin Gaye
10 Easy - Commodores
11 Empire State of Mind - Alicia Keys
12 Bootylicious - Destiny's Child
13 Can You Feel It - The Jacksons
14 Rock Your Body - Justin Timberlake
15 September - Earth, Wind & Fire
16 Bad Girls - Donna Summer
17 I Will Survive - Gloria Gaynor
18 You're the First, the Last, My Everything - Barry White
19 Never Too Much - Luther Vandross
20 One Moment in Time - Whitney Houston
Exact Audio Copy V1.0 beta 3 from 29. August 2011

EAC extraction logfile from 18. April 2022, 6:32

Various Artists / The Best American Legends Album in the World… Ever

Used drive : SONY CD-RW CRX230EE Adapter: 2 ID: 0

Read mode : Secure
Utilize accurate stream : Yes
Defeat audio cache : Yes
Make use of C2 pointers : No

Read offset correction : 6
Overread into Lead-In and Lead-Out : No
Fill up missing offset samples with silence : Yes
Delete leading and trailing silent blocks : No
Null samples used in CRC calculations : Yes
Used interface : Native Win32 interface for Win NT & 2000
Gap handling : Appended to previous track

Used output format : User Defined Encoder
Selected bitrate : 768 kBit/s
Quality : High
Add ID3 tag : No
Command line compressor : C:\Program Files\Exact Audio Copy\FLAC\FLAC.EXE
Additional command line options : -6 -V -T "ARTIST=%artist%" -T "TITLE=%title%" -T "ALBUM=%albumtitle%" -T "DATE=%year%" -T "TRACKNUMBER=%tracknr%" -T "GENRE=%genre%" -T "COMMENT=%comment%" -T "BAND=%albuminterpret%" -T "ALBUMARTIST=%albuminterpret%" -T "COMPOSER=%composer%" %haslyrics%–tag-from-file=LYRICS="%lyricsfile%"%haslyrics% -T "DISCNUMBER=%cdnumber%" -T "TOTALDISCS=%totalcds%" -T "TOTALTRACKS=%numtracks%" %hascover%–picture="%coverfile%"%hascover% %source% -o %dest%


TOC of the extracted CD

Track | Start | Length | Start sector | End sector
––––––––––––––––––––––––––––-
1 | 0:00.00 | 4:06.35 | 0 | 18484
2 | 4:06.35 | 3:36.20 | 18485 | 34704
3 | 7:42.55 | 2:39.29 | 34705 | 46658
4 | 10:22.09 | 2:30.64 | 46659 | 57972
5 | 12:52.73 | 2:20.32 | 57973 | 68504
6 | 15:13.30 | 2:50.37 | 68505 | 81291
7 | 18:03.67 | 3:03.05 | 81292 | 95021
8 | 21:06.72 | 3:12.60 | 95022 | 109481
9 | 24:19.57 | 3:34.47 | 109482 | 125578
10 | 27:54.29 | 4:46.34 | 125579 | 147062
11 | 32:40.63 | 3:38.10 | 147063 | 163422
12 | 36:18.73 | 4:04.42 | 163423 | 181764
13 | 40:23.40 | 3:25.21 | 181765 | 197160
14 | 43:48.61 | 4:45.19 | 197161 | 218554
15 | 48:34.05 | 2:57.01 | 218555 | 231830
16 | 51:31.06 | 4:42.06 | 231831 | 252986
17 | 56:13.12 | 3:45.72 | 252987 | 269933
18 | 59:59.09 | 3:06.56 | 269934 | 283939
19 | 63:05.65 | 2:57.43 | 283940 | 297257
20 | 66:03.33 | 4:16.25 | 297258 | 316482


Track 1

Filename H:\- = EAC = -\Various Artists - The Best American Legends Album in the World Ever\d1\01 American Pie.wav

Pre-gap length 0:00:02.00

Peak level 91.3 %
Extraction speed 1.7 X
Track quality 100.0 %
Test CRC 70D51984
Copy CRC 70D51984
Track not present in AccurateRip database
Copy OK

Track 2

Filename H:\- = EAC = -\Various Artists - The Best American Legends Album in the World Ever\d1\02 America.wav

Peak level 95.9 %
Extraction speed 1.9 X
Track quality 100.0 %
Test CRC E6559CA4
Copy CRC E6559CA4
Track not present in AccurateRip database
Copy OK

Track 3

Filename H:\- = EAC = -\Various Artists - The Best American Legends Album in the World Ever\d1\03 California Dreamin'.wav

Peak level 89.1 %
Extraction speed 2.0 X
Track quality 100.0 %
Test CRC 02946C4D
Copy CRC 02946C4D
Track not present in AccurateRip database
Copy OK

Track 4

Filename H:\- = EAC = -\Various Artists - The Best American Legends Album in the World Ever\d1\04 Surfin' U.S.A..wav

Peak level 95.9 %
Extraction speed 2.0 X
Track quality 100.0 %
Test CRC 5373C71B
Copy CRC 5373C71B
Track not present in AccurateRip database
Copy OK

Track 5

Filename H:\- = EAC = -\Various Artists - The Best American Legends Album in the World Ever\d1\05 Mr. Tambourine Man.wav

Peak level 100.0 %
Extraction speed 1.7 X
Track quality 99.9 %
Test CRC 1305F6C3
Copy CRC 1305F6C3
Track not present in AccurateRip database
Copy OK

Track 6

Filename H:\- = EAC = -\Various Artists - The Best American Legends Album in the World Ever\d1\06 Everybody's Talkin'.wav

Peak level 95.9 %
Extraction speed 2.3 X
Track quality 100.0 %
Test CRC 443F13CB
Copy CRC 443F13CB
Track not present in AccurateRip database
Copy OK

Track 7

Filename H:\- = EAC = -\Various Artists - The Best American Legends Album in the World Ever\d1\07 Wichita Lineman.wav

Peak level 95.9 %
Extraction speed 2.4 X
Track quality 100.0 %
Test CRC A43E8BA2
Copy CRC A43E8BA2
Track not present in AccurateRip database
Copy OK

Track 8

Filename H:\- = EAC = -\Various Artists - The Best American Legends Album in the World Ever\d1\08 Take Me Home, Country Roads.wav

Peak level 95.9 %
Extraction speed 2.5 X
Track quality 100.0 %
Test CRC 73623A99
Copy CRC 73623A99
Track not present in AccurateRip database
Copy OK

Track 9

Filename H:\- = EAC = -\Various Artists - The Best American Legends Album in the World Ever\d1\09 The Devil Went Down to Georgia.wav

Peak level 100.0 %
Extraction speed 2.6 X
Track quality 100.0 %
Test CRC 7D673037
Copy CRC 7D673037
Track not present in AccurateRip database
Copy OK

Track 10

Filename H:\- = EAC = -\Various Artists - The Best American Legends Album in the World Ever\d1\10 Bat Out of Hell.wav

Peak level 100.0 %
Extraction speed 2.9 X
Track quality 100.0 %
Test CRC 06F0C90B
Copy CRC 06F0C90B
Track not present in AccurateRip database
Copy OK

Track 11

Filename H:\- = EAC = -\Various Artists - The Best American Legends Album in the World Ever\d1\11 Walk This Way.wav

Peak level 88.9 %
Extraction speed 2.5 X
Track quality 99.9 %
Test CRC A0F55127
Copy CRC A0F55127
Track not present in AccurateRip database
Copy OK

Track 12

Filename H:\- = EAC = -\Various Artists - The Best American Legends Album in the World Ever\d1\12 Eye of the Tiger.wav

Peak level 95.9 %
Extraction speed 3.0 X
Track quality 100.0 %
Test CRC 0AF89474
Copy CRC 0AF89474
Track not present in AccurateRip database
Copy OK

Track 13

Filename H:\- = EAC = -\Various Artists - The Best American Legends Album in the World Ever\d1\13 More Than a Feeling.wav

Peak level 93.7 %
Extraction speed 3.1 X
Track quality 100.0 %
Test CRC 1E9182DA
Copy CRC 1E9182DA
Track not present in AccurateRip database
Copy OK

Track 14

Filename H:\- = EAC = -\Various Artists - The Best American Legends Album in the World Ever\d1\14 Sweet Home Alabama.wav

Peak level 99.6 %
Extraction speed 3.3 X
Track quality 100.0 %
Test CRC A302A030
Copy CRC A302A030
Track not present in AccurateRip database
Copy OK

Track 15

Filename H:\- = EAC = -\Various Artists - The Best American Legends Album in the World Ever\d1\15 Nutbush City Limits.wav

Peak level 79.9 %
Extraction speed 3.2 X
Track quality 100.0 %
Test CRC CB140109
Copy CRC CB140109
Track not present in AccurateRip database
Copy OK

Track 16

Filename H:\- = EAC = -\Various Artists - The Best American Legends Album in the World Ever\d1\16 Living in America.wav

Peak level 95.9 %
Extraction speed 3.5 X
Track quality 100.0 %
Test CRC D608835F
Copy CRC D608835F
Track not present in AccurateRip database
Copy OK

Track 17

Filename H:\- = EAC = -\Various Artists - The Best American Legends Album in the World Ever\d1\17 I Drove All Night.wav

Peak level 100.0 %
Extraction speed 3.5 X
Track quality 100.0 %
Test CRC 32354CF1
Copy CRC 32354CF1
Track not present in AccurateRip database
Copy OK

Track 18

Filename H:\- = EAC = -\Various Artists - The Best American Legends Album in the World Ever\d1\18 I Want You.wav

Peak level 95.9 %
Extraction speed 3.5 X
Track quality 100.0 %
Test CRC C12DD1EB
Copy CRC C12DD1EB
Track not present in AccurateRip database
Copy OK

Track 19

Filename H:\- = EAC = -\Various Artists - The Best American Legends Album in the World Ever\d1\19 In The Ghetto.wav

Peak level 81.5 %
Extraction speed 3.5 X
Track quality 100.0 %
Test CRC 6BDB5A3F
Copy CRC 6BDB5A3F
Track not present in AccurateRip database
Copy OK

Track 20

Filename H:\- = EAC = -\Various Artists - The Best American Legends Album in the World Ever\d1\20 Hallelujah.wav

Peak level 99.9 %
Extraction speed 3.4 X
Track quality 99.9 %
Test CRC 2F6A8F89
Copy CRC 2F6A8F89
Track not present in AccurateRip database
Copy OK


None of the tracks are present in the AccurateRip database

No errors occurred

End of status report

==== Log checksum E0489A9D7C526908F9B4214C5D4A390D7DB40B420E593780D438C79E6D5DDEEB ====


Exact Audio Copy V1.0 beta 3 from 29. August 2011

EAC extraction logfile from 15. April 2022, 17:50

Various Artists / The Best American LEgends Album in the World… Ever

Used drive : SONY CD-RW CRX230EE Adapter: 2 ID: 0

Read mode : Secure
Utilize accurate stream : Yes
Defeat audio cache : Yes
Make use of C2 pointers : No

Read offset correction : 6
Overread into Lead-In and Lead-Out : No
Fill up missing offset samples with silence : Yes
Delete leading and trailing silent blocks : No
Null samples used in CRC calculations : Yes
Used interface : Native Win32 interface for Win NT & 2000
Gap handling : Appended to previous track

Used output format : User Defined Encoder
Selected bitrate : 768 kBit/s
Quality : High
Add ID3 tag : No
Command line compressor : C:\Program Files\Exact Audio Copy\FLAC\FLAC.EXE
Additional command line options : -6 -V -T "ARTIST=%artist%" -T "TITLE=%title%" -T "ALBUM=%albumtitle%" -T "DATE=%year%" -T "TRACKNUMBER=%tracknr%" -T "GENRE=%genre%" -T "COMMENT=%comment%" -T "BAND=%albuminterpret%" -T "ALBUMARTIST=%albuminterpret%" -T "COMPOSER=%composer%" %haslyrics%–tag-from-file=LYRICS="%lyricsfile%"%haslyrics% -T "DISCNUMBER=%cdnumber%" -T "TOTALDISCS=%totalcds%" -T "TOTALTRACKS=%numtracks%" %hascover%–picture="%coverfile%"%hascover% %source% -o %dest%


TOC of the extracted CD

Track | Start | Length | Start sector | End sector
––––––––––––––––––––––––––––-
1 | 0:00.00 | 4:20.44 | 0 | 19543
2 | 4:20.44 | 3:20.33 | 19544 | 34576
3 | 7:41.02 | 3:55.65 | 34577 | 52266
4 | 11:36.67 | 3:22.63 | 52267 | 67479
5 | 14:59.55 | 4:09.35 | 67480 | 86189
6 | 19:09.15 | 3:40.21 | 86190 | 102710
7 | 22:49.36 | 4:26.07 | 102711 | 122667
8 | 27:15.43 | 3:44.69 | 122668 | 139536
9 | 31:00.37 | 3:51.70 | 139537 | 156931
10 | 34:52.32 | 4:44.51 | 156932 | 178282
11 | 39:37.08 | 4:09.47 | 178283 | 197004
12 | 43:46.55 | 4:50.09 | 197005 | 218763
13 | 48:36.64 | 2:31.31 | 218764 | 230119
14 | 51:08.20 | 3:05.50 | 230120 | 244044
15 | 54:13.70 | 3:39.53 | 244045 | 260522
16 | 57:53.48 | 4:03.14 | 260523 | 278761
17 | 61:56.62 | 3:21.47 | 278762 | 293883
18 | 65:18.34 | 4:30.17 | 293884 | 314150
19 | 69:48.51 | 5:03.54 | 314151 | 336929
20 | 74:52.30 | 4:41.70 | 336930 | 358074


Track 1

Filename H:\- = EAC = -\Various Artists - The Best American Legends Album in the World Ever\d2\01 Africa.wav

Pre-gap length 0:00:02.00

Peak level 100.0 %
Extraction speed 2.4 X
Track quality 99.9 %
Test CRC B49CE0E7
Copy CRC B49CE0E7
Track not present in AccurateRip database
Copy OK

Track 2

Filename H:\- = EAC = -\Various Artists - The Best American Legends Album in the World Ever\d2\02 Keep On Loving You.wav

Peak level 100.0 %
Extraction speed 3.2 X
Track quality 100.0 %
Test CRC F03DF185
Copy CRC F03DF185
Track not present in AccurateRip database
Copy OK

Track 3

Filename H:\- = EAC = -\Various Artists - The Best American Legends Album in the World Ever\d2\03 If I Could Turn Back Time.wav

Peak level 98.8 %
Extraction speed 3.5 X
Track quality 100.0 %
Test CRC 965D8DF7
Copy CRC 965D8DF7
Track not present in AccurateRip database
Copy OK

Track 4

Filename H:\- = EAC = -\Various Artists - The Best American Legends Album in the World Ever\d2\04 Union City Blue.wav

Peak level 98.8 %
Extraction speed 2.8 X
Track quality 99.9 %
Test CRC 84A9EBD8
Copy CRC 84A9EBD8
Track not present in AccurateRip database
Copy OK

Track 5

Filename H:\- = EAC = -\Various Artists - The Best American Legends Album in the World Ever\d2\05 Love is a Battlefield.wav

Peak level 84.7 %
Extraction speed 4.0 X
Track quality 100.0 %
Test CRC 8789E0D7
Copy CRC 8789E0D7
Track not present in AccurateRip database
Copy OK

Track 6

Filename H:\- = EAC = -\Various Artists - The Best American Legends Album in the World Ever\d2\06 Bette Davis Eyes.wav

Peak level 100.0 %
Extraction speed 4.1 X
Track quality 100.0 %
Test CRC 34FE0C74
Copy CRC 34FE0C74
Track not present in AccurateRip database
Copy OK

Track 7

Filename H:\- = EAC = -\Various Artists - The Best American Legends Album in the World Ever\d2\07 Maneater.wav

Peak level 95.9 %
Extraction speed 4.4 X
Track quality 100.0 %
Test CRC 5CD2CB91
Copy CRC 5CD2CB91
Track not present in AccurateRip database
Copy OK

Track 8

Filename H:\- = EAC = -\Various Artists - The Best American Legends Album in the World Ever\d2\08 Footloose.wav

Peak level 95.9 %
Extraction speed 4.5 X
Track quality 100.0 %
Test CRC 8B95E337
Copy CRC 8B95E337
Track not present in AccurateRip database
Copy OK

Track 9

Filename H:\- = EAC = -\Various Artists - The Best American Legends Album in the World Ever\d2\09 The Power of Love.wav

Peak level 95.9 %
Extraction speed 4.7 X
Track quality 100.0 %
Test CRC CC5ECFD3
Copy CRC CC5ECFD3
Track not present in AccurateRip database
Copy OK

Track 10

Filename H:\- = EAC = -\Various Artists - The Best American Legends Album in the World Ever\d2\10 (I've Had) The Time of My Life.wav

Peak level 95.9 %
Extraction speed 5.0 X
Track quality 100.0 %
Test CRC 918C05E2
Copy CRC 918C05E2
Track not present in AccurateRip database
Copy OK

Track 11

Filename H:\- = EAC = -\Various Artists - The Best American Legends Album in the World Ever\d2\11 Islands in the Stream.wav

Peak level 96.8 %
Extraction speed 4.1 X
Track quality 99.9 %
Test CRC 4A8B2416
Copy CRC 4A8B2416
Track not present in AccurateRip database
Copy OK

Track 12

Filename H:\- = EAC = -\Various Artists - The Best American Legends Album in the World Ever\d2\12 Graceland.wav

Peak level 95.9 %
Extraction speed 5.4 X
Track quality 100.0 %
Test CRC 3C176B75
Copy CRC 3C176B75
Track not present in AccurateRip database
Copy OK

Track 13

Filename H:\- = EAC = -\Various Artists - The Best American Legends Album in the World Ever\d2\13 We Got the Beat.wav

Peak level 88.7 %
Extraction speed 3.6 X
Track quality 99.9 %
Test CRC 69E8DBBA
Copy CRC 69E8DBBA
Track not present in AccurateRip database
Copy OK

Track 14

Filename H:\- = EAC = -\Various Artists - The Best American Legends Album in the World Ever\d2\14 I Love Rock'n'Roll.wav

Peak level 79.1 %
Extraction speed 5.4 X
Track quality 100.0 %
Test CRC 90016710
Copy CRC 90016710
Track not present in AccurateRip database
Copy OK

Track 15

Filename H:\- = EAC = -\Various Artists - The Best American Legends Album in the World Ever\d2\15 Stronger (What Doesn't Kill You).wav

Peak level 100.0 %
Extraction speed 5.6 X
Track quality 100.0 %
Test CRC 0F9A7EDC
Copy CRC 0F9A7EDC
Track not present in AccurateRip database
Copy OK

Track 16

Filename H:\- = EAC = -\Various Artists - The Best American Legends Album in the World Ever\d2\16 Try.wav

Peak level 95.9 %
Extraction speed 5.8 X
Track quality 100.0 %
Test CRC EA6BC47F
Copy CRC EA6BC47F
Track not present in AccurateRip database
Copy OK

Track 17

Filename H:\- = EAC = -\Various Artists - The Best American Legends Album in the World Ever\d2\17 Party In the U.S.A..wav

Peak level 95.9 %
Extraction speed 5.8 X
Track quality 100.0 %
Test CRC FFA11BA6
Copy CRC FFA11BA6
Track not present in AccurateRip database
Copy OK

Track 18

Filename H:\- = EAC = -\Various Artists - The Best American Legends Album in the World Ever\d2\18 All I Wanna Do.wav

Peak level 95.9 %
Extraction speed 4.9 X
Track quality 99.9 %
Test CRC AD333F66
Copy CRC AD333F66
Track not present in AccurateRip database
Copy OK

Track 19

Filename H:\- = EAC = -\Various Artists - The Best American Legends Album in the World Ever\d2\19 All I Wanna Do is Make Love to You.wav

Peak level 95.9 %
Extraction speed 6.4 X
Track quality 100.0 %
Test CRC 1350EA78
Copy CRC 1350EA78
Track not present in AccurateRip database
Copy OK

Track 20

Filename H:\- = EAC = -\Various Artists - The Best American Legends Album in the World Ever\d2\20 Hazard.wav

Peak level 95.9 %
Extraction speed 4.3 X
Track quality 100.0 %
Test CRC 9CD84224
Copy CRC 9CD84224
Track not present in AccurateRip database
Copy OK


None of the tracks are present in the AccurateRip database

No errors occurred

End of status report

==== Log checksum 448BF51C22FE6B059F6857CD629201FDB23EC1671CE9833C045975A85F366E0F ====


Exact Audio Copy V1.0 beta 3 from 29. August 2011

EAC extraction logfile from 15. April 2022, 20:46

Various Artists / The Best American Legends Album in the World… Ever

Used drive : SONY CD-RW CRX230EE Adapter: 2 ID: 0

Read mode : Secure
Utilize accurate stream : Yes
Defeat audio cache : Yes
Make use of C2 pointers : No

Read offset correction : 6
Overread into Lead-In and Lead-Out : No
Fill up missing offset samples with silence : Yes
Delete leading and trailing silent blocks : No
Null samples used in CRC calculations : Yes
Used interface : Native Win32 interface for Win NT & 2000
Gap handling : Appended to previous track

Used output format : User Defined Encoder
Selected bitrate : 768 kBit/s
Quality : High
Add ID3 tag : No
Command line compressor : C:\Program Files\Exact Audio Copy\FLAC\FLAC.EXE
Additional command line options : -6 -V -T "ARTIST=%artist%" -T "TITLE=%title%" -T "ALBUM=%albumtitle%" -T "DATE=%year%" -T "TRACKNUMBER=%tracknr%" -T "GENRE=%genre%" -T "COMMENT=%comment%" -T "BAND=%albuminterpret%" -T "ALBUMARTIST=%albuminterpret%" -T "COMPOSER=%composer%" %haslyrics%–tag-from-file=LYRICS="%lyricsfile%"%haslyrics% -T "DISCNUMBER=%cdnumber%" -T "TOTALDISCS=%totalcds%" -T "TOTALTRACKS=%numtracks%" %hascover%–picture="%coverfile%"%hascover% %source% -o %dest%


TOC of the extracted CD

Track | Start | Length | Start sector | End sector
––––––––––––––––––––––––––––-
1 | 0:00.00 | 4:42.25 | 0 | 21174
2 | 4:42.25 | 4:22.09 | 21175 | 40833
3 | 9:04.34 | 3:21.09 | 40834 | 55917
4 | 12:25.43 | 2:51.49 | 55918 | 68791
5 | 15:17.17 | 2:38.12 | 68792 | 80653
6 | 17:55.29 | 2:59.60 | 80654 | 94138
7 | 20:55.14 | 2:36.14 | 94139 | 105852
8 | 23:31.28 | 2:47.07 | 105853 | 118384
9 | 26:18.35 | 3:54.13 | 118385 | 135947
10 | 30:12.48 | 4:16.70 | 135948 | 155217
11 | 34:29.43 | 3:36.72 | 155218 | 171489
12 | 38:06.40 | 3:27.53 | 171490 | 187067
13 | 41:34.18 | 3:50.23 | 187068 | 204340
14 | 45:24.41 | 4:27.32 | 204341 | 224397
15 | 49:51.73 | 3:33.73 | 224398 | 240445
16 | 53:25.71 | 3:54.59 | 240446 | 258054
17 | 57:20.55 | 3:10.14 | 258055 | 272318
18 | 60:30.69 | 4:33.42 | 272319 | 292835
19 | 65:04.36 | 3:49.11 | 292836 | 310021
20 | 68:53.47 | 4:45.16 | 310022 | 331412


Track 1

Filename H:\- = EAC = -\Various Artists - The Best American Legends Album in the World Ever\d3\01 Video Games.wav

Pre-gap length 0:00:02.00

Peak level 95.9 %
Extraction speed 1.9 X
Track quality 100.0 %
Test CRC 6037E1D4
Copy CRC 6037E1D4
Track not present in AccurateRip database
Copy OK

Track 2

Filename H:\- = EAC = -\Various Artists - The Best American Legends Album in the World Ever\d3\02 The Edge of Glory.wav

Peak level 100.0 %
Extraction speed 2.1 X
Track quality 100.0 %
Test CRC F6691271
Copy CRC F6691271
Track not present in AccurateRip database
Copy OK

Track 3

Filename H:\- = EAC = -\Various Artists - The Best American Legends Album in the World Ever\d3\03 Moves Like Jagger.wav

Peak level 96.3 %
Extraction speed 2.2 X
Track quality 100.0 %
Test CRC B840D424
Copy CRC B840D424
Track not present in AccurateRip database
Copy OK

Track 4

Filename H:\- = EAC = -\Various Artists - The Best American Legends Album in the World Ever\d3\04 Stop_In the Name of Love.wav

Peak level 89.1 %
Extraction speed 1.9 X
Track quality 99.9 %
Test CRC 12D93059
Copy CRC 12D93059
Track not present in AccurateRip database
Copy OK

Track 5

Filename H:\- = EAC = -\Various Artists - The Best American Legends Album in the World Ever\d3\05 Dancing in the Street.wav

Peak level 96.8 %
Extraction speed 2.3 X
Track quality 100.0 %
Test CRC FA5D6DE5
Copy CRC FA5D6DE5
Track not present in AccurateRip database
Copy OK

Track 6

Filename H:\- = EAC = -\Various Artists - The Best American Legends Album in the World Ever\d3\06 Reach Out I'll Be There.wav

Peak level 100.0 %
Extraction speed 2.4 X
Track quality 100.0 %
Test CRC 8B028B58
Copy CRC 8B028B58
Track not present in AccurateRip database
Copy OK

Track 7

Filename H:\- = EAC = -\Various Artists - The Best American Legends Album in the World Ever\d3\07 Get Ready.wav

Peak level 95.9 %
Extraction speed 2.5 X
Track quality 100.0 %
Test CRC 65C6248C
Copy CRC 65C6248C
Track not present in AccurateRip database
Copy OK

Track 8

Filename H:\- = EAC = -\Various Artists - The Best American Legends Album in the World Ever\d3\08 For Once in My Life.wav

Peak level 95.9 %
Extraction speed 2.6 X
Track quality 100.0 %
Test CRC CDA33319
Copy CRC CDA33319
Track not present in AccurateRip database
Copy OK

Track 9

Filename H:\- = EAC = -\Various Artists - The Best American Legends Album in the World Ever\d3\09 What's Going On.wav

Peak level 95.9 %
Extraction speed 2.8 X
Track quality 100.0 %
Test CRC 748E1C17
Copy CRC 748E1C17
Track not present in AccurateRip database
Copy OK

Track 10

Filename H:\- = EAC = -\Various Artists - The Best American Legends Album in the World Ever\d3\10 Easy.wav

Peak level 100.0 %
Extraction speed 2.7 X
Track quality 99.9 %
Test CRC 130D25DF
Copy CRC 130D25DF
Track not present in AccurateRip database
Copy OK

Track 11

Filename H:\- = EAC = -\Various Artists - The Best American Legends Album in the World Ever\d3\11 Empire State of Mind.wav

Peak level 100.0 %
Extraction speed 3.0 X
Track quality 100.0 %
Test CRC 46009DB2
Copy CRC 46009DB2
Track not present in AccurateRip database
Copy OK

Track 12

Filename H:\- = EAC = -\Various Artists - The Best American Legends Album in the World Ever\d3\12 Bootylicious.wav

Peak level 97.2 %
Extraction speed 3.1 X
Track quality 100.0 %
Test CRC BD6C1378
Copy CRC BD6C1378
Track not present in AccurateRip database
Copy OK

Track 13

Filename H:\- = EAC = -\Various Artists - The Best American Legends Album in the World Ever\d3\13 Can You Feel It.wav

Peak level 100.0 %
Extraction speed 3.3 X
Track quality 100.0 %
Test CRC F9BE27B1
Copy CRC F9BE27B1
Track not present in AccurateRip database
Copy OK

Track 14

Filename H:\- = EAC = -\Various Artists - The Best American Legends Album in the World Ever\d3\14 Rock Your Body.wav

Peak level 100.0 %
Extraction speed 3.4 X
Track quality 100.0 %
Test CRC 11D00A64
Copy CRC 11D00A64
Track not present in AccurateRip database
Copy OK

Track 15

Filename H:\- = EAC = -\Various Artists - The Best American Legends Album in the World Ever\d3\15 September.wav

Peak level 95.9 %
Extraction speed 3.4 X
Track quality 100.0 %
Test CRC 355AC1AB
Copy CRC 355AC1AB
Track not present in AccurateRip database
Copy OK

Track 16

Filename H:\- = EAC = -\Various Artists - The Best American Legends Album in the World Ever\d3\16 Bad Girls.wav

Peak level 95.9 %
Extraction speed 3.6 X
Track quality 100.0 %
Test CRC 01242F7D
Copy CRC 01242F7D
Track not present in AccurateRip database
Copy OK

Track 17

Filename H:\- = EAC = -\Various Artists - The Best American Legends Album in the World Ever\d3\17 I Will Survive.wav

Peak level 99.8 %
Extraction speed 3.5 X
Track quality 100.0 %
Test CRC 455D2EC4
Copy CRC 455D2EC4
Track not present in AccurateRip database
Copy OK

Track 18

Filename H:\- = EAC = -\Various Artists - The Best American Legends Album in the World Ever\d3\18 You're the First, the Last, My Everything.wav

Peak level 95.9 %
Extraction speed 3.4 X
Track quality 99.9 %
Test CRC 32BABAD6
Copy CRC 32BABAD6
Track not present in AccurateRip database
Copy OK

Track 19

Filename H:\- = EAC = -\Various Artists - The Best American Legends Album in the World Ever\d3\19 Never Too Much.wav

Peak level 100.0 %
Extraction speed 3.8 X
Track quality 100.0 %
Test CRC 89E6A89B
Copy CRC 89E6A89B
Track not present in AccurateRip database
Copy OK

Track 20

Filename H:\- = EAC = -\Various Artists - The Best American Legends Album in the World Ever\d3\20 One Moment in Time.wav

Peak level 100.0 %
Extraction speed 2.7 X
Track quality 99.8 %
Test CRC 11907FD3
Copy CRC 11907FD3
Track not present in AccurateRip database
Copy OK


None of the tracks are present in the AccurateRip database

No errors occurred

End of status report

==== Log checksum AFFBA6003F2FDF0BB7CCAF71694BC0A1DACA93D4C982D162C4D7E6D6036E5243 ====