Tags
Language
Tags
June 2024
Su Mo Tu We Th Fr Sa
26 27 28 29 30 31 1
2 3 4 5 6 7 8
9 10 11 12 13 14 15
16 17 18 19 20 21 22
23 24 25 26 27 28 29
30 1 2 3 4 5 6

The Moody Blues - Live At The Royal Albert Hall With The World Fesrival Orchestra (2000) {2010, Reissue}

Posted By: popsakov
The Moody Blues - Live At The Royal Albert Hall With The World Fesrival Orchestra (2000) {2010, Reissue}

The Moody Blues - Live At The Royal Albert Hall With The World Fesrival Orchestra (2000) {2010, Reissue}
EAC Rip | FLAC (Img) + Cue + Log ~ 551 Mb | MP3 CBR320 ~ 221 Mb
Full Scans | 01:04:23 | RAR 5% Recovery
Classic Rock, Symphonic Rock, Progressive Rock | Sony Music Custom Marketing Group #A 764430

Hall of Fame is a live album by the progressive rock band The Moody Blues. It was recorded at a concert performed at the Royal Albert Hall, which included backing by a live orchestra. The album was released on 8 August 2000. It is the second Moody Blues live album to feature a live orchestra, with the first being A Night at Red Rocks with the Colorado Symphony Orchestra. This is the last live release to feature Ray Thomas. A decade on, all but "Overture" and "Legend of a Mind" appeared on the budget release Live at the Royal Albert Hall with the World Festival Orchestra released by Sony Music Custom Marketing Group in the United States. Backed by the large string ensemble, the Moody Blues perform a cross section of their hits, both new and old. Included here are such songs as "Tuesday Afternoon," "The Story in Your Eyes," "Nights in White Satin," and more.

***************

The Moody Blues - Live At The Royal Albert Hall With The World Fesrival Orchestra (2000) {2010, Reissue}

Track List:

01. Tuesday Afternoon [4:41]
02. English Sunset [5:16]
03. Words You Say [5:14]
04. The Story In Your Eyes [3:47]
05. I Know You're Out There Somewhere [5:19]
06. Haunted [4:21]
07. Your Wildest Dreams [4:56]
08. Isn't Life Strange [5:53]
09. I'm Just A Singer (In A Rock And Roll Band) [6:25]
10. Nights In White Satin [7:01]
11. Question [6:19]
12. Ride My See Saw [5:10]

Exact Audio Copy V1.0 beta 3 from 29. August 2011

EAC extraction logfile from 19. May 2019, 1:02

The Moody Blues / Live At The Royal Albert Hall With The World Fesrival Orchestra

Used drive : PIONEER BD-RW BDR-TD03 Adapter: 0 ID: 1

Read mode : Secure
Utilize accurate stream : Yes
Defeat audio cache : Yes
Make use of C2 pointers : No

Read offset correction : 667
Overread into Lead-In and Lead-Out : No
Fill up missing offset samples with silence : Yes
Delete leading and trailing silent blocks : No
Null samples used in CRC calculations : Yes
Used interface : Native Win32 interface for Win NT & 2000

Used output format : User Defined Encoder
Selected bitrate : 768 kBit/s
Quality : High
Add ID3 tag : No
Command line compressor : C:\Program Files (x86)\Exact Audio Copy\FLAC\FLAC.EXE
Additional command line options : -6 -V -T "ARTIST=%artist%" -T "TITLE=%title%" -T "ALBUM=%albumtitle%" -T "DATE=%year%" -T "TRACKNUMBER=%tracknr%" -T "GENRE=%genre%" -T "COMMENT=%comment%" -T "BAND=%albuminterpret%" -T "ALBUMARTIST=%albuminterpret%" -T "COMPOSER=%composer%" %haslyrics%–tag-from-file=LYRICS="%lyricsfile%"%haslyrics% -T "DISCNUMBER=%cdnumber%" -T "TOTALDISCS=%totalcds%" -T "TOTALTRACKS=%numtracks%" %hascover%–picture="%coverfile%"%hascover% %source% -o %dest%


TOC of the extracted CD

Track | Start | Length | Start sector | End sector
––––––––––––––––––––––––––––-
1 | 0:00.00 | 4:40.67 | 0 | 21066
2 | 4:40.67 | 5:16.26 | 21067 | 44792
3 | 9:57.18 | 5:13.43 | 44793 | 68310
4 | 15:10.61 | 3:47.28 | 68311 | 85363
5 | 18:58.14 | 5:19.22 | 85364 | 109310
6 | 24:17.36 | 4:20.53 | 109311 | 128863
7 | 28:38.14 | 4:56.19 | 128864 | 151082
8 | 33:34.33 | 5:52.67 | 151083 | 177549
9 | 39:27.25 | 6:24.71 | 177550 | 206420
10 | 45:52.21 | 7:01.18 | 206421 | 238013
11 | 52:53.39 | 6:19.23 | 238014 | 266461
12 | 59:12.62 | 5:10.21 | 266462 | 289732


Range status and errors

Selected range

Filename C:\Users\Deris\Desktop\ModBluLiv\The Moody Blues - Live At The Royal Albert Hall With The World Fesrival Orchestra.wav

Peak level 100.0 %
Extraction speed 4.9 X
Range quality 100.0 %
Test CRC B6114C19
Copy CRC B6114C19
Copy OK

No errors occurred


AccurateRip summary

Track 1 accurately ripped (confidence 30) [01FF2409] (AR v2)
Track 2 accurately ripped (confidence 30) [642A235E] (AR v2)
Track 3 accurately ripped (confidence 30) [2133E23F] (AR v2)
Track 4 accurately ripped (confidence 30) [7F459C7D] (AR v2)
Track 5 accurately ripped (confidence 30) [DD1F8A39] (AR v2)
Track 6 accurately ripped (confidence 31) [26755539] (AR v2)
Track 7 accurately ripped (confidence 31) [62C6AEAC] (AR v2)
Track 8 accurately ripped (confidence 31) [16364AF4] (AR v2)
Track 9 accurately ripped (confidence 31) [0B71A1D6] (AR v2)
Track 10 accurately ripped (confidence 31) [C86AD024] (AR v2)
Track 11 accurately ripped (confidence 30) [08B561FC] (AR v2)
Track 12 accurately ripped (confidence 30) [BFEE1324] (AR v2)

All tracks accurately ripped

End of status report

–– CUETools DB Plugin V2.1.3

[CTDB TOCID: _Iy7JfI3G3YYCcD5dVIQiyrHq38-] found, Submit result: _Iy7JfI3G3YYCcD5dVIQiyrHq38- has been confirmed
[bf767481] (57/60) Accurately ripped
[3c2f35e9] (01/60) No match
[17858fcb] (01/60) No match
[33433792] (01/60) No match


==== Log checksum BBE777A4146438D73A67BF833ECB4016085A0945E4014264D7582F1E4F9C2873 ====

[CUETools log; Date: 24.05.2019 21:32:42; Version: 2.1.6]
[CTDB TOCID: _Iy7JfI3G3YYCcD5dVIQiyrHq38-] found.
Track | CTDB Status
1 | (61/61) Accurately ripped
2 | (61/61) Accurately ripped
3 | (61/61) Accurately ripped
4 | (61/61) Accurately ripped
5 | (60/61) Accurately ripped
6 | (60/61) Accurately ripped
7 | (60/61) Accurately ripped
8 | (60/61) Accurately ripped
9 | (59/61) Accurately ripped
10 | (60/61) Accurately ripped
11 | (60/61) Accurately ripped
12 | (59/61) Accurately ripped
[AccurateRip ID: 001b445d-0101aef7-a40f170c] found.
Track [ CRC | V2 ] Status
01 [9916dbc2|01ff2409] (06+30/42) Accurately ripped
02 [0b31eeac|642a235e] (06+30/43) Accurately ripped
03 [2affa991|2133e23f] (06+30/43) Accurately ripped
04 [46b71861|7f459c7d] (06+30/43) Accurately ripped
05 [6131c43b|dd1f8a39] (06+30/43) Accurately ripped
06 [ec75cb57|26755539] (06+31/44) Accurately ripped
07 [680ca4e9|62c6aeac] (06+31/44) Accurately ripped
08 [c8bdbd04|16364af4] (06+31/44) Accurately ripped
09 [0135cc80|0b71a1d6] (06+31/44) Accurately ripped
10 [83484b3e|c86ad024] (06+31/43) Accurately ripped
11 [4b2c688d|08b561fc] (06+30/43) Accurately ripped
12 [758423f6|bfee1324] (06+30/42) Accurately ripped
Offsetted by -12:
01 [0c63dc59] (00/42) No match (V2 was not tested)
02 [d1ac082f] (00/43) No match (V2 was not tested)
03 [e515f797] (00/43) No match (V2 was not tested)
04 [24826ebb] (00/43) No match (V2 was not tested)
05 [b1cabe2e] (00/43) No match (V2 was not tested)
06 [7be78cfa] (00/44) No match (V2 was not tested)
07 [0be0ebbd] (00/44) No match (V2 was not tested)
08 [d4772abd] (00/44) No match (V2 was not tested)
09 [db281e60] (00/44) No match (V2 was not tested)
10 [a467807d] (00/43) No match (V2 was not tested)
11 [c88c3a50] (00/43) No match (V2 was not tested)
12 [20d6f0cf] (00/42) No match (V2 was not tested)

Track Peak [ CRC32 ] [W/O NULL] [ LOG ]
– 100,0 [B6114C19] [0753D19F] CRC32
01 99,9 [F7D91634] [535ED778]
02 100,0 [9032157D] [E73A9A4C]
03 99,5 [7F33E690] [CEFA1B88]
04 100,0 [771536DE] [FFD6E8FE]
05 100,0 [7F5305FC] [FDCD651A]
06 100,0 [83C8C8FA] [8122A2AC]
07 100,0 [9F832E3B] [4B4DFC7A]
08 100,0 [D5478366] [D2256FA2]
09 100,0 [2E6A81DD] [A2D4F97B]
10 100,0 [46B81083] [0616BF9F]
11 100,0 [2DA18E5D] [02316E7F]
12 100,0 [06B17EBE] [D0F712EE]

The Moody Blues - Live At The Royal Albert Hall With The World Fesrival Orchestra (2000) {2010, Reissue}


All thanks go to Boris1

>>> The Moody Blues in my Blog <<<

DOWNLOAD: