Tags
Language
Tags

The Smiths - Complete (2011) [8CD Box set]

Posted By: v3122
The Smiths - Complete (2011) [8CD Box set]

The Smiths - Complete (2011)
EAC | Flac(Image) + Cue + Log & MP3 CBR 320Kbps
Rhino, 2564665907 | ~ 2878 or 1151 Mb | Artwork(LR) -> 8.22 Mb
Indie Rock | Remastered

First off, no, this box set doesn’t contain the Complete Smiths, not even in its super-deluxe edition containing vinyl replicas of the group’s singles and LPs. Stray B-sides don’t appear here, nor do the scrapped sessions for the first album and a few other heavily bootlegged numbers, but what is here are sterling remasters – allegedly supervised by Johnny Marr – of the band’s four albums, three compilations, and lone live album, all released during the band’s exceedingly brief lifespan. What matters is that the remastering is exceptional, the best comparison being the Beatles 2009 remasters, where layers of grime seemed to be removed from familiar recordings, so the songs sounded vibrant and alive, yet didn’t sound tweaked, buttressed, or burnished for a new millennium. That is what makes The Complete Smiths essential: no surprises in terms of material, but the presentation is exquisite, sounding familiar and fresh, a stunning re-presentation of records that were teetering on the edge of over-familiarity. Guitars and vocals pop equally, the original mixes simply brightened, a task harder to achieve than it is to imagine, the music sounding part of its time yet easily transcending it. Far from a vulgar picture, this is what Smiths fans have been waiting years for.

by Stephen Thomas Erlewine, allmusic
The Smiths - Complete (2011):

The Smiths - Complete (2011) [8CD Box set]

Tracklist CD01. 1984 - The Smiths:

01. Reel Around The Fountain [5:57]
02. You’ve Got Everything Now [4:00]
03. Miserable Lie [4:27]
04. Pretty Girls Make Graves [3:43]
05. The Hand That Rocks The Cradle [4:38]
06. This Charming Man [2:43]
07. Still Ill [3:20]
08. Hand In Glove [3:22]
09. What Difference Does It Make? [3:49]
10. I Don’t Owe You Anything [4:04]
11. Suffer Little Children [5:31]

Exact Audio Copy V1.0 beta 3 from 29. August 2011

EAC extraction logfile from 24. April 2013, 20:50

The Smiths / Complete

Used drive : PIONEER BD-RW BDR-207M Adapter: 4 ID: 0

Read mode : Secure
Utilize accurate stream : Yes
Defeat audio cache : Yes
Make use of C2 pointers : No

Read offset correction : 667
Overread into Lead-In and Lead-Out : No
Fill up missing offset samples with silence : Yes
Delete leading and trailing silent blocks : No
Null samples used in CRC calculations : Yes
Used interface : Native Win32 interface for Win NT & 2000

Used output format : User Defined Encoder
Selected bitrate : 896 kBit/s
Quality : High
Add ID3 tag : No
Command line compressor : C:\Program Files\Exact Audio Copy\FLAC\FLAC.EXE
Additional command line options : -V -8 -T "Date=%year%" -T "Genre=%genre%" %source%


TOC of the extracted CD

Track | Start | Length | Start sector | End sector
––––––––––––––––––––––––––––-
1 | 0:00.00 | 5:57.17 | 0 | 26791
2 | 5:57.17 | 3:59.60 | 26792 | 44776
3 | 9:57.02 | 4:27.61 | 44777 | 64862
4 | 14:24.63 | 3:43.19 | 64863 | 81606
5 | 18:08.07 | 4:38.60 | 81607 | 102516
6 | 22:46.67 | 2:43.09 | 102517 | 114750
7 | 25:30.01 | 3:20.55 | 114751 | 129805
8 | 28:50.56 | 3:22.44 | 129806 | 144999
9 | 32:13.25 | 3:49.65 | 145000 | 162239
10 | 36:03.15 | 4:04.48 | 162240 | 180587
11 | 40:07.63 | 5:30.73 | 180588 | 205410


Range status and errors

Selected range

Filename D:\The_Smiths-Complete-(Remastered_Box_Set)-8CD-2011\CD1-The_Smiths\CDImage.wav

Peak level 99.7 %
Extraction speed 6.7 X
Range quality 100.0 %
Test CRC 1B55BEB6
Copy CRC 1B55BEB6
Copy OK

No errors occurred


AccurateRip summary

Track 1 accurately ripped (confidence 23) [323BB76B] (AR v2)
Track 2 accurately ripped (confidence 23) [84A31A2B] (AR v2)
Track 3 accurately ripped (confidence 23) [98ED26B8] (AR v2)
Track 4 accurately ripped (confidence 23) [8ACFE930] (AR v2)
Track 5 accurately ripped (confidence 23) [EABB204D] (AR v2)
Track 6 accurately ripped (confidence 23) [5AB1ACF9] (AR v2)
Track 7 accurately ripped (confidence 23) [B45E8D09] (AR v2)
Track 8 accurately ripped (confidence 23) [17379002] (AR v2)
Track 9 accurately ripped (confidence 24) [B0A460FC] (AR v2)
Track 10 accurately ripped (confidence 23) [10685D35] (AR v2)
Track 11 accurately ripped (confidence 23) [89197356] (AR v2)

All tracks accurately ripped

End of status report

–– CUETools DB Plugin V2.1.3

[CTDB TOCID: YPb1FzL8obN19RLSnGaJ20z2UQc-] found, Submit result: YPb1FzL8obN19RLSnGaJ20z2UQc- has been confirmed
[e3884001] (54/54) Accurately ripped


==== Log checksum A2CD57CA8E82B564CF7055BF619887F6517845FA0479908E1850AC1169B94EA4 ====


[CUETools log; Date: 30.03.2020 15:42:34; Version: 2.1.4]
[AccurateRip ID: 00133370-00a321c2-a10ab20b] found.
Track [ CRC | V2 ] Status
01 [2c937a6b|323bb76b] (035+200/259) Accurately ripped
02 [09a8d346|84a31a2b] (035+200/258) Accurately ripped
03 [09ef6a89|98ed26b8] (035+200/259) Accurately ripped
04 [3023b93c|8acfe930] (035+200/259) Accurately ripped
05 [5c6eac2b|eabb204d] (034+200/258) Accurately ripped
06 [114f1467|5ab1acf9] (034+200/258) Accurately ripped
07 [edec8516|b45e8d09] (035+200/259) Accurately ripped
08 [6d06d96b|17379002] (035+200/259) Accurately ripped
09 [f537230a|b0a460fc] (035+200/258) Accurately ripped
10 [6d118955|10685d35] (035+200/259) Accurately ripped
11 [cc5de9c8|89197356] (035+200/258) Accurately ripped
Offsetted by -6:
01 [976bb35f] (002/259) Accurately ripped
02 [90c44140] (002/258) Accurately ripped
03 [f82f29f1] (002/259) Accurately ripped
04 [059efbb8] (002/259) Accurately ripped
05 [d01907ef] (002/258) Accurately ripped
06 [4262fd8d] (002/258) Accurately ripped
07 [1709625a] (002/259) Accurately ripped
08 [7435a752] (002/259) Accurately ripped
09 [9490d4da] (002/258) Accurately ripped
10 [349fbffe] (002/259) Accurately ripped
11 [cd935214] (002/258) Accurately ripped
Offsetted by -36:
01 [d2c3d01f] (000/259) No match (V2 was not tested)
02 [8d9ec47e] (000/258) No match (V2 was not tested)
03 [7af83761] (000/259) No match (V2 was not tested)
04 [168c4b4d] (000/259) No match (V2 was not tested)
05 [1334d2be] (000/258) No match (V2 was not tested)
06 [37c68b4b] (000/258) No match (V2 was not tested)
07 [9f8d560a] (000/259) No match (V2 was not tested)
08 [6eefa27e] (000/259) No match (V2 was not tested)
09 [b7000df2] (000/258) No match (V2 was not tested)
10 [45d8ceea] (000/259) No match (V2 was not tested)
11 [d75d61b4] (000/258) No match (V2 was not tested)

Track Peak [ CRC32 ] [W/O NULL] [ LOG ]
– 99,7 [1B55BEB6] [C070DCDC] CRC32
01 95,5 [A723A7BC] [4DE0DD19]
02 94,3 [66EADFC2] [C81F9843]
03 95,3 [34B49D8A] [406B4BBF]
04 96,1 [612D90BA] [B46D4AE2]
05 94,6 [40E33580] [31A081D8]
06 84,2 [4872D5E0] [01267975]
07 99,4 [95B25F39] [D489AA56]
08 97,8 [B59B1CCA] [3075A794]
09 99,7 [493B3F18] [C4A2F337]
10 99,5 [E558B91C] [CEED8F61]
11 99,5 [F13BC7B7] [886D1CB6]


The Smiths - Complete (2011) [8CD Box set]

Tracklist CD02. 1985 - Meat Is Murder:

01. The Headmaster Ritual [4:53]
02. Rusholme Ruffians [4:20]
03. I Want The One I Can’t Have [3:13]
04. What She Said [2:42]
05. That Joke Isn’t Funny Anymore [4:38]
06. Nowhere Fast [2:36]
07. Well I Wonder [4:00]
08. Barbarism Begins At Home [6:53]
09. Meat Is Murder [6:12]

Exact Audio Copy V1.0 beta 3 from 29. August 2011

EAC extraction logfile from 24. April 2013, 21:08

The Smiths / Complete

Used drive : PIONEER BD-RW BDR-207M Adapter: 4 ID: 0

Read mode : Secure
Utilize accurate stream : Yes
Defeat audio cache : Yes
Make use of C2 pointers : No

Read offset correction : 667
Overread into Lead-In and Lead-Out : No
Fill up missing offset samples with silence : Yes
Delete leading and trailing silent blocks : No
Null samples used in CRC calculations : Yes
Used interface : Native Win32 interface for Win NT & 2000

Used output format : User Defined Encoder
Selected bitrate : 896 kBit/s
Quality : High
Add ID3 tag : No
Command line compressor : C:\Program Files\Exact Audio Copy\FLAC\FLAC.EXE
Additional command line options : -V -8 -T "Date=%year%" -T "Genre=%genre%" %source%


TOC of the extracted CD

Track | Start | Length | Start sector | End sector
––––––––––––––––––––––––––––-
1 | 0:00.00 | 4:53.33 | 0 | 22007
2 | 4:53.33 | 4:20.10 | 22008 | 41517
3 | 9:13.43 | 3:13.60 | 41518 | 56052
4 | 12:27.28 | 2:42.43 | 56053 | 68245
5 | 15:09.71 | 4:57.72 | 68246 | 90592
6 | 20:07.68 | 2:36.67 | 90593 | 102359
7 | 22:44.60 | 4:00.16 | 102360 | 120375
8 | 26:45.01 | 6:53.54 | 120376 | 151404
9 | 33:38.55 | 6:12.35 | 151405 | 179339


Range status and errors

Selected range

Filename D:\The_Smiths-Complete-(Remastered_Box_Set)-8CD-2011\CD2-Meat_Is_Murder\CDImage.wav

Peak level 99.5 %
Extraction speed 6.5 X
Range quality 100.0 %
Test CRC F707DBC0
Copy CRC F707DBC0
Copy OK

No errors occurred


AccurateRip summary

Track 1 accurately ripped (confidence 25) [2FD32A13] (AR v2)
Track 2 accurately ripped (confidence 25) [0CE7DB92] (AR v2)
Track 3 accurately ripped (confidence 25) [0FE3FCF1] (AR v2)
Track 4 accurately ripped (confidence 25) [294E93B1] (AR v2)
Track 5 accurately ripped (confidence 25) [4E1F0871] (AR v2)
Track 6 accurately ripped (confidence 25) [720B1CD2] (AR v2)
Track 7 accurately ripped (confidence 25) [90D8D4D2] (AR v2)
Track 8 accurately ripped (confidence 25) [B5B5794F] (AR v2)
Track 9 accurately ripped (confidence 25) [5C2AEC4E] (AR v2)

All tracks accurately ripped

End of status report

–– CUETools DB Plugin V2.1.3

[CTDB TOCID: nOXABk5EVBtlTD1_Dia.VTjTZk8-] found, Submit result: nOXABk5EVBtlTD1_Dia.VTjTZk8- has been confirmed
[665bbe8c] (48/48) Accurately ripped


==== Log checksum 378DB047D117A821BD8E8C9F94D625C7C430EAB917C2E6EF97B2C6156F26968B ====


[CUETools log; Date: 30.03.2020 15:45:29; Version: 2.1.4]
[AccurateRip ID: 000cb19b-005d4778-6e095709] found.
Track [ CRC | V2 ] Status
01 [8c711c47|2fd32a13] (040+200/285) Accurately ripped
02 [bc8648ad|0ce7db92] (041+200/287) Accurately ripped
03 [58d21e7d|0fe3fcf1] (041+200/287) Accurately ripped
04 [3ac61544|294e93b1] (041+200/287) Accurately ripped
05 [b24df108|4e1f0871] (039+200/284) Accurately ripped
06 [0eb95ae7|720b1cd2] (041+200/286) Accurately ripped
07 [7fcc7fcf|90d8d4d2] (040+200/286) Accurately ripped
08 [166a6e01|b5b5794f] (040+200/286) Accurately ripped
09 [3e3b9c6a|5c2aec4e] (040+200/286) Accurately ripped
Offsetted by -6:
01 [866c222a] (002/285) Accurately ripped
02 [a9d249a6] (002/287) Accurately ripped
03 [1b18fbeb] (002/287) Accurately ripped
04 [fffb39dc] (002/287) Accurately ripped
05 [bf2d244e] (002/284) Accurately ripped
06 [817ce763] (002/286) Accurately ripped
07 [44a5ac71] (002/286) Accurately ripped
08 [d2af2ffc] (002/286) Accurately ripped
09 [47092407] (002/286) Accurately ripped
Offsetted by -42:
01 [73769159] (000/285) No match (V2 was not tested)
02 [36d211ad] (000/287) No match (V2 was not tested)
03 [090764aa] (000/287) No match (V2 was not tested)
04 [f389b479] (000/287) No match (V2 was not tested)
05 [1439d9f7] (000/284) No match (V2 was not tested)
06 [dc52c01f] (000/286) No match (V2 was not tested)
07 [fee357a9] (000/286) No match (V2 was not tested)
08 [ab18b874] (000/286) No match (V2 was not tested)
09 [7cb951e0] (000/286) No match (V2 was not tested)
Offsetted by -12:
01 [6c669da9] (000/285) No match (V2 was not tested)
02 [50d81957] (000/287) No match (V2 was not tested)
03 [2b215e85] (000/287) No match (V2 was not tested)
04 [c1e6f986] (000/287) No match (V2 was not tested)
05 [4d13d7db] (000/284) No match (V2 was not tested)
06 [e73a6a33] (000/286) No match (V2 was not tested)
07 [af909271] (000/286) No match (V2 was not tested)
08 [2a5657b0] (000/286) No match (V2 was not tested)
09 [4fdfaba8] (000/286) No match (V2 was not tested)

Track Peak [ CRC32 ] [W/O NULL] [ LOG ]
– 99,5 [F707DBC0] [2F67AAA1] CRC32
01 99,5 [BD36C4D7] [BFBE5A99]
02 94,6 [84769369] [C2CCB541]
03 96,5 [3075E767] [6B20C063]
04 95,1 [AD27B85F] [2EF1F940]
05 98,6 [CF6E90FE] [66DF7478]
06 96,8 [362919E4] [BA3ECCC9]
07 94,5 [A0CDF8E2] [51553BD6]
08 93,7 [84024653] [FCC2C332]
09 95,6 [0EFC753D] [9B70CEB9]


The Smiths - Complete (2011) [8CD Box set]

Tracklist CD03. 1986 - The Queen Is Dead:

01. The Queen Is Dead (Take Me Back To Dear Old Blighty Medley) [4:53]
02. Frankly, Mr. Shankly [2:19]
03. I Know It’s Over [5:49]
04. Never Had No One Ever [3:37]
05. Cemetry Gates [2:41]
06. Bigmouth Strikes Again [3:13]
07. The Boy With The Thorn In His Side [3:17]
08. Vicar In a Tutu [2:23]
09. There Is A Light That Never Goes Out [6:12]
10. Some Girls Are Bigger Than Others [3:17]

Exact Audio Copy V1.0 beta 3 from 29. August 2011

EAC extraction logfile from 24. April 2013, 21:30

The Smiths / Complete

Used drive : PIONEER BD-RW BDR-207M Adapter: 4 ID: 0

Read mode : Secure
Utilize accurate stream : Yes
Defeat audio cache : Yes
Make use of C2 pointers : No

Read offset correction : 667
Overread into Lead-In and Lead-Out : No
Fill up missing offset samples with silence : Yes
Delete leading and trailing silent blocks : No
Null samples used in CRC calculations : Yes
Used interface : Native Win32 interface for Win NT & 2000

Used output format : User Defined Encoder
Selected bitrate : 896 kBit/s
Quality : High
Add ID3 tag : No
Command line compressor : C:\Program Files\Exact Audio Copy\FLAC\FLAC.EXE
Additional command line options : -V -8 -T "Date=%year%" -T "Genre=%genre%" %source%


TOC of the extracted CD

Track | Start | Length | Start sector | End sector
––––––––––––––––––––––––––––-
1 | 0:00.00 | 6:25.11 | 0 | 28885
2 | 6:25.11 | 2:19.20 | 28886 | 39330
3 | 8:44.31 | 5:49.42 | 39331 | 65547
4 | 14:33.73 | 3:37.41 | 65548 | 81863
5 | 18:11.39 | 2:41.03 | 81864 | 93941
6 | 20:52.42 | 3:13.24 | 93942 | 108440
7 | 24:05.66 | 3:17.14 | 108441 | 123229
8 | 27:23.05 | 2:23.49 | 123230 | 134003
9 | 29:46.54 | 4:04.44 | 134004 | 152347
10 | 33:51.23 | 3:17.60 | 152348 | 167182


Range status and errors

Selected range

Filename D:\The_Smiths-Complete-(Remastered_Box_Set)-8CD-2011\CD3-The_Queen_Is_Dead\CDImage.wav

Peak level 100.0 %
Extraction speed 6.4 X
Range quality 100.0 %
Test CRC 5A876729
Copy CRC 5A876729
Copy OK

No errors occurred


AccurateRip summary

Track 1 accurately ripped (confidence 23) [5126FA0F] (AR v2)
Track 2 accurately ripped (confidence 22) [E01175FA] (AR v2)
Track 3 accurately ripped (confidence 23) [AE08514D] (AR v2)
Track 4 accurately ripped (confidence 23) [BD44D128] (AR v2)
Track 5 accurately ripped (confidence 23) [D84FD07A] (AR v2)
Track 6 accurately ripped (confidence 23) [D20F4C0A] (AR v2)
Track 7 accurately ripped (confidence 23) [C23B55FD] (AR v2)
Track 8 accurately ripped (confidence 23) [3F7F5E19] (AR v2)
Track 9 accurately ripped (confidence 23) [BD625B24] (AR v2)
Track 10 accurately ripped (confidence 24) [CDD8C256] (AR v2)

All tracks accurately ripped

End of status report

–– CUETools DB Plugin V2.1.3

[CTDB TOCID: 0LXr0N5CY7uwVlvkjTHeAVhixPM-] found, Submit result: 0LXr0N5CY7uwVlvkjTHeAVhixPM- has been confirmed
[c295e7ed] (61/61) Accurately ripped


==== Log checksum F2DC63F7AB63A3017E1824290406BE239B2D2AB45A736CF391AF21C552474B9A ====


[CUETools log; Date: 30.03.2020 15:48:21; Version: 2.1.4]
[AccurateRip ID: 000f2dd9-0075dd62-8e08b50a] found.
Track [ CRC | V2 ] Status
01 [056e3e6a|5126fa0f] (039+200/288) Accurately ripped
02 [811c7144|e01175fa] (037+200/286) Accurately ripped
03 [6c22d8d1|ae08514d] (038+200/286) Accurately ripped
04 [84cea68e|bd44d128] (039+200/288) Accurately ripped
05 [84044cde|d84fd07a] (039+200/288) Accurately ripped
06 [7170cf8c|d20f4c0a] (039+200/287) Accurately ripped
07 [0795ee81|c23b55fd] (038+200/286) Accurately ripped
08 [b7a4a8ab|3f7f5e19] (039+200/287) Accurately ripped
09 [7435010a|bd625b24] (039+200/287) Accurately ripped
10 [98bc6f7a|cdd8c256] (039+200/287) Accurately ripped
Offsetted by -36:
01 [7fbaaa3f] (000/288) No match (V2 was not tested)
02 [4e93fde6] (000/286) No match (V2 was not tested)
03 [9c19ec7e] (000/286) No match (V2 was not tested)
04 [82285810] (000/288) No match (V2 was not tested)
05 [2eec12e8] (000/288) No match (V2 was not tested)
06 [93ed7b64] (000/287) No match (V2 was not tested)
07 [3b9a428b] (000/286) No match (V2 was not tested)
08 [ce659325] (000/287) No match (V2 was not tested)
09 [d1475be3] (000/287) No match (V2 was not tested)
10 [3f8787cd] (000/287) No match (V2 was not tested)
Offsetted by -12:
01 [379e056e] (000/288) No match (V2 was not tested)
02 [1b20f579] (000/286) No match (V2 was not tested)
03 [97eea5e3] (000/286) No match (V2 was not tested)
04 [d63354e2] (000/288) No match (V2 was not tested)
05 [ad4466ca] (000/288) No match (V2 was not tested)
06 [0c55ccc7] (000/287) No match (V2 was not tested)
07 [c0844ed5] (000/286) No match (V2 was not tested)
08 [32b1dcf2] (000/287) No match (V2 was not tested)
09 [a0b797db] (000/287) No match (V2 was not tested)
10 [d0132250] (000/287) No match (V2 was not tested)
Offsetted by -6:
01 [32afcd6a] (000/288) No match (V2 was not tested)
02 [4e293369] (000/286) No match (V2 was not tested)
03 [8306787d] (000/286) No match (V2 was not tested)
04 [9279456d] (000/288) No match (V2 was not tested)
05 [c8066643] (000/288) No match (V2 was not tested)
06 [602f42ee] (000/287) No match (V2 was not tested)
07 [daf1ede4] (000/286) No match (V2 was not tested)
08 [f4d16de2] (000/287) No match (V2 was not tested)
09 [0aa3975d] (000/287) No match (V2 was not tested)
10 [b46148e8] (000/287) No match (V2 was not tested)

Track Peak [ CRC32 ] [W/O NULL] [ LOG ]
– 100,0 [5A876729] [8494CE52] CRC32
01 97,9 [8DDB9DC4] [EE3763F0]
02 98,3 [DFC5687E] [6E47030E]
03 95,6 [EBAC3D12] [24E875E1]
04 97,0 [83E1EA7B] [8C5EA613]
05 94,7 [4330F154] [0371BBA2]
06 96,8 [93C2EFA8] [B70B6493]
07 94,8 [FF74BF1F] [974EB963]
08 100,0 [7B236E22] [6F95D537]
09 100,0 [5E7B587C] [924EBD60]
10 94,7 [580020A8] [25C4F3FD]


The Smiths - Complete (2011) [8CD Box set]

Tracklist CD04. 1987 - Strangeways Here We Come:

01. A Rush and a Push and the Land Is Ours [3:01]
02. I Started Something I Couldn’t Finish [3:47]
03. Death Of a Disco Dancer [5:26]
04. Girlfriend In a Coma [2:02]
05. Stop Me If You Think You’ve Heard This One Before [2:41]
06. Last Night I Dreamt That Somebody Loved Me [5:06]
07. Unhappy Birthday [2:45]
08. Paint a Vulgar Picture [5:35]
09. Death At One’s Elbow [2:02]
10. I Won’t Share You [2:51]

Exact Audio Copy V1.0 beta 3 from 29. August 2011

EAC extraction logfile from 23. April 2013, 22:06

The Smiths / Complete

Used drive : PIONEER BD-RW BDR-207M Adapter: 4 ID: 0

Read mode : Secure
Utilize accurate stream : Yes
Defeat audio cache : Yes
Make use of C2 pointers : No

Read offset correction : 667
Overread into Lead-In and Lead-Out : No
Fill up missing offset samples with silence : Yes
Delete leading and trailing silent blocks : No
Null samples used in CRC calculations : Yes
Used interface : Native Win32 interface for Win NT & 2000

Used output format : User Defined Encoder
Selected bitrate : 896 kBit/s
Quality : High
Add ID3 tag : No
Command line compressor : C:\Program Files\Exact Audio Copy\FLAC\FLAC.EXE
Additional command line options : -V -8 -T "Date=%year%" -T "Genre=%genre%" %source%


TOC of the extracted CD

Track | Start | Length | Start sector | End sector
––––––––––––––––––––––––––––-
1 | 0:00.00 | 3:01.01 | 0 | 13575
2 | 3:01.01 | 3:47.40 | 13576 | 30640
3 | 6:48.41 | 5:26.19 | 30641 | 55109
4 | 12:14.60 | 2:02.57 | 55110 | 64316
5 | 14:17.42 | 3:35.74 | 64317 | 80515
6 | 17:53.41 | 5:06.05 | 80516 | 103470
7 | 22:59.46 | 2:45.08 | 103471 | 115853
8 | 25:44.54 | 5:35.22 | 115854 | 141000
9 | 31:20.01 | 2:01.73 | 141001 | 150148
10 | 33:21.74 | 2:51.46 | 150149 | 163019


Range status and errors

Selected range

Filename D:\The_Smiths-Complete-(Remastered_Box_Set)-8CD-2011\CD4-Strangeways_Here_We_Come\CDImage.wav

Peak level 100.0 %
Extraction speed 6.2 X
Range quality 99.9 %
Test CRC E11D94FC
Copy CRC E11D94FC
Copy OK

No errors occurred


AccurateRip summary

Track 1 accurately ripped (confidence 24) [6AE00E1F] (AR v2)
Track 2 accurately ripped (confidence 24) [6BC49A75] (AR v2)
Track 3 accurately ripped (confidence 24) [9E649A5E] (AR v2)
Track 4 accurately ripped (confidence 24) [C3E1628E] (AR v2)
Track 5 accurately ripped (confidence 24) [044DE225] (AR v2)
Track 6 accurately ripped (confidence 24) [E004C420] (AR v2)
Track 7 accurately ripped (confidence 24) [5E7D06F6] (AR v2)
Track 8 accurately ripped (confidence 24) [BD1CB30B] (AR v2)
Track 9 accurately ripped (confidence 24) [6F7B3A00] (AR v2)
Track 10 accurately ripped (confidence 24) [E7E22E46] (AR v2)

All tracks accurately ripped

End of status report

–– CUETools DB Plugin V2.1.3

[CTDB TOCID: AGSXI1UiArwdf0DBUzcJhJbbTIs-] found, Submit result: AGSXI1UiArwdf0DBUzcJhJbbTIs- has been confirmed
[0b7b0ea6] (48/48) Accurately ripped


==== Log checksum 58131F3C28E1C4654D6212A2582F805797C3CE7607D3D4399277D1C4AEEA55C3 ====


[CUETools log; Date: 30.03.2020 15:53:18; Version: 2.1.4]
[AccurateRip ID: 000e0097-00704a45-7b087d0a] found.
Track [ CRC | V2 ] Status
01 [581c3e45|6ae00e1f] (036+200/254) Accurately ripped
02 [dcaee48a|6bc49a75] (037+200/256) Accurately ripped
03 [79dc1dc2|9e649a5e] (037+200/257) Accurately ripped
04 [bda61825|c3e1628e] (037+200/256) Accurately ripped
05 [c6f69384|044de225] (036+200/255) Accurately ripped
06 [cb124b54|e004c420] (036+200/255) Accurately ripped
07 [697cea89|5e7d06f6] (035+200/254) Accurately ripped
08 [c9c13a7e|bd1cb30b] (037+200/256) Accurately ripped
09 [ac92574a|6f7b3a00] (036+200/255) Accurately ripped
10 [3e9e5773|e7e22e46] (037+200/256) Accurately ripped
Offsetted by -6:
01 [d5e8b510] (000/254) No match (V2 was not tested)
02 [3115915e] (000/256) No match (V2 was not tested)
03 [3284ea57] (000/257) No match (V2 was not tested)
04 [fbdf734f] (000/256) No match (V2 was not tested)
05 [2a55b9cb] (000/255) No match (V2 was not tested)
06 [62cc908f] (000/255) No match (V2 was not tested)
07 [ef4537dc] (000/254) No match (V2 was not tested)
08 [6e532dcb] (000/256) No match (V2 was not tested)
09 [f8ea13a7] (000/255) No match (V2 was not tested)
10 [e81078ba] (000/256) No match (V2 was not tested)

Track Peak [ CRC32 ] [W/O NULL] [ LOG ]
– 100,0 [E11D94FC] [81C07308] CRC32
01 100,0 [F1ECE1F3] [7B9FAA7F]
02 99,6 [BA92E310] [A8C895BC]
03 99,9 [A760E04C] [D99CD41A]
04 100,0 [857A23B6] [A8B5384E]
05 100,0 [3D96D283] [05129F7A]
06 98,8 [6E7E1CB2] [E77617D2]
07 100,0 [D2FC3066] [6967EE90]
08 100,0 [41D92143] [9BC53250]
09 98,0 [F3AE425E] [F262B6A1]
10 85,0 [29DDBE1A] [DDF10BD1]


The Smiths - Complete (2011) [8CD Box set]

Tracklist CD05. 1988 - Rank:

01. The Queen Is Dead [4:15]
02. Panic [3:13]
03. Vicar In A Tutu [2:32]
04. Ask [3:22]
05. Rusholme Ruffians – His Latest Flame (Medley) [3:55]
06. The Boy With The Thorn In His Side [3:48]
07. What She Said [3:49]
08. Is It Really So Strange? [3:37]
09. Cemetry Gates [2:51]
10. London [2:38]
11. I Know It’s Over [7:46]
12. The Draize Train [4:27]
13. Still Ill [4:10]
14. Bigmouth Strikes Again [3:03]

Exact Audio Copy V1.0 beta 3 from 29. August 2011

EAC extraction logfile from 24. April 2013, 21:57

The Smiths / Complete

Used drive : PIONEER BD-RW BDR-207M Adapter: 4 ID: 0

Read mode : Secure
Utilize accurate stream : Yes
Defeat audio cache : Yes
Make use of C2 pointers : No

Read offset correction : 667
Overread into Lead-In and Lead-Out : No
Fill up missing offset samples with silence : Yes
Delete leading and trailing silent blocks : No
Null samples used in CRC calculations : Yes
Used interface : Native Win32 interface for Win NT & 2000

Used output format : User Defined Encoder
Selected bitrate : 896 kBit/s
Quality : High
Add ID3 tag : No
Command line compressor : C:\Program Files\Exact Audio Copy\FLAC\FLAC.EXE
Additional command line options : -V -8 -T "Date=%year%" -T "Genre=%genre%" %source%


TOC of the extracted CD

Track | Start | Length | Start sector | End sector
––––––––––––––––––––––––––––-
1 | 0:00.00 | 4:15.09 | 0 | 19133
2 | 4:15.09 | 3:07.17 | 19134 | 33175
3 | 7:22.26 | 2:32.15 | 33176 | 44590
4 | 9:54.41 | 3:22.27 | 44591 | 59767
5 | 13:16.68 | 3:55.72 | 59768 | 77464
6 | 17:12.65 | 3:48.01 | 77465 | 94565
7 | 21:00.66 | 3:49.70 | 94566 | 111810
8 | 24:50.61 | 3:37.01 | 111811 | 128086
9 | 28:27.62 | 2:51.06 | 128087 | 140917
10 | 31:18.68 | 2:38.43 | 140918 | 152810
11 | 33:57.36 | 7:46.23 | 152811 | 187783
12 | 41:43.59 | 4:27.33 | 187784 | 207841
13 | 46:11.17 | 4:10.10 | 207842 | 226601
14 | 50:21.27 | 5:54.16 | 226602 | 253167


Range status and errors

Selected range

Filename D:\The_Smiths-Complete-(Remastered_Box_Set)-8CD-2011\CD5-Rank\CDImage.wav

Peak level 98.8 %
Extraction speed 7.1 X
Range quality 100.0 %
Test CRC 5370FE8B
Copy CRC 5370FE8B
Copy OK

No errors occurred


AccurateRip summary

Track 1 accurately ripped (confidence 23) [9DAB14C9] (AR v2)
Track 2 accurately ripped (confidence 23) [C88A66B4] (AR v2)
Track 3 accurately ripped (confidence 23) [D1BC068D] (AR v2)
Track 4 accurately ripped (confidence 22) [73188897] (AR v2)
Track 5 accurately ripped (confidence 23) [7D210BC5] (AR v2)
Track 6 accurately ripped (confidence 23) [8B0F22A9] (AR v2)
Track 7 accurately ripped (confidence 23) [93F934BF] (AR v2)
Track 8 accurately ripped (confidence 23) [18224735] (AR v2)
Track 9 accurately ripped (confidence 23) [32953BB2] (AR v2)
Track 10 accurately ripped (confidence 23) [C101A642] (AR v2)
Track 11 accurately ripped (confidence 23) [98CE688F] (AR v2)
Track 12 accurately ripped (confidence 23) [FFF19FB8] (AR v2)
Track 13 accurately ripped (confidence 23) [409AC573] (AR v2)
Track 14 accurately ripped (confidence 23) [41D9E526] (AR v2)

All tracks accurately ripped

End of status report

–– CUETools DB Plugin V2.1.3

[CTDB TOCID: qvdxbwhtOEX71fCYYkS.1WUViiY-] found, Submit result: qvdxbwhtOEX71fCYYkS.1WUViiY- has been confirmed
[4c2f50fe] (47/47) Accurately ripped


==== Log checksum B8EE147689AA5C4DAC7ECE124B88302918E01DEE6038FBAD7BD01A82DF807EBF ====


[CUETools log; Date: 30.03.2020 15:54:23; Version: 2.1.4]
[AccurateRip ID: 001a83fb-011eeecb-c20d2f0e] found.
Track [ CRC | V2 ] Status
01 [8ff7048d|9dab14c9] (033+200/249) Accurately ripped
02 [35783c7f|c88a66b4] (033+200/249) Accurately ripped
03 [8047ec9f|d1bc068d] (033+200/249) Accurately ripped
04 [a3774013|73188897] (032+200/248) Accurately ripped
05 [01b5a8f3|7d210bc5] (034+200/250) Accurately ripped
06 [9cee73fe|8b0f22a9] (033+200/249) Accurately ripped
07 [1a89c7d8|93f934bf] (033+200/249) Accurately ripped
08 [bc430ad4|18224735] (033+200/249) Accurately ripped
09 [e136c926|32953bb2] (033+200/249) Accurately ripped
10 [a9fef198|c101a642] (033+200/249) Accurately ripped
11 [23286879|98ce688f] (033+200/249) Accurately ripped
12 [209d5fb4|fff19fb8] (034+200/250) Accurately ripped
13 [a450da19|409ac573] (032+200/248) Accurately ripped
14 [f0d2c98b|41d9e526] (033+200/249) Accurately ripped
Offsetted by -18:
01 [8061e454] (000/249) No match (V2 was not tested)
02 [d29694ac] (000/249) No match (V2 was not tested)
03 [bb3e5ede] (000/249) No match (V2 was not tested)
04 [139623a5] (000/248) No match (V2 was not tested)
05 [ef031357] (000/250) No match (V2 was not tested)
06 [b7ffae6d] (000/249) No match (V2 was not tested)
07 [be0c18c7] (000/249) No match (V2 was not tested)
08 [2cb650b5] (000/249) No match (V2 was not tested)
09 [3171a15d] (000/249) No match (V2 was not tested)
10 [62375c38] (000/249) No match (V2 was not tested)
11 [12eded45] (000/249) No match (V2 was not tested)
12 [1f7de4b3] (000/250) No match (V2 was not tested)
13 [a30532c5] (000/248) No match (V2 was not tested)
14 [65f7499f] (000/249) No match (V2 was not tested)
Offsetted by -6:
01 [56c65e83] (000/249) No match (V2 was not tested)
02 [6173a2c5] (000/249) No match (V2 was not tested)
03 [d4dafa90] (000/249) No match (V2 was not tested)
04 [8e38440a] (000/248) No match (V2 was not tested)
05 [13b0e0b6] (000/250) No match (V2 was not tested)
06 [8f3b11b5] (000/249) No match (V2 was not tested)
07 [373c2790] (000/249) No match (V2 was not tested)
08 [0a009823] (000/249) No match (V2 was not tested)
09 [ff73c9d9] (000/249) No match (V2 was not tested)
10 [cd1afdea] (000/249) No match (V2 was not tested)
11 [92944815] (000/249) No match (V2 was not tested)
12 [72b59983] (000/250) No match (V2 was not tested)
13 [fe1334ea] (000/248) No match (V2 was not tested)
14 [8575ef0b] (000/249) No match (V2 was not tested)

Track Peak [ CRC32 ] [W/O NULL] [ LOG ]
– 98,8 [5370FE8B] [6D8B707B] CRC32
01 98,8 [ABCAC597] [02775821]
02 98,8 [DD0737E1] [C2FBADB6]
03 98,8 [C844D6D6] [F47905C6]
04 98,8 [B8A6178E] [1B0AA109]
05 98,8 [4B416001] [B6AA9103]
06 98,8 [BBDB7262] [391E6E0C]
07 98,8 [8D5CA812] [4A9F2BC3]
08 98,8 [DB429243] [F9126493]
09 98,8 [ADF36E0B] [5FD78A48]
10 98,8 [35B7DA04] [A2CD6F40]
11 98,8 [8FDEEC8D] [2FD4F15C]
12 98,8 [6ADE298B] [6AAB707B]
13 98,8 [1DCB7E0F] [BB07DA20]
14 98,8 [6672483A] [2E8BFABF]


The Smiths - Complete (2011) [8CD Box set]

Tracklist CD06. 1984 - Hatful of Hollow:

01. William, It Was Really Nothing [2:10]
02. What Difference Does It Make? [3:13]
03. These Things Take Time [2:33]
04. This Charming Man [2:45]
05. How Soon Is Now? [6:47]
06. Handsome Devil [2:44]
07. Hand In Glove [3:17]
08. Still Ill [3:34]
09. Heaven Knows I’m Miserable Now [3:35]
10. This Night Has Opened My Eyes [3:43]
11. You’ve Got Everything Now [4:13]
12. Accept Yourself [4:03]
13. Girl Afraid [2:48]
14. Back To The Old House [3:03]
15. Reel Around The Fountain [5:51]
16. Please, Please, Please, Let Me Get What I Want [1:53]

Exact Audio Copy V1.0 beta 3 from 29. August 2011

EAC extraction logfile from 24. April 2013, 22:18

The Smiths / Complete

Used drive : PIONEER BD-RW BDR-207M Adapter: 4 ID: 0

Read mode : Secure
Utilize accurate stream : Yes
Defeat audio cache : Yes
Make use of C2 pointers : No

Read offset correction : 667
Overread into Lead-In and Lead-Out : No
Fill up missing offset samples with silence : Yes
Delete leading and trailing silent blocks : No
Null samples used in CRC calculations : Yes
Used interface : Native Win32 interface for Win NT & 2000

Used output format : User Defined Encoder
Selected bitrate : 896 kBit/s
Quality : High
Add ID3 tag : No
Command line compressor : C:\Program Files\Exact Audio Copy\FLAC\FLAC.EXE
Additional command line options : -V -8 -T "Date=%year%" -T "Genre=%genre%" %source%


TOC of the extracted CD

Track | Start | Length | Start sector | End sector
––––––––––––––––––––––––––––-
1 | 0:00.00 | 2:10.64 | 0 | 9813
2 | 2:10.64 | 3:13.45 | 9814 | 24333
3 | 5:24.34 | 2:33.21 | 24334 | 35829
4 | 7:57.55 | 2:45.51 | 35830 | 48255
5 | 10:43.31 | 6:47.23 | 48256 | 78803
6 | 17:30.54 | 2:44.01 | 78804 | 91104
7 | 20:14.55 | 3:17.46 | 91105 | 105925
8 | 23:32.26 | 3:34.20 | 105926 | 121995
9 | 27:06.46 | 3:35.59 | 121996 | 138179
10 | 30:42.30 | 3:43.20 | 138180 | 154924
11 | 34:25.50 | 4:13.67 | 154925 | 173966
12 | 38:39.42 | 4:03.36 | 173967 | 192227
13 | 42:43.03 | 2:48.64 | 192228 | 204891
14 | 45:31.67 | 3:03.45 | 204892 | 218661
15 | 48:35.37 | 5:51.55 | 218662 | 245041
16 | 54:27.17 | 1:53.12 | 245042 | 253528


Range status and errors

Selected range

Filename D:\The_Smiths-Complete-(Remastered_Box_Set)-8CD-2011\CD6-Hatful_Of_Hollow\CDImage.wav

Peak level 100.0 %
Extraction speed 7.1 X
Range quality 100.0 %
Test CRC DEEA8DAA
Copy CRC DEEA8DAA
Copy OK

No errors occurred


AccurateRip summary

Track 1 accurately ripped (confidence 24) [E06BF8FB] (AR v2)
Track 2 accurately ripped (confidence 24) [CC87222C] (AR v2)
Track 3 accurately ripped (confidence 24) [E461DE45] (AR v2)
Track 4 accurately ripped (confidence 24) [3469D921] (AR v2)
Track 5 accurately ripped (confidence 25) [AB536F95] (AR v2)
Track 6 accurately ripped (confidence 24) [D99A3BD2] (AR v2)
Track 7 accurately ripped (confidence 24) [679D5315] (AR v2)
Track 8 accurately ripped (confidence 24) [EA9FE836] (AR v2)
Track 9 accurately ripped (confidence 24) [061DF88A] (AR v2)
Track 10 accurately ripped (confidence 24) [074EF747] (AR v2)
Track 11 accurately ripped (confidence 24) [4CC5FD6D] (AR v2)
Track 12 accurately ripped (confidence 23) [CF28A78D] (AR v2)
Track 13 accurately ripped (confidence 24) [32164ECB] (AR v2)
Track 14 accurately ripped (confidence 24) [75A34C49] (AR v2)
Track 15 accurately ripped (confidence 24) [A5CC2BA8] (AR v2)
Track 16 accurately ripped (confidence 24) [4D6A4DB4] (AR v2)

All tracks accurately ripped

End of status report

–– CUETools DB Plugin V2.1.3

[CTDB TOCID: eBNMdKGhakBayuDqrN8o._Gjygo-] found, Submit result: eBNMdKGhakBayuDqrN8o._Gjygo- has been confirmed
[7a3bcd40] (53/53) Accurately ripped


==== Log checksum 1D05C8E5549FC28E1E69D1268A23E76739BD46C8DB6FFEAD36581D43397B4149 ====


[CUETools log; Date: 30.03.2020 15:57:28; Version: 2.1.4]
[AccurateRip ID: 00200152-01866494-d30d3410] found.
Track [ CRC | V2 ] Status
01 [1428ccd4|e06bf8fb] (034+200/261) Accurately ripped
02 [17e16bb0|cc87222c] (033+200/260) Accurately ripped
03 [4fe19ce0|e461de45] (033+200/260) Accurately ripped
04 [57a90d92|3469d921] (033+200/260) Accurately ripped
05 [8217f85d|ab536f95] (033+200/260) Accurately ripped
06 [3630292b|d99a3bd2] (033+200/260) Accurately ripped
07 [97fd7a7a|679d5315] (033+200/260) Accurately ripped
08 [3afcce7e|ea9fe836] (033+200/259) Accurately ripped
09 [54e40f56|061df88a] (033+200/258) Accurately ripped
10 [72e3ed22|074ef747] (033+200/260) Accurately ripped
11 [7020d651|4cc5fd6d] (033+200/260) Accurately ripped
12 [dad6c66f|cf28a78d] (032+200/259) Accurately ripped
13 [0202f9af|32164ecb] (033+200/260) Accurately ripped
14 [4fe86ed5|75a34c49] (034+200/261) Accurately ripped
15 [31e4bb24|a5cc2ba8] (033+200/263) Accurately ripped
16 [f63f3830|4d6a4db4] (033+200/259) Accurately ripped
Offsetted by -6:
01 [a7baaa1d] (002/261) Accurately ripped
02 [61143cb5] (002/260) Accurately ripped
03 [8c49e7b4] (002/260) Accurately ripped
04 [975c0897] (002/260) Accurately ripped
05 [c4b8ba0c] (002/260) Accurately ripped
06 [08374b95] (002/260) Accurately ripped
07 [425161c7] (002/260) Accurately ripped
08 [0f3a0b32] (002/259) Accurately ripped
09 [3fac2ec2] (002/258) Accurately ripped
10 [65e1198a] (002/260) Accurately ripped
11 [5dad4db3] (002/260) Accurately ripped
12 [54cd03ae] (002/259) Accurately ripped
13 [e8e933d6] (002/260) Accurately ripped
14 [1c21e69a] (002/261) Accurately ripped
15 [4cc0733c] (002/263) Accurately ripped
16 [7b7e2944] (002/259) Accurately ripped
Offsetted by -36:
01 [128a3e82] (000/261) No match (V2 was not tested)
02 [a6f42e1a] (000/260) No match (V2 was not tested)
03 [9b4ca9fc] (000/260) No match (V2 was not tested)
04 [cda9a92d] (000/260) No match (V2 was not tested)
05 [ed3eeb4b] (000/260) No match (V2 was not tested)
06 [12e6c441] (000/260) No match (V2 was not tested)
07 [d193ec23] (000/260) No match (V2 was not tested)
08 [c7a0825b] (000/259) No match (V2 was not tested)
09 [aa93a80a] (000/258) No match (V2 was not tested)
10 [9c4c398a] (000/260) No match (V2 was not tested)
11 [af486f3d] (000/260) No match (V2 was not tested)
12 [ebf5c211] (000/259) No match (V2 was not tested)
13 [3671f044] (000/260) No match (V2 was not tested)
14 [bfa02ce4] (000/261) No match (V2 was not tested)
15 [d14ab390] (000/263) No match (V2 was not tested)
16 [1624de1d] (000/259) No match (V2 was not tested)

Track Peak [ CRC32 ] [W/O NULL] [ LOG ]
– 100,0 [DEEA8DAA] [CFB3D2A7] CRC32
01 94,1 [A435B8B6] [1580078B]
02 95,5 [F4ED3320] [4D136919]
03 98,9 [6A60F118] [CF54F402]
04 99,9 [CB97D546] [49182857]
05 92,6 [738311B8] [30A5C132]
06 98,9 [270F8D6B] [D85FE98B]
07 95,5 [25838D89] [8BF262AF]
08 98,9 [B6A7C1D5] [AA713F4A]
09 89,1 [7A0F5FB6] [9B42138D]
10 100,0 [7510A1AE] [6C087FCC]
11 98,9 [66AE2C9A] [909AD5C1]
12 97,7 [93E1FBFB] [2FF538AE]
13 98,8 [170CA19F] [5B13E1F8]
14 84,1 [6DB450C2] [6115FFEC]
15 96,6 [C5457F35] [713DA9CE]
16 89,7 [BF38814B] [D01C757E]


The Smiths - Complete (2011) [8CD Box set]

Tracklist CD07. 1987 - The World Won't Listen:

01. Panic [2:21]
02. Ask [3:16]
03. London [2:07]
04. Bigmouth Strikes Again [3:13]
05. Shakespeare’s Sister [2:09]
06. There Is A Light That Never Goes Out [3:48]
07. Shoplifters Of The World Unite [2:58]
08. The Boy With The Thorn In His Side [3:18]
09. Money Changes Everything [4:41]
10. Asleep [4:10]
11. Unloveable [3:56]
12. Half a Person [3:36]
13. Stretch Out and Wait [2:44]
14. That Joke Isn’t Funny Anymore [3:48]
15. Oscillate Wildly [3:27]
16. You Just Haven’t Earned It Yet, Baby [3:31]
17. Rubber Ring [3:48]
18. Golden Lights [2:41]

Exact Audio Copy V1.0 beta 3 from 29. August 2011

EAC extraction logfile from 23. April 2013, 23:09

The Smiths / Complete

Used drive : PIONEER BD-RW BDR-207M Adapter: 4 ID: 0

Read mode : Secure
Utilize accurate stream : Yes
Defeat audio cache : Yes
Make use of C2 pointers : No

Read offset correction : 667
Overread into Lead-In and Lead-Out : No
Fill up missing offset samples with silence : Yes
Delete leading and trailing silent blocks : No
Null samples used in CRC calculations : Yes
Used interface : Native Win32 interface for Win NT & 2000

Used output format : User Defined Encoder
Selected bitrate : 896 kBit/s
Quality : High
Add ID3 tag : No
Command line compressor : C:\Program Files\Exact Audio Copy\FLAC\FLAC.EXE
Additional command line options : -V -8 -T "Date=%year%" -T "Genre=%genre%" %source%


TOC of the extracted CD

Track | Start | Length | Start sector | End sector
––––––––––––––––––––––––––––-
1 | 0:00.00 | 2:21.36 | 0 | 10610
2 | 2:21.36 | 3:16.26 | 10611 | 25336
3 | 5:37.62 | 2:07.19 | 25337 | 34880
4 | 7:45.06 | 3:13.50 | 34881 | 49405
5 | 10:58.56 | 2:09.07 | 49406 | 59087
6 | 13:07.63 | 4:04.37 | 59088 | 77424
7 | 17:12.25 | 2:57.73 | 77425 | 90772
8 | 20:10.23 | 3:18.23 | 90773 | 105645
9 | 23:28.46 | 4:41.25 | 105646 | 126745
10 | 28:09.71 | 4:10.45 | 126746 | 145540
11 | 32:20.41 | 3:56.03 | 145541 | 163243
12 | 36:16.44 | 3:36.48 | 163244 | 179491
13 | 39:53.17 | 2:44.72 | 179492 | 191863
14 | 42:38.14 | 3:48.00 | 191864 | 208963
15 | 46:26.14 | 3:27.58 | 208964 | 224546
16 | 49:53.72 | 3:31.04 | 224547 | 240375
17 | 53:25.01 | 3:48.66 | 240376 | 257541
18 | 57:13.67 | 2:41.69 | 257542 | 269685


Range status and errors

Selected range

Filename D:\The_Smiths-Complete-(Remastered_Box_Set)-8CD-2011\CD7-The_World_Wont_Listen\CDImage.wav

Peak level 96.5 %
Extraction speed 7.5 X
Range quality 100.0 %
Test CRC A47BEDEC
Copy CRC A47BEDEC
Copy OK

No errors occurred


AccurateRip summary

Track 1 accurately ripped (confidence 22) [039D4F09] (AR v2)
Track 2 accurately ripped (confidence 23) [85BAAE03] (AR v2)
Track 3 accurately ripped (confidence 23) [D66B48C2] (AR v2)
Track 4 accurately ripped (confidence 23) [FC860E45] (AR v2)
Track 5 accurately ripped (confidence 23) [287C7B57] (AR v2)
Track 6 accurately ripped (confidence 23) [070F6576] (AR v2)
Track 7 accurately ripped (confidence 23) [B9DFFFB3] (AR v2)
Track 8 accurately ripped (confidence 23) [B3891B0A] (AR v2)
Track 9 accurately ripped (confidence 23) [012F3CA6] (AR v2)
Track 10 accurately ripped (confidence 23) [7C9EA930] (AR v2)
Track 11 accurately ripped (confidence 23) [1787C216] (AR v2)
Track 12 accurately ripped (confidence 23) [60FE8B2E] (AR v2)
Track 13 accurately ripped (confidence 23) [D8E400BE] (AR v2)
Track 14 accurately ripped (confidence 23) [61EA3E74] (AR v2)
Track 15 accurately ripped (confidence 23) [A1A364E7] (AR v2)
Track 16 accurately ripped (confidence 23) [743B03B7] (AR v2)
Track 17 accurately ripped (confidence 23) [F4B8A286] (AR v2)
Track 18 accurately ripped (confidence 23) [F0B831CC] (AR v2)

All tracks accurately ripped

End of status report

–– CUETools DB Plugin V2.1.3

[CTDB TOCID: o32_EMVJfjhZYMkILLKWJdY42rQ-] found, Submit result: o32_EMVJfjhZYMkILLKWJdY42rQ- has been confirmed
[3f8622da] (47/47) Accurately ripped


==== Log checksum A54593C7EC33AB7719DFBFACB4989AABE52FD960DFA43FA4BD02ED631B86EBE3 ====


[CUETools log; Date: 30.03.2020 16:01:42; Version: 2.1.4]
[AccurateRip ID: 00258df1-01fed38a-030e0b12] found.
Track [ CRC | V2 ] Status
01 [1d5c66e0|039d4f09] (034+200/239) Accurately ripped
02 [b47f1c78|85baae03] (036+200/241) Accurately ripped
03 [e29977f4|d66b48c2] (035+200/240) Accurately ripped
04 [8db7f237|fc860e45] (035+200/240) Accurately ripped
05 [9717da80|287c7b57] (035+200/240) Accurately ripped
06 [30af2728|070f6576] (035+200/240) Accurately ripped
07 [60da23f1|b9dfffb3] (035+200/240) Accurately ripped
08 [8d0fe613|b3891b0a] (035+200/240) Accurately ripped
09 [11d252e2|012f3ca6] (035+200/240) Accurately ripped
10 [3e30abb2|7c9ea930] (035+200/240) Accurately ripped
11 [c55f0566|1787c216] (035+200/240) Accurately ripped
12 [e16bbf09|60fe8b2e] (034+200/239) Accurately ripped
13 [bf7610d8|d8e400be] (034+200/239) Accurately ripped
14 [266d900e|61ea3e74] (035+200/240) Accurately ripped
15 [981f266a|a1a364e7] (035+200/240) Accurately ripped
16 [7766dacc|743b03b7] (035+200/240) Accurately ripped
17 [439da417|f4b8a286] (035+200/240) Accurately ripped
18 [967459a6|f0b831cc] (036+200/241) Accurately ripped
Offsetted by -6:
01 [76cb567d] (000/239) No match (V2 was not tested)
02 [cdd85df5] (000/241) No match (V2 was not tested)
03 [92a11b9d] (000/240) No match (V2 was not tested)
04 [1e721512] (000/240) No match (V2 was not tested)
05 [a00a178b] (000/240) No match (V2 was not tested)
06 [c8ed94f8] (000/240) No match (V2 was not tested)
07 [88901575] (000/240) No match (V2 was not tested)
08 [73ba0770] (000/240) No match (V2 was not tested)
09 [b423bd46] (000/240) No match (V2 was not tested)
10 [5f7118cc] (000/240) No match (V2 was not tested)
11 [c7bded04] (000/240) No match (V2 was not tested)
12 [dd196244] (000/239) No match (V2 was not tested)
13 [035d6a32] (000/239) No match (V2 was not tested)
14 [4a0d9d0c] (000/240) No match (V2 was not tested)
15 [719780ab] (000/240) No match (V2 was not tested)
16 [c67aa1fd] (000/240) No match (V2 was not tested)
17 [13dbad80] (000/240) No match (V2 was not tested)
18 [6de89be0] (000/241) No match (V2 was not tested)

Track Peak [ CRC32 ] [W/O NULL] [ LOG ]
– 96,5 [A47BEDEC] [7F33408F] CRC32
01 88,1 [D70C5F8A] [984F0188]
02 86,1 [F45BD6BA] [BEA5CCD2]
03 88,1 [7E2150BF] [75306C97]
04 87,1 [477E05D8] [67BAC047]
05 87,5 [D6719AD6] [DEBE82C9]
06 88,1 [263E0AC9] [B383733C]
07 88,1 [AF549E45] [E7C62FF0]
08 89,1 [6AA1FB47] [F7FEAF3C]
09 91,2 [520682DF] [1B5E2C40]
10 72,4 [45010872] [1F06F507]
11 90,2 [22326F83] [F87FA4F0]
12 89,1 [F34BC755] [AE037874]
13 90,2 [86984993] [5BB66779]
14 88,1 [8EE321BA] [94821D19]
15 88,1 [38F7C532] [96A6D761]
16 92,2 [9F1E2115] [084C4802]
17 91,3 [4FA81E05] [20ABF8C4]
18 96,5 [2B283CDB] [E7A30057]


The Smiths - Complete (2011) [8CD Box set]

Tracklist CD08. 1987 - Louder Than Bombs:

01. Is It Really So Strange? [3:06]
02. Sheila Take a Bow [2:42]
03. Shoplifters of the World Unite [2:59]
04. Sweet and Tender Hooligan [3:36]
05. Half a Person [3:37]
06. London [3:48]
07. Panic [2:21]
08. Girl Afraid [2:46]
09. Shakespeare’s Sister [2:09]
10. William, It Was Really Nothing [2:10]
11. You Just Haven’t Earned It Yet, Baby [3:34]
12. Heaven Knows I’m Miserable Now [3:36]
13. Ask [3:17]
14. Golden Lights [2:41]
15. Oscillate Wildly [3:27]
16. These Things Take Time [2:23]
17. Rubber Ring [3:49]
18. Back To The Old House [3:04]
19. Hand in Glove [3:17]
20. Stretch Out and Wait [2:39]
21. Please Please Please Let Me Get What I Want [1:52]
22. This Night Has Opened My Eyes [3:41]
23. Unloveable [3:56]
24. Asleep [4:12]

Exact Audio Copy V1.0 beta 3 from 29. August 2011

EAC extraction logfile from 23. April 2013, 22:45

The Smiths / Complete

Used drive : PIONEER BD-RW BDR-207M Adapter: 4 ID: 0

Read mode : Secure
Utilize accurate stream : Yes
Defeat audio cache : Yes
Make use of C2 pointers : No

Read offset correction : 667
Overread into Lead-In and Lead-Out : No
Fill up missing offset samples with silence : Yes
Delete leading and trailing silent blocks : No
Null samples used in CRC calculations : Yes
Used interface : Native Win32 interface for Win NT & 2000

Used output format : User Defined Encoder
Selected bitrate : 896 kBit/s
Quality : High
Add ID3 tag : No
Command line compressor : C:\Program Files\Exact Audio Copy\FLAC\FLAC.EXE
Additional command line options : -V -8 -T "Date=%year%" -T "Genre=%genre%" %source%


TOC of the extracted CD

Track | Start | Length | Start sector | End sector
––––––––––––––––––––––––––––-
1 | 0:00.00 | 3:06.57 | 0 | 14006
2 | 3:06.57 | 2:42.10 | 14007 | 26166
3 | 5:48.67 | 2:59.09 | 26167 | 39600
4 | 8:48.01 | 3:36.58 | 39601 | 55858
5 | 12:24.59 | 3:37.05 | 55859 | 72138
6 | 16:01.64 | 2:06.74 | 72139 | 81662
7 | 18:08.63 | 2:21.21 | 81663 | 92258
8 | 20:30.09 | 2:46.00 | 92259 | 104708
9 | 23:16.09 | 2:09.14 | 104709 | 114397
10 | 25:25.23 | 2:10.41 | 114398 | 124188
11 | 27:35.64 | 3:34.30 | 124189 | 140268
12 | 31:10.19 | 3:36.33 | 140269 | 156501
13 | 34:46.52 | 3:17.47 | 156502 | 171323
14 | 38:04.24 | 2:41.44 | 171324 | 183442
15 | 40:45.68 | 3:27.31 | 183443 | 198998
16 | 44:13.24 | 2:23.64 | 198999 | 209787
17 | 46:37.13 | 3:49.12 | 209788 | 226974
18 | 50:26.25 | 3:04.41 | 226975 | 240815
19 | 53:30.66 | 3:17.16 | 240816 | 255606
20 | 56:48.07 | 2:39.48 | 255607 | 267579
21 | 59:27.55 | 1:52.24 | 267580 | 276003
22 | 61:20.04 | 3:41.68 | 276004 | 292646
23 | 65:01.72 | 3:56.53 | 292647 | 310399
24 | 68:58.50 | 4:12.04 | 310400 | 329303


Range status and errors

Selected range

Filename D:\The_Smiths-Complete-(Remastered_Box_Set)-8CD-2011\CD8-Louder_Than_Bombs\CDImage.wav

Peak level 99.9 %
Extraction speed 4.9 X
Range quality 99.9 %
Test CRC 1964721E
Copy CRC 1964721E
Copy OK

No errors occurred


AccurateRip summary

Track 1 accurately ripped (confidence 23) [1A7CEBFC] (AR v2)
Track 2 accurately ripped (confidence 23) [F7D253AB] (AR v2)
Track 3 accurately ripped (confidence 23) [942AB437] (AR v2)
Track 4 accurately ripped (confidence 23) [C2FCC321] (AR v2)
Track 5 accurately ripped (confidence 23) [642906C1] (AR v2)
Track 6 accurately ripped (confidence 23) [ED8FD803] (AR v2)
Track 7 accurately ripped (confidence 23) [AE96D953] (AR v2)
Track 8 accurately ripped (confidence 23) [09DF3EB9] (AR v2)
Track 9 accurately ripped (confidence 23) [0BF2DCB8] (AR v2)
Track 10 accurately ripped (confidence 23) [46EEB209] (AR v2)
Track 11 accurately ripped (confidence 23) [96DBBE88] (AR v2)
Track 12 accurately ripped (confidence 23) [6CE0FBE6] (AR v2)
Track 13 accurately ripped (confidence 23) [5C290FEA] (AR v2)
Track 14 accurately ripped (confidence 23) [5203D4B4] (AR v2)
Track 15 accurately ripped (confidence 23) [462E6B75] (AR v2)
Track 16 accurately ripped (confidence 23) [7CC2B1DF] (AR v2)
Track 17 accurately ripped (confidence 23) [E2DC7B01] (AR v2)
Track 18 accurately ripped (confidence 23) [FF2682A0] (AR v2)
Track 19 accurately ripped (confidence 23) [022CAD9E] (AR v2)
Track 20 accurately ripped (confidence 23) [11A4E0F7] (AR v2)
Track 21 accurately ripped (confidence 23) [A6D5EB88] (AR v2)
Track 22 accurately ripped (confidence 23) [BF4F60CC] (AR v2)
Track 23 accurately ripped (confidence 23) [65B21E80] (AR v2)
Track 24 accurately ripped (confidence 22) [69335C30] (AR v2)

All tracks accurately ripped

End of status report

–– CUETools DB Plugin V2.1.3

[CTDB TOCID: BZApefTJCoII_WkPVkhWlmuyKHs-] found, Submit result: BZApefTJCoII_WkPVkhWlmuyKHs- has been confirmed
[91bc6f91] (49/49) Accurately ripped


==== Log checksum A28E25C44DDCAB0BEF0E724E262F74764BB59EE0082FCB67231867FBFC6F774F ====


[CUETools log; Date: 30.03.2020 16:05:53; Version: 2.1.4]
[AccurateRip ID: 003ccd09-04207174-63112618] found.
Track [ CRC | V2 ] Status
01 [5c281939|1a7cebfc] (033+200/257) Accurately ripped
02 [0d0ebcd5|f7d253ab] (033+200/257) Accurately ripped
03 [253df8c9|942ab437] (033+200/257) Accurately ripped
04 [a952f4f9|c2fcc321] (033+200/257) Accurately ripped
05 [dc0e9fa5|642906c1] (033+200/256) Accurately ripped
06 [ed0558a4|ed8fd803] (032+200/256) Accurately ripped
07 [1e7e02fd|ae96d953] (033+200/257) Accurately ripped
08 [e99a0bb1|09df3eb9] (032+200/256) Accurately ripped
09 [49f2c4ac|0bf2dcb8] (033+200/257) Accurately ripped
10 [b8a6a900|46eeb209] (034+200/258) Accurately ripped
11 [5643fbd3|96dbbe88] (033+200/257) Accurately ripped
12 [ad686489|6ce0fbe6] (032+200/256) Accurately ripped
13 [3a293143|5c290fea] (032+200/256) Accurately ripped
14 [c0e15345|5203d4b4] (033+200/256) Accurately ripped
15 [18c21853|462e6b75] (032+200/255) Accurately ripped
16 [f2a52fe6|7cc2b1df] (032+200/255) Accurately ripped
17 [ae049a78|e2dc7b01] (033+200/256) Accurately ripped
18 [33aceaed|ff2682a0] (032+200/255) Accurately ripped
19 [b7029a7c|022cad9e] (032+200/256) Accurately ripped
20 [94a2c568|11a4e0f7] (032+200/256) Accurately ripped
21 [6767a4c5|a6d5eb88] (033+200/257) Accurately ripped
22 [a894ab41|bf4f60cc] (033+200/256) Accurately ripped
23 [d355f735|65b21e80] (032+200/255) Accurately ripped
24 [4cf49dd1|69335c30] (033+200/257) Accurately ripped
Offsetted by -36:
01 [3df861a5] (000/257) No match (V2 was not tested)
02 [0f7a7edd] (000/257) No match (V2 was not tested)
03 [7fba0241] (000/257) No match (V2 was not tested)
04 [458f4249] (000/257) No match (V2 was not tested)
05 [4b3a5415] (000/256) No match (V2 was not tested)
06 [906d2cd0] (000/256) No match (V2 was not tested)
07 [527fb6bd] (000/257) No match (V2 was not tested)
08 [3aad7e5d] (000/256) No match (V2 was not tested)
09 [8d31692c] (000/257) No match (V2 was not tested)
10 [9a266b29] (000/258) No match (V2 was not tested)
11 [1655cdf2] (000/257) No match (V2 was not tested)
12 [44d4825d] (000/256) No match (V2 was not tested)
13 [8ff3bef7] (000/256) No match (V2 was not tested)
14 [a3c35ce9] (000/256) No match (V2 was not tested)
15 [a0710d67] (000/255) No match (V2 was not tested)
16 [5086c446] (000/255) No match (V2 was not tested)
17 [b5ea10ec] (000/256) No match (V2 was not tested)
18 [fe9ebc95] (000/255) No match (V2 was not tested)
19 [ac70ad58] (000/256) No match (V2 was not tested)
20 [81d56fac] (000/256) No match (V2 was not tested)
21 [f75415bd] (000/257) No match (V2 was not tested)
22 [7f3c1275] (000/256) No match (V2 was not tested)
23 [710348a9] (000/255) No match (V2 was not tested)
24 [443abb15] (000/257) No match (V2 was not tested)
Offsetted by -6:
01 [d720254b] (000/257) No match (V2 was not tested)
02 [b820b281] (000/257) No match (V2 was not tested)
03 [09a7fa5d] (000/257) No match (V2 was not tested)
04 [18b25731] (000/257) No match (V2 was not tested)
05 [1940930d] (000/256) No match (V2 was not tested)
06 [08415156] (000/256) No match (V2 was not tested)
07 [7c7e4b9d] (000/257) No match (V2 was not tested)
08 [a1c7f423] (000/256) No match (V2 was not tested)
09 [aa7d356c] (000/257) No match (V2 was not tested)
10 [89197df2] (000/258) No match (V2 was not tested)
11 [a0d74983] (000/257) No match (V2 was not tested)
12 [714fbed7] (000/256) No match (V2 was not tested)
13 [732048e1] (000/256) No match (V2 was not tested)
14 [3c06ff8b] (000/256) No match (V2 was not tested)
15 [84b49681] (000/255) No match (V2 was not tested)
16 [57a01df6] (000/255) No match (V2 was not tested)
17 [da002e36] (000/256) No match (V2 was not tested)
18 [2ad53889] (000/255) No match (V2 was not tested)
19 [0a94f2f6] (000/256) No match (V2 was not tested)
20 [3c2b371e] (000/256) No match (V2 was not tested)
21 [54b9b799] (000/257) No match (V2 was not tested)
22 [7705e71f] (000/256) No match (V2 was not tested)
23 [18482f73] (000/255) No match (V2 was not tested)
24 [762af807] (000/257) No match (V2 was not tested)

Track Peak [ CRC32 ] [W/O NULL] [ LOG ]
– 99,9 [1964721E] [E7CEC8CC] CRC32
01 98,8 [9BBEC909] [71F65BF6]
02 93,3 [56188EB5] [3A1F856D]
03 98,8 [119497DE] [4FBAF6EA]
04 98,9 [73BBE41D] [252CB0A3]
05 98,8 [0822E721] [04448786]
06 98,9 [D7F12E9B] [E67FCD73]
07 98,8 [18FDA394] [A48D7944]
08 98,9 [C13ADF27] [82E60C2B]
09 98,2 [B9E392E0] [FA6B3048]
10 98,8 [62CF9712] [DF3C5514]
11 97,6 [5B311CA8] [F50A3A63]
12 98,8 [6E6C3505] [AC0E81B4]
13 96,6 [E096C8BF] [34E3C2D7]
14 99,9 [6BFFA47B] [EAF018C4]
15 98,8 [8B08832F] [A1EF117F]
16 94,4 [2563174D] [47A7EF4E]
17 99,0 [23576C23] [687417D0]
18 95,5 [E3157CD8] [A348D57E]
19 98,8 [19044787] [6B7CB8AF]
20 96,6 [65360194] [10B23707]
21 97,2 [4F7D1A24] [70BEDDC4]
22 98,9 [64F43471] [AAB2E8D2]
23 98,8 [BFEA5ECB] [1D555C98]
24 78,5 [C0497384] [3B09B4EE]


The Smiths - Complete (2011) [8CD Box set]

All thanks go to the original releaser

Download The Smiths - Complete (2011):