Tags
Language
Tags

The Undertones - An Anthology (2008) 2CDs

Posted By: Designol
The Undertones - An Anthology (2008) 2CDs

The Undertones - An Anthology (2008) 2CDs
EAC | FLAC | Image (Cue&Log) ~ 900 Mb | Mp3 (CBR320) ~ 341 Mb | Covers included
Label: Salvo, Ardeck | # SALVODCD209 | Time: 02:25:25
British Punk, Punk Rock, Pop Punk, New Wave, Power Pop

This Anthology showcases the very best of The Undertones & includes 27 previously unreleased demos, alternate takes, session & live tracks.

The Undertones slam-bang punk-pop drew its strength from one simple fact: you didn't need a secret handshake to enjoy it. John and Damian O'Neill mated infectious guitar hooks to '60s garage, '70s glam rock, and Feargal Sharkey's signature vocal quaver. Those qualities came together on their breakout hit "Teenage Kicks," whose simplicity harked back to '60s ideals of when the song was king.

The Undertones formed in Derry, Northern Ireland, in 1975. However, they avoided references to their hometown's sectarian strife for "more songs about chocolate and girls," as their second album phrased it. But gigs were scarce in a scene dominated by show bands, and the boys felt sufficiently discouraged to consider quitting – until Belfast record shop owner Terry Hooley released the Teenage Kicks EP on his Good Vibrations label in September 1978.

The song captivated Britain's top DJ, John Peel; suddenly, as Damian O'Neill recalled, people were asking for autographs at the job. The frenzy attracted a deal from Sire Records, which released the band's rough-and-ready debut in April 1979. That fall, the Undertones earned kudos as a support act on the Clash's American tour. So did Hypnotised, which showed a band already straining against the Ramonesy thrust of earlier singles like "Jimmy Jimmy" and "My Perfect Cousin."

However, the Undertones entertained some notions of growing up, which started when they switched to EMI. Positive Touch (1981) unveiled exotic instrumental flourishes like horns, slide guitars, tack pianos, and even xylophones; its brief residency in the U.K. Top 50 provided the first inklings of trouble.

The band returned after a lengthy lay-off with The Sin of Pride (1983), which flirted with '60s soul and psychedelia. But its singles – including a slick remake of the Isley Brothers' "Got to Have You Back" and the grungy "Love Parade" – made little impression, and the album peaked at number 46 on the U.K. charts. Sensing a thankless competition with their younger, cheekier selves, the Undertones split up in the summer of 1983 after a series of summer festival gigs.

Sharkey launched a short-lived solo career, while John and Damian O'Neill won critical plaudits – but little sales – for their tough-minded political band, That Petrol Emotion. Hopes of re-forming the original lineup for John Peel's 50th birthday fell apart after the O'Neills' father died. The band mulled an offer for five gigs in 1994, but blamed Sharkey's skittishness for scuttling the deal.

The boys skirted their former frontman's reluctance by recruiting Derry's Paul McLoone for two hometown gigs in 1999, and haven't looked back. The reissues kept coming, while the Teenage Kicks (2001) documentary gave fans a fond review of the band's history. Get What You Need, the first new album in 20 years, earned a thumbs-up from fans on its September 2003 release. Twenty-five years after "Teenage Kicks" put the Undertones on the map, the pride of Derry seem more ubiquitous than ever.

Ralph Heibutzki, Allmusic.com

This is a terrific compilation, not only for those listeners who are new to the music of The Undertones, but for longtime fans too. As noted in Amazon's main review, first disc of this 2-CD set is pretty much a "Best Of' collection with 29 tracks, ranging from what the label calls the "immaculate guitar noise" of early singles such as "Teenage Kicks" and "Here Comes the Summer" to more complex pop and rock songs like "Julie Ocean" and "It's Going to Happen." Man, listening to these gems again after all these years, brings a big smile to my face.

The second disc consists of previously unreleased tracks, including a bunch of live recordings, some demos, rehearsals, and "rough mixes." And be forewarned; some of these rarities are indeed quite "rough" in sound quality. From what it says in the liner notes, the band's manager found a lot of these unreleased tracks "mainly from old cassettes", so remastered jewels they are not. But hey, I don't think the Undertones ever set out to make pristine audiophile quality records, so the rough nature of some of the tracks on Disc 2 is not a big distraction, at least not for me. Instead, those hallmark qualities that made the Undertones so charming are fully intact; short, catchy songs packed with hooks and unbridled energy. Call it pop-punk, power-pop, or whatever, it's just fun and uplifting music that still holds up after all these years.

Review by Donald E. Gilliland (Top Contributor: Rock Music), Amazon.com

The Undertones at Allmusic
The Undertones Website
The Undertones at Wiki

Tracklist:

CD1:

01. Jimmy Jimmy (2:43)
02. She's A Runaround (1:50)
03. You've Got My Number (2:39)
04. Girls That Don't Talk (2:26)
05. Listening In (2:25)
06. It's Going To Happen (3:38)
07. Wednesday Week (2:16)
08. Billy's Third (1:59)
09. Girls Don't Like It (2:18)
10. Crisis Of Mine (2:25)
11. Teenage Kicks (2:27)
12. There Goes Norman (2:26)
13. The Love Parade (5:05)
14. When Saturday Comes (2:52)
15. Mars Bars (2:07)
16. Family Entertainment (2:38)
17. Tearproof (2:21)
18. Let's Talk About Girls (3:37)
19. Jump Boys (2:43)
20. Julie Ocean (3:34)
21. Male Model (1:55)
22. Top Twenty (2:13)
23. True Confessions (1:54)
24. My Perfect Cousin (2:37)
25. Beautiful Friend (3:24)
26. More Songs About Chocolate And Girls (2:41)
27. Soul Seven (2:35)
28. Here Comes The Summer (1:43)
29. I Know A Girl (2:38)

CD2:

01. My Perfect Cousin (Demo) (2:35)
02. You've Got My Number (Demo) (1:52)
03. Girls That Don't Talk (Demo) (2:31)
04. Nine Times Out Of Ten (Demo) (2:35)
05. Get Over You (Live) (2:40)
06. Wrong Way (Live) (1:23)
07. Mars Bars (Live) (2:06)
08. Listening In (Live) (2:26)
09. I Don't Wanna See You Again (Bootleg Demo) (0:48)
10. Do The Fast (Bootleg Demo) (2:17)
11. Girls Don't Like It (Demo) (1:48)
12. I Gotta Getta (Demo) (1:56)
13. Teenage Kicks (Demo) (2:09)
14. Emergency Cases (Demo) (1:51)
15. Get Over You (Demo) (3:13)
16. It's Going To Happen (Live) (3:39)
17. The Positive Touch (Live) (2:24)
18. Luxury (Demo) (3:27)
19. Party Party (Demo) (3:01)
20. Beautiful Friend (T.S.O.P. Session) (4:09)
21. The Love Parade (Demo) (3:41)
22. Stand So Close (T.S.O.P. Session) (3:28)
23. Bittersweet (Demo) (3:40)
24. Soul Seven (Demo) (2:37)
25. Turning Blue (Demo) (2:23)
26. Window Shopping For New Clothes (Demo) (2:19)
27. Cher O Bowlies (Rehersal) (2:46)



Exact Audio Copy V0.99 prebeta 3 from 28. July 2007

EAC extraction logfile from 22. November 2008, 20:34

the undertones / an anthology

Used drive : MATSHITADVD-RAM UJ-85JS Adapter: 0 ID: 1

Read mode : Secure
Utilize accurate stream : Yes
Defeat audio cache : Yes
Make use of C2 pointers : No

Read offset correction : 102
Overread into Lead-In and Lead-Out : No
Fill up missing offset samples with silence : Yes
Delete leading and trailing silent blocks : No
Null samples used in CRC calculations : Yes
Used interface : Native Win32 interface for Win NT & 2000

Used output format : User Defined Encoder
Selected bitrate : 1024 kBit/s
Quality : High
Add ID3 tag : No
Command line compressor : C:\Program Files\Exact Audio Copy\FLAC\FLAC.EXE
Additional command line options : –best -V -T "DATE=%y" -T "GENRE=%m" %s


TOC of the extracted CD

Track | Start | Length | Start sector | End sector
––––––––––––––––––––––––––––-
1 | 0:00.00 | 2:42.52 | 0 | 12201
2 | 2:42.52 | 1:49.14 | 12202 | 20390
3 | 4:31.66 | 2:38.07 | 20391 | 32247
4 | 7:09.73 | 2:25.43 | 32248 | 43165
5 | 9:35.41 | 2:24.26 | 43166 | 53991
6 | 11:59.67 | 3:37.15 | 53992 | 70281
7 | 15:37.07 | 2:15.43 | 70282 | 80449
8 | 17:52.50 | 1:58.62 | 80450 | 89361
9 | 19:51.37 | 2:17.24 | 89362 | 99660
10 | 22:08.61 | 2:24.71 | 99661 | 110531
11 | 24:33.57 | 2:26.14 | 110532 | 121495
12 | 26:59.71 | 2:25.71 | 121496 | 132441
13 | 29:25.67 | 5:04.73 | 132442 | 155314
14 | 34:30.65 | 2:51.35 | 155315 | 168174
15 | 37:22.25 | 2:06.57 | 168175 | 177681
16 | 39:29.07 | 2:37.39 | 177682 | 189495
17 | 42:06.46 | 2:20.05 | 189496 | 200000
18 | 44:26.51 | 3:36.16 | 200001 | 216216
19 | 48:02.67 | 2:42.25 | 216217 | 228391
20 | 50:45.17 | 3:33.30 | 228392 | 244396
21 | 54:18.47 | 1:54.57 | 244397 | 253003
22 | 56:13.29 | 2:12.32 | 253004 | 262935
23 | 58:25.61 | 1:53.11 | 262936 | 271421
24 | 60:18.72 | 2:36.27 | 271422 | 283148
25 | 62:55.24 | 3:23.25 | 283149 | 298398
26 | 66:18.49 | 2:40.25 | 298399 | 310423
27 | 68:58.74 | 2:34.10 | 310424 | 321983
28 | 71:33.09 | 1:42.62 | 321984 | 329695
29 | 73:15.71 | 2:37.09 | 329696 | 341479


Range status and errors

Selected range

Filename D:\HQS rips\the undertones - an anthology.wav

Peak level 97.7 %
Range quality 100.0 %
Test CRC 235BEC99
Copy CRC 235BEC99
Copy OK

No errors occurred


AccurateRip summary

Track 1 not present in database
Track 2 not present in database
Track 3 not present in database
Track 4 not present in database
Track 5 not present in database
Track 6 not present in database
Track 7 not present in database
Track 8 not present in database
Track 9 not present in database
Track 10 not present in database
Track 11 not present in database
Track 12 not present in database
Track 13 not present in database
Track 14 not present in database
Track 15 not present in database
Track 16 not present in database
Track 17 not present in database
Track 18 not present in database
Track 19 not present in database
Track 20 not present in database
Track 21 not present in database
Track 22 not present in database
Track 23 not present in database
Track 24 not present in database
Track 25 not present in database
Track 26 not present in database
Track 27 not present in database
Track 28 not present in database
Track 29 not present in database

None of the tracks are present in the AccurateRip database

End of status report

[CUETools log; Date: 28.10.2021 0:58:41; Version: 2.1.7]
[CTDB TOCID: WKmRbIsx3LO6yQQ.bNgWNbMkdbU-] found.
Track | CTDB Status
1 | (57/57) Accurately ripped
2 | (57/57) Accurately ripped
3 | (57/57) Accurately ripped
4 | (57/57) Accurately ripped
5 | (57/57) Accurately ripped
6 | (57/57) Accurately ripped
7 | (57/57) Accurately ripped
8 | (57/57) Accurately ripped
9 | (57/57) Accurately ripped
10 | (57/57) Accurately ripped
11 | (57/57) Accurately ripped
12 | (57/57) Accurately ripped
13 | (57/57) Accurately ripped
14 | (57/57) Accurately ripped
15 | (57/57) Accurately ripped
16 | (57/57) Accurately ripped
17 | (57/57) Accurately ripped
18 | (57/57) Accurately ripped
19 | (55/57) Accurately ripped
20 | (57/57) Accurately ripped
21 | (57/57) Accurately ripped
22 | (57/57) Accurately ripped
23 | (57/57) Accurately ripped
24 | (56/57) Accurately ripped
25 | (56/57) Accurately ripped
26 | (54/57) Accurately ripped
27 | (52/57) Accurately ripped
28 | (52/57) Accurately ripped
29 | (52/57) Accurately ripped
[AccurateRip ID: 004e19b9-0657e4ac-ab11c91d] found.
Track [ CRC | V2 ] Status
01 [3c87c3a9|41e7f9d7] (12+10/39) Accurately ripped
02 [6c934378|45c017b4] (13+10/40) Accurately ripped
03 [0c298316|39397f23] (13+10/40) Accurately ripped
04 [f21f914b|1ec43c71] (13+10/40) Accurately ripped
05 [17897fba|359d9833] (13+10/40) Accurately ripped
06 [f8cec510|b412295d] (13+10/40) Accurately ripped
07 [752f65af|bfcad5a3] (13+10/40) Accurately ripped
08 [1daedbe5|747e72af] (13+10/40) Accurately ripped
09 [3f55ec06|56cb7b38] (13+10/40) Accurately ripped
10 [8581b324|f4dedd98] (13+11/41) Accurately ripped
11 [8c7feeea|dfd22a95] (13+11/41) Accurately ripped
12 [1b8e6f5d|86a100a2] (13+11/41) Accurately ripped
13 [e3e64d22|610dec36] (13+11/41) Accurately ripped
14 [d227df44|a74ea284] (13+11/41) Accurately ripped
15 [024ad32f|d1172b9e] (13+11/41) Accurately ripped
16 [877cea59|89ed06bb] (13+11/41) Accurately ripped
17 [face85b0|328b4be2] (13+11/41) Accurately ripped
18 [dfc58d87|a764f995] (13+11/41) Accurately ripped
19 [e449b011|62a81953] (12+11/36) Accurately ripped
20 [17a3cf17|2921c5e9] (13+11/41) Accurately ripped
21 [8333990e|552f7abc] (13+11/41) Accurately ripped
22 [d68c43a2|c3d067ac] (13+11/41) Accurately ripped
23 [3f0a6a38|dc8bfcaf] (13+11/41) Accurately ripped
24 [fa569f0c|8f679507] (12+12/41) Accurately ripped
25 [7734084b|f8a7e92e] (13+11/41) Accurately ripped
26 [6e06ba30|f9028902] (13+11/41) Accurately ripped
27 [251d5baf|105f526e] (12+11/40) Accurately ripped
28 [88dee36e|91f6eec8] (12+11/40) Accurately ripped
29 [c74b37b4|09be8a66] (12+11/40) Accurately ripped
Offsetted by -18:
01 [10630307] (05/39) Accurately ripped
02 [1c4858b3] (05/40) Accurately ripped
03 [aee4fd28] (05/40) Accurately ripped
04 [d6e5c332] (05/40) Accurately ripped
05 [95e5406e] (05/40) Accurately ripped
06 [aa237eeb] (05/40) Accurately ripped
07 [c2fb7020] (05/40) Accurately ripped
08 [7d4743ad] (05/40) Accurately ripped
09 [ebb052e3] (05/40) Accurately ripped
10 [e4a291b1] (05/41) Accurately ripped
11 [3ec0bf58] (05/41) Accurately ripped
12 [c70c7f7b] (05/41) Accurately ripped
13 [2191ddd6] (05/41) Accurately ripped
14 [702b1626] (05/41) Accurately ripped
15 [e5c8f203] (05/41) Accurately ripped
16 [30543eee] (05/41) Accurately ripped
17 [a9e1d629] (05/41) Accurately ripped
18 [938cb892] (05/41) Accurately ripped
19 [369ed34e] (04/36) Accurately ripped
20 [11769660] (05/41) Accurately ripped
21 [db9b7025] (05/41) Accurately ripped
22 [4a2dfc80] (05/41) Accurately ripped
23 [5befa117] (05/41) Accurately ripped
24 [ea21c503] (05/41) Accurately ripped
25 [312e0c9b] (05/41) Accurately ripped
26 [e4ced871] (05/41) Accurately ripped
27 [6ddeba1b] (05/40) Accurately ripped
28 [a3d4fb7f] (05/40) Accurately ripped
29 [72afd6bc] (05/40) Accurately ripped

Track Peak [ CRC32 ] [W/O NULL] [ LOG ]
– 97,7 [235BEC99] [DDA537FB] CRC32
01 97,7 [0898FD6B] [87A05933]
02 96,5 [020B8557] [973C2E3B]
03 90,9 [73496F57] [918EE079]
04 97,7 [8150AF75] [EFC7FCC8]
05 93,4 [D36CE791] [6E881B30]
06 97,7 [AA7F540B] [4E1BF161]
07 97,6 [3042F7FA] [0828B3F2]
08 83,0 [077E9A64] [4C6C3BA0]
09 85,7 [0D90CF60] [DD236830]
10 97,7 [F0611CBA] [0B35BD69]
11 89,5 [D5ADF73A] [03EE0DDD]
12 97,7 [9916FDC4] [B4D575EB]
13 97,7 [AEC7DA00] [2F34BCB0]
14 97,7 [AE609439] [7CCAC8E9]
15 97,5 [9C65526A] [330ED36C]
16 92,8 [A6BD1997] [E1F02BE2]
17 97,7 [04186D81] [BA8AAE65]
18 88,9 [1EC8B0B0] [36D0FC0D]
19 89,1 [D5BB6993] [5826ACF2]
20 97,7 [80E39A0F] [B730BBE1]
21 91,3 [6067F126] [F7031BE4]
22 89,9 [9E3E321B] [AF4A47D1]
23 87,9 [3A1D1EEC] [A2B0A7D2]
24 97,7 [17DA3F6F] [BB60D4F2]
25 97,7 [21BCCD55] [001F3664]
26 97,7 [3C169A81] [E951FFE2]
27 97,7 [E69B4E1F] [381659FD]
28 93,2 [B1200787] [752BC5A8]
29 92,5 [4A511119] [A4F0509C]

foobar2000 1.6.3 / Dynamic Range Meter 1.1.1
log date: 2021-10-27 21:37:12

––––––––––––––––––––––––––––––––––––––––
Analyzed: The Undertones / An Anthology CD1
––––––––––––––––––––––––––––––––––––––––

DR Peak RMS Duration Track
––––––––––––––––––––––––––––––––––––––––
DR9 -0.20 dB -10.88 dB 2:43 01-Jimmy Jimmy
DR9 -0.30 dB -10.32 dB 1:49 02-She's A Runaround
DR9 -0.82 dB -11.21 dB 2:38 03-You've Got My Number
DR10 -0.20 dB -11.16 dB 2:26 04-Girls That Don't Talk
DR10 -0.58 dB -12.06 dB 2:24 05-Listening In
DR10 -0.20 dB -12.59 dB 3:37 06-It's Going To Happen
DR10 -0.21 dB -11.41 dB 2:16 07-Wednesday Week
DR8 -1.61 dB -10.98 dB 1:59 08-Billy's Third
DR8 -1.33 dB -10.50 dB 2:17 09-Girls Don't Like It
DR9 -0.20 dB -11.67 dB 2:25 10-Crisis Of Mine
DR9 -0.96 dB -10.86 dB 2:26 11-Teenage Kicks
DR10 -0.20 dB -11.62 dB 2:26 12-There Goes Norman
DR9 -0.20 dB -11.03 dB 5:05 13-The Love Parade
DR8 -0.20 dB -9.89 dB 2:51 14-When Saturday Comes
DR10 -0.21 dB -11.50 dB 2:07 15-Mars Bars
DR8 -0.64 dB -10.27 dB 2:38 16-Family Entertainment
DR10 -0.20 dB -11.49 dB 2:20 17-Tearproof
DR8 -1.02 dB -10.68 dB 3:36 18-Let's Talk About Girls
DR8 -1.00 dB -10.69 dB 2:42 19-Jump Boys
DR12 -0.20 dB -14.73 dB 3:33 20-Julie Ocean
DR8 -0.79 dB -10.14 dB 1:55 21-Male Model
DR8 -0.92 dB -10.33 dB 2:12 22-Top Twenty
DR9 -1.12 dB -11.69 dB 1:53 23-True Confessions
DR10 -0.20 dB -11.46 dB 2:36 24-My Perfect Cousin
DR10 -0.20 dB -12.11 dB 3:23 25-Beautiful Friend
DR8 -0.20 dB -10.84 dB 2:40 26-More Songs About Chocolate And Girls
DR11 -0.20 dB -13.87 dB 2:34 27-Soul Seven
DR9 -0.60 dB -11.14 dB 1:43 28-Here Comes The Summer
DR9 -0.67 dB -10.67 dB 2:37 29-I Know A Girl
––––––––––––––––––––––––––––––––––––––––

Number of tracks: 29
Official DR value: DR9

Samplerate: 44100 Hz
Channels: 2
Bits per sample: 16
Bitrate: 917 kbps
Codec: FLAC
================================================================================


Exact Audio Copy V0.99 prebeta 3 from 28. July 2007

EAC extraction logfile from 23. November 2008, 9:44

the undertones / an anthology [prev unreleased]

Used drive : MATSHITADVD-RAM UJ-85JS Adapter: 0 ID: 1

Read mode : Secure
Utilize accurate stream : Yes
Defeat audio cache : Yes
Make use of C2 pointers : No

Read offset correction : 102
Overread into Lead-In and Lead-Out : No
Fill up missing offset samples with silence : Yes
Delete leading and trailing silent blocks : No
Null samples used in CRC calculations : Yes
Used interface : Native Win32 interface for Win NT & 2000

Used output format : User Defined Encoder
Selected bitrate : 1024 kBit/s
Quality : High
Add ID3 tag : No
Command line compressor : C:\Program Files\Exact Audio Copy\FLAC\FLAC.EXE
Additional command line options : –best -V -T "DATE=%y" -T "GENRE=%m" %s


TOC of the extracted CD

Track | Start | Length | Start sector | End sector
––––––––––––––––––––––––––––-
1 | 0:00.00 | 2:34.01 | 0 | 11550
2 | 2:34.01 | 1:51.51 | 11551 | 19926
3 | 4:25.52 | 2:30.15 | 19927 | 31191
4 | 6:55.67 | 2:34.33 | 31192 | 42774
5 | 9:30.25 | 2:39.22 | 42775 | 54721
6 | 12:09.47 | 1:22.60 | 54722 | 60931
7 | 13:32.32 | 2:05.63 | 60932 | 70369
8 | 15:38.20 | 2:25.71 | 70370 | 81315
9 | 18:04.16 | 0:47.43 | 81316 | 84883
10 | 18:51.59 | 2:16.02 | 84884 | 95085
11 | 21:07.61 | 1:47.37 | 95086 | 103147
12 | 22:55.23 | 1:55.58 | 103148 | 111830
13 | 24:51.06 | 2:08.22 | 111831 | 121452
14 | 26:59.28 | 1:50.34 | 121453 | 129736
15 | 28:49.62 | 3:12.42 | 129737 | 144178
16 | 32:02.29 | 3:38.15 | 144179 | 160543
17 | 35:40.44 | 2:24.00 | 160544 | 171343
18 | 38:04.44 | 3:26.53 | 171344 | 186846
19 | 41:31.22 | 3:00.47 | 186847 | 200393
20 | 44:31.69 | 4:08.09 | 200394 | 219002
21 | 48:40.03 | 3:40.45 | 219003 | 235547
22 | 52:20.48 | 3:27.58 | 235548 | 251130
23 | 55:48.31 | 3:39.23 | 251131 | 267578
24 | 59:27.54 | 2:37.00 | 267579 | 279353
25 | 62:04.54 | 2:22.52 | 279354 | 290055
26 | 64:27.31 | 2:18.13 | 290056 | 300418
27 | 66:45.44 | 2:45.43 | 300419 | 312836


Range status and errors

Selected range

Filename D:\HQS rips\the undertones - an anthology [prev unreleased].wav

Peak level 97.7 %
Range quality 100.0 %
Test CRC C7935EAA
Copy CRC C7935EAA
Copy OK

No errors occurred


AccurateRip summary

Track 1 not present in database
Track 2 not present in database
Track 3 not present in database
Track 4 not present in database
Track 5 not present in database
Track 6 not present in database
Track 7 not present in database
Track 8 not present in database
Track 9 not present in database
Track 10 not present in database
Track 11 not present in database
Track 12 not present in database
Track 13 not present in database
Track 14 not present in database
Track 15 not present in database
Track 16 not present in database
Track 17 not present in database
Track 18 not present in database
Track 19 not present in database
Track 20 not present in database
Track 21 not present in database
Track 22 not present in database
Track 23 not present in database
Track 24 not present in database
Track 25 not present in database
Track 26 not present in database
Track 27 not present in database

None of the tracks are present in the AccurateRip database

End of status report

[CUETools log; Date: 28.10.2021 0:59:05; Version: 2.1.7]
[CTDB TOCID: .3MTOxJjbFTsg1dar8HYQ1_SM4U-] found.
Track | CTDB Status
1 | (55/55) Accurately ripped
2 | (55/55) Accurately ripped
3 | (55/55) Accurately ripped
4 | (55/55) Accurately ripped
5 | (55/55) Accurately ripped
6 | (55/55) Accurately ripped
7 | (55/55) Accurately ripped
8 | (55/55) Accurately ripped
9 | (55/55) Accurately ripped
10 | (55/55) Accurately ripped
11 | (55/55) Accurately ripped
12 | (55/55) Accurately ripped
13 | (55/55) Accurately ripped
14 | (55/55) Accurately ripped
15 | (55/55) Accurately ripped
16 | (55/55) Accurately ripped
17 | (55/55) Accurately ripped
18 | (55/55) Accurately ripped
19 | (55/55) Accurately ripped
20 | (55/55) Accurately ripped
21 | (55/55) Accurately ripped
22 | (55/55) Accurately ripped
23 | (55/55) Accurately ripped
24 | (55/55) Accurately ripped
25 | (55/55) Accurately ripped
26 | (55/55) Accurately ripped
27 | (55/55) Accurately ripped
[AccurateRip ID: 003d9e0f-04c0fffd-80104b1b] found.
Track [ CRC | V2 ] Status
01 [13c43803|e195b31c] (10+11/36) Accurately ripped
02 [1d49807c|3c2f0e4e] (11+11/37) Accurately ripped
03 [f8bd4f76|a39dc975] (11+11/37) Accurately ripped
04 [96add129|12fdd5a1] (11+11/37) Accurately ripped
05 [10d4f764|e3842266] (11+11/37) Accurately ripped
06 [67e3d3a1|2aa4cf63] (11+11/37) Accurately ripped
07 [67068c7f|f3dfb9e6] (11+11/37) Accurately ripped
08 [d5dd3e2c|22a61925] (11+11/37) Accurately ripped
09 [99c72c64|4e8be344] (11+11/37) Accurately ripped
10 [323e4b49|0d52d8fa] (11+11/37) Accurately ripped
11 [ee4b1264|fd4a5d6b] (11+11/37) Accurately ripped
12 [c11abeef|2bbf7ad5] (11+11/37) Accurately ripped
13 [8ca10e3a|5ba23024] (10+11/36) Accurately ripped
14 [6cdb4af0|a0034dcf] (11+11/37) Accurately ripped
15 [02260889|30cf2902] (10+11/36) Accurately ripped
16 [0d5ade5a|2d11d2f3] (11+11/37) Accurately ripped
17 [e564a3a8|81498801] (11+11/37) Accurately ripped
18 [218a479e|1bcd708f] (11+11/37) Accurately ripped
19 [7b91278a|7eb063b2] (11+11/37) Accurately ripped
20 [7859ad48|1d2f0088] (11+11/37) Accurately ripped
21 [a77db7f7|b7d6c3e1] (11+11/37) Accurately ripped
22 [a95e1cb3|3f900598] (11+11/37) Accurately ripped
23 [a469ffc8|8f555de4] (10+11/36) Accurately ripped
24 [b26bd6a1|70efccb5] (11+11/37) Accurately ripped
25 [f8396a2b|57063cf2] (11+11/37) Accurately ripped
26 [81a0b186|a129f265] (11+11/37) Accurately ripped
27 [494eedff|f448295d] (11+11/37) Accurately ripped
Offsetted by -664:
01 [7940ea30] (05/36) Accurately ripped
02 [08432d3d] (05/37) Accurately ripped
03 [89b01a19] (05/37) Accurately ripped
04 [d617c183] (05/37) Accurately ripped
05 [1edb7e97] (05/37) Accurately ripped
06 [81e8f67e] (05/37) Accurately ripped
07 [4a955bed] (05/37) Accurately ripped
08 [47bac745] (05/37) Accurately ripped
09 [d4279dcd] (05/37) Accurately ripped
10 [f67e2b56] (05/37) Accurately ripped
11 [6e079b4f] (05/37) Accurately ripped
12 [caf2cfd9] (05/37) Accurately ripped
13 [3842e2d8] (05/36) Accurately ripped
14 [7070b69f] (05/37) Accurately ripped
15 [2b6a4e0b] (05/36) Accurately ripped
16 [7b69b474] (05/37) Accurately ripped
17 [f7e83db3] (05/37) Accurately ripped
18 [d7ba9612] (05/37) Accurately ripped
19 [81fbd444] (05/37) Accurately ripped
20 [856cb4aa] (05/37) Accurately ripped
21 [5f175d9e] (05/37) Accurately ripped
22 [9cbd1b67] (05/37) Accurately ripped
23 [8188cf9f] (05/36) Accurately ripped
24 [af7abfc3] (05/37) Accurately ripped
25 [b28cb14e] (05/37) Accurately ripped
26 [d5848947] (05/37) Accurately ripped
27 [ecda4555] (05/37) Accurately ripped
Offsetted by 6:
01 [ba709916] (00/36) No match (V2 was not tested)
02 [b9db2426] (00/37) No match (V2 was not tested)
03 [d9ade0a0] (00/37) No match (V2 was not tested)
04 [eb365a10] (00/37) No match (V2 was not tested)
05 [be437fa7] (00/37) No match (V2 was not tested)
06 [46a69e47] (00/37) No match (V2 was not tested)
07 [56ce112f] (00/37) No match (V2 was not tested)
08 [efdf49be] (00/37) No match (V2 was not tested)
09 [6b02446c] (00/37) No match (V2 was not tested)
10 [8bb2bba1] (00/37) No match (V2 was not tested)
11 [bde5f926] (00/37) No match (V2 was not tested)
12 [1e4031cb] (00/37) No match (V2 was not tested)
13 [304da182] (00/36) No match (V2 was not tested)
14 [189143b6] (00/37) No match (V2 was not tested)
15 [728a0aab] (00/36) No match (V2 was not tested)
16 [6e251148] (00/37) No match (V2 was not tested)
17 [3f04880e] (00/37) No match (V2 was not tested)
18 [56cd9744] (00/37) No match (V2 was not tested)
19 [77f0a362] (00/37) No match (V2 was not tested)
20 [8095e12c] (00/37) No match (V2 was not tested)
21 [af399453] (00/37) No match (V2 was not tested)
22 [c3783352] (00/37) No match (V2 was not tested)
23 [8a8c1bc9] (00/36) No match (V2 was not tested)
24 [efb0c586] (00/37) No match (V2 was not tested)
25 [1fb56cfe] (00/37) No match (V2 was not tested)
26 [5fb82694] (00/37) No match (V2 was not tested)
27 [dd8c22cd] (00/37) No match (V2 was not tested)

Track Peak [ CRC32 ] [W/O NULL] [ LOG ]
– 97,7 [C7935EAA] [41DD1231] CRC32
01 89,1 [645A2BD3] [FC05AA75]
02 94,8 [7F15D465] [97CBA22F]
03 97,7 [4A85614B] [DBA85346]
04 97,7 [31E38419] [C3C19917]
05 85,0 [4D054344] [26214277]
06 97,7 [722CA1D8] [42BFA7D1]
07 97,7 [33A83711] [DB2E7955]
08 97,7 [0E821944] [5343853C]
09 97,6 [52DC7C7B] [E7FF0713]
10 97,7 [33A3B3E8] [79BF3A7B]
11 97,7 [649EC335] [A4A5CC82]
12 97,7 [B565D410] [5532C4A4]
13 97,3 [E17D932A] [3C14D096]
14 97,7 [52BC4683] [35485725]
15 97,7 [02EB6BD3] [8C512ECE]
16 95,9 [3E507F24] [FA1ABEB2]
17 93,6 [9EA4A73A] [1F8595BD]
18 92,2 [F6D0313E] [041FF47B]
19 95,4 [E16901C4] [DFA5F408]
20 97,7 [8BF30F9B] [0E320D88]
21 97,7 [A759F3C9] [0B2F7D9F]
22 96,7 [B4362ED7] [3BFEB6A7]
23 97,7 [B33E2F48] [6E502141]
24 97,7 [76096A44] [D952ECA5]
25 97,7 [0F4E16F7] [61E31BAA]
26 97,7 [06919160] [1F81076A]
27 97,6 [0E262E44] [B5B43968]

foobar2000 1.6.3 / Dynamic Range Meter 1.1.1
log date: 2021-10-27 21:15:49

––––––––––––––––––––––––––––––––––––––––
Analyzed: The Undertones / An Anthology CD2 [Prev Unreleased]
––––––––––––––––––––––––––––––––––––––––

DR Peak RMS Duration Track
––––––––––––––––––––––––––––––––––––––––
DR10 -1.00 dB -11.95 dB 2:34 01-My Perfect Cousin (Demo)
DR11 -0.46 dB -12.80 dB 1:52 02-You've Got My Number (Demo)
DR12 -0.20 dB -12.68 dB 2:30 03-Girls That Don't Talk (Demo)
DR12 -0.20 dB -13.72 dB 2:34 04-Nine Times Out Of Ten (Demo)
DR7 -1.40 dB -10.48 dB 2:39 05-Get Over You (Live)
DR10 -0.20 dB -11.06 dB 1:23 06-Wrong Way (Live)
DR10 -0.20 dB -11.61 dB 2:06 07-Mars Bars (Live)
DR11 -0.20 dB -12.57 dB 2:26 08-Listening In (Live)
DR10 -0.21 dB -11.55 dB 0:48 09-I Don't Wanna See You Again (Bootleg Demo)
DR10 -0.20 dB -11.63 dB 2:16 10-Do The Fast (Bootleg Demo)
DR10 -0.20 dB -12.16 dB 1:47 11-Girls Don't Like It (Demo)
DR12 -0.20 dB -13.63 dB 1:56 12-I Gotta Getta (Demo)
DR11 -0.24 dB -12.71 dB 2:08 13-Teenage Kicks (Demo)
DR12 -0.20 dB -13.61 dB 1:50 14-Emergency Cases (Demo)
DR11 -0.20 dB -12.89 dB 3:13 15-Get Over You (Demo)
DR10 -0.36 dB -12.36 dB 3:38 16-It's Going To Happen (Live)
DR11 -0.57 dB -14.52 dB 2:24 17-The Positive Touch (Live)
DR12 -0.70 dB -14.59 dB 3:27 18-Luxury (Demo)
DR13 -0.40 dB -13.98 dB 3:01 19-Party Party (Demo)
DR13 -0.20 dB -15.18 dB 4:08 20-Beautiful Friend (T.S.O.P. Session)
DR11 -0.20 dB -13.35 dB 3:41 21-The Love Parade (Demo)
DR13 -0.29 dB -16.41 dB 3:28 22-Stand So Close (T.S.O.P. Session)
DR11 -0.20 dB -13.90 dB 3:39 23-Bittersweet (Demo)
DR11 -0.20 dB -13.10 dB 2:37 24-Soul Seven (Demo)
DR11 -0.20 dB -12.68 dB 2:23 25-Turning Blue (Demo)
DR12 -0.20 dB -14.15 dB 2:18 26-Window Shopping For New Clothes (Demo)
DR10 -0.21 dB -12.75 dB 2:46 27-Cher O Bowlies (Rehersal)
––––––––––––––––––––––––––––––––––––––––

Number of tracks: 27
Official DR value: DR11

Samplerate: 44100 Hz
Channels: 2
Bits per sample: 16
Bitrate: 792 kbps
Codec: FLAC
================================================================================

The Undertones - An Anthology (2008) 2CDs

All thanks to original releaser

More interesting music in My Blog