The Walker Brothers - Everything Under The Sun: The Complete Recordings (2006) 5CD Box Set [Re-Up]

Posted By: Designol
The Walker Brothers - Everything Under The Sun: The Complete Recordings (2006) 5CD Box Set [Re-Up]

The Walker Brothers - Everything Under The Sun: The Complete Recordings (2006) 5CD Box Set
EAC | FLAC | Image (Cue&Log) ~ 2.14 Gb | Mp3 (CBR320) ~ 867 Mb | Scans ~ 249 Mb | 06:16:25
AM Pop, Pop/Rock, Soft Rock, British Invasion, Blue-Eyed Soul | Label: Universal | # 983 984-4

Five CD box set containing every studio recording that this American trio released during their '60s heyday and their short-lived '70s reunion plus alternatve versions, etc. Although Scott Engel, Gary Leeds and John Maus were not actually brothers, they achieved enormous success in England and Europe and are now considered to be one of the most influential musical forces of their time. The 115 songs include 'The Sun Ain't Gonna Shine Anymore', 'Make It Easy On Yourself', 'There Goes My Baby', 'Doin' The Jerk', 'Everything's Gonna Be Alright' and many many more.

The Walker Brothers - Everything Under The Sun: The Complete Recordings (2006) 5CD Box Set [Re-Up]

Everything under the sun from the Walker Brothers' studio output is indeed here on this five-CD box set. It not only has everything from their mid-'60s prime on the first three CDs, but also the more neglected (though considerably less impressive) three albums or so they did in the mid- to late '70s after reuniting. There are also 13 previously unreleased tracks from 1965-1967, as well as a 48-page booklet with a historical essay and oodles of photos and memorabilia. Naturally, like many completist box sets, this isn't for everyone; there's much superb material, but also a good deal of also-ran cuts and covers. Too, the 1970s material is not only often rather dull pop (sometimes with slight country overtones), but not too similar or compatible with the lush 1960s productions. Plus, to be technical, it doesn't have everything the Walker Brothers issued, lacking the live album they recorded in Japan in 1968 (which, as of the release of this box set, still had not made it to CD). Focusing on the positive, however, this has a lot of quality music besides their familiar hits (which are also all included, of course). The R&B and soul covers the brothers sang to pad out their releases may not have been their forte, and sometimes the pop ballads were gushy, but Scott Walker's voice (and John Walker's second vocals) usually at least made them pleasant on some level. As for the booming, brooding ballads (with nods to Phil Spector and the Righteous Brothers) at which they excelled, there are plenty of those, including "The Sun Ain't Gonna Shine Anymore," "After the Lights Go Out," "Another Tear Falls," "In My Room," "Everything Under the Sun," "Just Say Goodbye," "Deadlier Than the Male," and others. A few other songs have seeds of Scott Walker's more serious, arty side ("Archangel," "Mrs. Murphy," "Orpheus," "Experience"), and John Walker takes a nice lead vocal on one of their best obscure tracks, "I Can't Let It Happen to You."

The 13 previously unreleased 1965-1967 recordings don't add up to an unissued album of sorts; they're more an assembly of odds and ends with a bent toward mediocre soul covers ("In the Midnight Hour," "I Got You (I Feel Good)") and pop standards (such as "The Shadow of Your Smile"). Again, however, the vocals make even these erratic leftovers worthwhile to some degree, and a few of the songs are rather good, including the characteristically melancholy "Hang on for Me," the dreamily orchestrated "Lost One," and the relatively upbeat Burt Bacharach-like "I Got Lost for a While." (The writers of all three of those mysterious tunes, incidentally, are listed as "unknown," leaving it open as to whether these were original compositions.) Also among these 13 unearthed items are alternate versions of two songs the Walkers did release, Randy Newman's "Looking for Me" and their big smash "The Sun Ain't Gonna Shine (Anymore)." While these aren't as good as the official versions, they are at least notably different, and it's interesting to hear "The Sun Ain't Gonna Shine (Anymore)" in a considerably tamer, more reserved arrangement. Other than the obvious similarities in the vocals, discs four and five could almost be the work of a different group than the one heard on the first three CDs. While this latter portion does include their big 1976 U.K. hit "No Regrets," it's tough sledding, with much of it given over to middle-of-the-road covers of the likes of Jimmy Webb, Randy Newman, Kris Kristofferson, and Boz Scaggs. Suddenly, however, the torpor is interrupted by Scott Walker's four originals from their final album, 1978's Nite Flights. They're bleak, piercing, heavily electronic rhythmic numbers, wholly unlike anything else the Walker Brothers did in either the 1960s or the 1970s, and wholly unlike any other '70s Walkers recordings in that they sounded bold and adventurous, rather than just treading water. They're enough, just about, to justify the inclusion of the Walker Brothers' reunion material in the box, though not enough to keep the inclusion of said material from making the box even more erratic than most such complete overviews of major artists.

Review by Richie Unterberger, Allmusic.com

The Walker Brothers - Everything Under The Sun: The Complete Recordings (2006) 5CD Box Set [Re-Up]

The Walker Brothers - Everything Under The Sun: The Complete Recordings (2006) 5CD Box Set [Re-Up]






The Walker Brothers - Everything Under The Sun: The Complete Recordings (2006) 5CD Box Set [Re-Up]


CD1: (1:17:20)

01. Pretty Girls Everywhere (2:20)
02. Doin' The Jerk (2:28)
03. Love Her (3:22)
04. The Seventh Dawn (2:40)
05. Make It Easy On Yourself (3:14)
06. There Goes My Baby (3:07)
07. First Love Never Dies (3:38)
08. Dancing In The Street (2:49)
09. Lonely Winds (2:37)
10. The Girl I Lost In The Rain (2:48)
11. Land Of 1000 Dances (2:35)
12. You're All Around Me (2:39)
13. Love Minus Zero (3:04)
14. I Don't Want To Hear It Anymore (3:48)
15. Here Comes The Night (2:27)
16. Tell The Truth (1:49)
17. But I Do (2:55)
18. My Ship Is Coming In (3:14)
19. The Sun Ain't Gonna Shine Anymore (3:04)
20. After The Lights Go Out (4:08)
21. (Baby) You Don't Have To Tell Me (2:42)
22. My Love Is Growing (2:19)
23. Looking For Me (2:12)
24. Young Man Cried (2:36)
25. Everything's Gonna Be All Right (2:17)
26. I Need You (3:14)
27. The Sun Ain't Gonna Shine Anymore (3:12)


Exact Audio Copy V1.0 beta 1 from 15. November 2010

EAC extraction logfile from 6. March 2011, 15:34

The Walker Brothers / Everything Under The Sun CD1

Used drive : HL-DT-STDVDRAM GSA-H60N Adapter: 2 ID: 0

Read mode : Secure
Utilize accurate stream : Yes
Defeat audio cache : Yes
Make use of C2 pointers : No

Read offset correction : 667
Overread into Lead-In and Lead-Out : No
Fill up missing offset samples with silence : Yes
Delete leading and trailing silent blocks : No
Null samples used in CRC calculations : Yes
Used interface : Native Win32 interface for Win NT & 2000

Used output format : Internal WAV Routines
Sample format : 44.100 Hz; 16 Bit; Stereo


TOC of the extracted CD

Track | Start | Length | Start sector | End sector
––––––––––––––––––––––––––––-
1 | 0:00.00 | 2:20.35 | 0 | 10534
2 | 2:20.35 | 2:28.06 | 10535 | 21640
3 | 4:48.41 | 3:22.33 | 21641 | 36823
4 | 8:10.74 | 2:40.33 | 36824 | 48856
5 | 10:51.32 | 3:13.58 | 48857 | 63389
6 | 14:05.15 | 3:07.17 | 63390 | 77431
7 | 17:12.32 | 3:38.22 | 77432 | 93803
8 | 20:50.54 | 2:48.58 | 93804 | 106461
9 | 23:39.37 | 2:37.02 | 106462 | 118238
10 | 26:16.39 | 2:48.25 | 118239 | 130863
11 | 29:04.64 | 2:34.65 | 130864 | 142478
12 | 31:39.54 | 2:38.64 | 142479 | 154392
13 | 34:18.43 | 3:04.32 | 154393 | 168224
14 | 37:23.00 | 3:47.47 | 168225 | 185296
15 | 41:10.47 | 2:26.62 | 185297 | 196308
16 | 43:37.34 | 1:49.25 | 196309 | 204508
17 | 45:26.59 | 2:55.27 | 204509 | 217660
18 | 48:22.11 | 3:14.15 | 217661 | 232225
19 | 51:36.26 | 3:04.06 | 232226 | 246031
20 | 54:40.32 | 4:08.04 | 246032 | 264635
21 | 58:48.36 | 2:41.51 | 264636 | 276761
22 | 61:30.12 | 2:19.26 | 276762 | 287212
23 | 63:49.38 | 2:12.37 | 287213 | 297149
24 | 66:02.00 | 2:35.38 | 297150 | 308812
25 | 68:37.38 | 2:17.07 | 308813 | 319094
26 | 70:54.45 | 3:13.67 | 319095 | 333636
27 | 74:08.37 | 3:11.70 | 333637 | 348031


Range status and errors

Selected range

Filename C:\Documents and Settings\Администратор\Рабочий стол\Rip by ALLexxess\2006 The Walker Brothers. Everything Under The Sun (5CD Box Set Universal Music)\CD1\The Walker Brothers - Everything Under The Sun CD1.wav

Peak level 98.7 %
Extraction speed 0.2 X
Range quality 100.0 %
Test CRC 68F3B51A
Copy CRC 68F3B51A
Copy OK

No errors occurred


AccurateRip summary

Track 1 accurately ripped (confidence 5) [176D8238]
Track 2 accurately ripped (confidence 5) [C9AF2A19]
Track 3 accurately ripped (confidence 5) [0A4585DF]
Track 4 accurately ripped (confidence 5) [FD3FE1E5]
Track 5 accurately ripped (confidence 5) [9A06A502]
Track 6 accurately ripped (confidence 5) [F5FEABDC]
Track 7 accurately ripped (confidence 5) [F564634C]
Track 8 accurately ripped (confidence 5) [CE234BC8]
Track 9 accurately ripped (confidence 5) [D67405C3]
Track 10 accurately ripped (confidence 5) [A50F2432]
Track 11 accurately ripped (confidence 5) [7B2D2C78]
Track 12 accurately ripped (confidence 5) [A0D0DE46]
Track 13 accurately ripped (confidence 5) [8709698E]
Track 14 accurately ripped (confidence 5) [3DAFD698]
Track 15 accurately ripped (confidence 5) [4EC66763]
Track 16 accurately ripped (confidence 5) [1DEE538A]
Track 17 accurately ripped (confidence 5) [37CF4A58]
Track 18 accurately ripped (confidence 5) [F4E06539]
Track 19 accurately ripped (confidence 6) [58DF165C]
Track 20 accurately ripped (confidence 5) [649AE650]
Track 21 accurately ripped (confidence 5) [8FC322D1]
Track 22 accurately ripped (confidence 5) [50088B2C]
Track 23 accurately ripped (confidence 5) [48D9CC7A]
Track 24 accurately ripped (confidence 5) [CE28F75A]
Track 25 accurately ripped (confidence 5) [20135EFC]
Track 26 accurately ripped (confidence 5) [E6B710F2]
Track 27 accurately ripped (confidence 5) [1370B503]

All tracks accurately ripped

End of status report

==== Log checksum AB4D5181C6E785869476B5A4DFFD90F8C911E4544911E17836ECE9E80F24D250 ====

[CUETools log; Date: 20.11.2017 21:46:50; Version: 2.1.4]
[CTDB TOCID: qHDPkOI1Y7t0cqlwX1sDkhY9R0g-] found.
Track | CTDB Status
1 | ( 9/10) Accurately ripped
2 | (10/10) Accurately ripped
3 | (10/10) Accurately ripped
4 | (10/10) Accurately ripped
5 | (10/10) Accurately ripped
6 | ( 9/10) Accurately ripped
7 | ( 9/10) Accurately ripped
8 | ( 9/10) Accurately ripped
9 | (10/10) Accurately ripped
10 | ( 9/10) Accurately ripped
11 | (10/10) Accurately ripped
12 | (10/10) Accurately ripped
13 | (10/10) Accurately ripped
14 | (10/10) Accurately ripped
15 | ( 9/10) Accurately ripped
16 | (10/10) Accurately ripped
17 | (10/10) Accurately ripped
18 | (10/10) Accurately ripped
19 | (10/10) Accurately ripped
20 | ( 9/10) Accurately ripped
21 | (10/10) Accurately ripped
22 | (10/10) Accurately ripped
23 | ( 9/10) Accurately ripped
24 | ( 9/10) Accurately ripped
25 | ( 9/10) Accurately ripped
26 | ( 9/10) Accurately ripped
27 | (10/10) Accurately ripped
[AccurateRip ID: 004a9f95-05a38a2f-7d12201b] found.
Track [ CRC | V2 ] Status
01 [176d8238|f8b1929c] (08+08/16) Accurately ripped
02 [c9af2a19|bf09f660] (08+08/16) Accurately ripped
03 [0a4585df|55b36be8] (07+08/15) Accurately ripped
04 [fd3fe1e5|6fb36625] (07+08/15) Accurately ripped
05 [9a06a502|3ed24d5f] (07+08/15) Accurately ripped
06 [f5feabdc|e234ac6c] (07+08/15) Accurately ripped
07 [f564634c|a128cb41] (07+08/15) Accurately ripped
08 [ce234bc8|88bd9203] (07+08/15) Accurately ripped
09 [d67405c3|53835c51] (07+08/15) Accurately ripped
10 [a50f2432|d7fed911] (07+08/15) Accurately ripped
11 [7b2d2c78|c1b37a50] (07+08/15) Accurately ripped
12 [a0d0de46|a556ef96] (07+08/15) Accurately ripped
13 [8709698e|4b241483] (07+08/15) Accurately ripped
14 [3dafd698|a88a9878] (07+08/15) Accurately ripped
15 [4ec66763|946c83ea] (07+08/15) Accurately ripped
16 [1dee538a|6516689c] (07+08/15) Accurately ripped
17 [37cf4a58|dd0e5898] (07+08/15) Accurately ripped
18 [f4e06539|8e768268] (07+08/15) Accurately ripped
19 [58df165c|3e46cb23] (08+08/16) Accurately ripped
20 [649ae650|2a3b9fe1] (07+08/15) Accurately ripped
21 [8fc322d1|ba6f729f] (07+08/15) Accurately ripped
22 [50088b2c|625dcf64] (07+08/15) Accurately ripped
23 [48d9cc7a|dd4d9251] (07+08/15) Accurately ripped
24 [ce28f75a|274164e6] (07+08/15) Accurately ripped
25 [20135efc|ef32de1e] (07+08/15) Accurately ripped
26 [e6b710f2|690ff13b] (07+08/15) Accurately ripped
27 [1370b503|e71f7bd0] (07+08/15) Accurately ripped

Track Peak [ CRC32 ] [W/O NULL] [ LOG ]
– 98,7 [68F3B51A] [7A81814E] CRC32
01 90,0 [5A9A2A8A] [36C14E82]
02 89,5 [7EB96507] [179BC97F]
03 89,2 [4C193824] [F53120E1]
04 88,5 [9373A0E7] [6C006102]
05 89,5 [7B28DF49] [CCA07AF6]
06 91,4 [793988ED] [788EBB58]
07 87,4 [65BFE049] [CB917D70]
08 90,8 [639684D9] [DEB23873]
09 90,3 [6BFE4FAF] [A9AB4DD1]
10 94,1 [C0EDEDA8] [5BA12CA5]
11 94,2 [924DF21F] [7CD162EB]
12 96,0 [38791232] [69D47A33]
13 90,5 [4DE6540B] [9097E9BB]
14 97,2 [EFDF11D8] [EFD5BD26]
15 93,2 [935A50E0] [1AAA846E]
16 94,7 [7B9F38CB] [313CC7E9]
17 93,6 [A68784A6] [0C7CD77C]
18 90,6 [B8A769D8] [8877CBBA]
19 98,7 [C0D748B1] [98B19CCC]
20 89,8 [CE82011A] [361B532D]
21 94,1 [3D5BA00B] [5381D2CF]
22 95,4 [AC64317F] [B2E3ED1D]
23 88,5 [1804D2AD] [9A5EF367]
24 89,7 [2EF92D52] [CFF56A33]
25 88,5 [DB800B2E] [CDD4D406]
26 90,8 [71B24989] [4FE2E054]
27 91,8 [234C1DE2] [5A9FCB50]

foobar2000 1.2 / Dynamic Range Meter 1.1.1
log date: 2017-11-20 21:54:34

––––––––––––––––––––––––––––––––––––––––
Analyzed: The Walker Brothers / Everything Under The Sun CD1
––––––––––––––––––––––––––––––––––––––––

DR Peak RMS Duration Track
––––––––––––––––––––––––––––––––––––––––
DR9 -0.91 dB -10.97 dB 2:20 01-Pretty Girls Everywhere
DR9 -0.95 dB -11.42 dB 2:28 02-Doin' The Jerk
DR8 -0.99 dB -11.03 dB 3:22 03-Love Her
DR8 -1.05 dB -11.36 dB 2:40 04-The Seventh Dawn
DR8 -0.96 dB -11.44 dB 3:14 05-Make It Easy On Yourself
DR8 -0.78 dB -10.68 dB 3:07 06-There Goes My Baby
DR9 -1.17 dB -11.46 dB 3:38 07-First Love Never Dies
DR8 -0.84 dB -10.98 dB 2:49 08-Dancing In The Street
DR8 -0.88 dB -11.09 dB 2:37 09-Lonely Winds
DR9 -0.53 dB -12.04 dB 2:48 10-The Girl I Lost In The Rain
DR9 -0.51 dB -11.05 dB 2:35 11-Land Of 1000 Dances
DR9 -0.35 dB -12.34 dB 2:39 12-You're All Around Me
DR10 -0.86 dB -12.78 dB 3:04 13-Love Minus Zero
DR10 -0.24 dB -13.73 dB 3:48 14-I Don't Want To Hear It Anymore
DR9 -0.61 dB -11.51 dB 2:27 15-Here Comes The Night
DR9 -0.46 dB -10.96 dB 1:49 16-Tell The Truth
DR7 -0.57 dB -8.51 dB 2:55 17-But I Do
DR9 -0.86 dB -11.71 dB 3:14 18-My Ship Is Coming In
DR8 -0.11 dB -9.97 dB 3:04 19-The Sun Ain't Gonna Shine Anymore
DR8 -0.93 dB -10.98 dB 4:08 20-After The Lights Go Out
DR9 -0.52 dB -11.31 dB 2:42 21-(Baby) You Don't Have To Tell Me
DR9 -0.41 dB -11.38 dB 2:19 22-My Love Is Growing
DR10 -1.05 dB -12.05 dB 2:12 23-Looking For Me
DR9 -0.94 dB -12.54 dB 2:36 24-Young Man Cried
DR10 -1.06 dB -11.41 dB 2:17 25-Everything's Gonna Be All Right
DR9 -0.84 dB -10.56 dB 3:14 26-I Need You
DR8 -0.73 dB -10.53 dB 3:12 27-The Sun Ain't Gonna Shine Anymore
––––––––––––––––––––––––––––––––––––––––

Number of tracks: 27
Official DR value: DR9

Samplerate: 44100 Hz
Channels: 2
Bits per sample: 16
Bitrate: 808 kbps
Codec: FLAC
================================================================================




The Walker Brothers - Everything Under The Sun: The Complete Recordings (2006) 5CD Box Set [Re-Up]


CD2: (1:17:04)

01. Another Tear Falls (2:29)
02. Saddest Night In The World (2:13)
03. In My Room (2:33)
04. Saturday's Child (2:08)
05. Just For A Thrill (3:37)
06. Hurting Each Other (2:44)
07. Old Folks (3:13)
08. Summertime (4:30)
09. People Get Ready (2:39)
10. I Can See It Now (3:00)
11. Where's The Girl? (3:14)
12. Living Above Your Head (2:42)
13. Take It Like A Man (2:31)
14. No Sad Songs For Me (3:41)
15. Deadlier Than The Male (2:32)
16. Archangel (3:43)
17. Sunny (3:49)
18. Come Rain Or Come Shine (3:22)
19. The Gentle Rain (2:44)
20. Mrs. Murphy (3:22)
21. Stay With Me Baby (3:19)
22. Turn Out The Moon (3:52)
23. Walking In The Rain (3:26)
24. Baby Make It The Last Time (3:29)
25. Me About You (2:13)


Exact Audio Copy V1.0 beta 1 from 15. November 2010

EAC extraction logfile from 6. March 2011, 16:36

The Walker Brothers / Everything Under The Sun CD2

Used drive : HL-DT-STDVDRAM GSA-H60N Adapter: 2 ID: 0

Read mode : Secure
Utilize accurate stream : Yes
Defeat audio cache : Yes
Make use of C2 pointers : No

Read offset correction : 667
Overread into Lead-In and Lead-Out : No
Fill up missing offset samples with silence : Yes
Delete leading and trailing silent blocks : No
Null samples used in CRC calculations : Yes
Used interface : Native Win32 interface for Win NT & 2000

Used output format : Internal WAV Routines
Sample format : 44.100 Hz; 16 Bit; Stereo


TOC of the extracted CD

Track | Start | Length | Start sector | End sector
––––––––––––––––––––––––––––-
1 | 0:00.00 | 2:28.46 | 0 | 11145
2 | 2:28.46 | 2:13.27 | 11146 | 21147
3 | 4:41.73 | 2:33.15 | 21148 | 32637
4 | 7:15.13 | 2:07.45 | 32638 | 42207
5 | 9:22.58 | 3:37.03 | 42208 | 58485
6 | 12:59.61 | 2:44.27 | 58486 | 70812
7 | 15:44.13 | 3:12.44 | 70813 | 85256
8 | 18:56.57 | 4:30.03 | 85257 | 105509
9 | 23:26.60 | 2:39.29 | 105510 | 117463
10 | 26:06.14 | 2:59.60 | 117464 | 130948
11 | 29:05.74 | 3:13.38 | 130949 | 145461
12 | 32:19.37 | 2:42.20 | 145462 | 157631
13 | 35:01.57 | 2:31.07 | 157632 | 168963
14 | 37:32.64 | 3:40.50 | 168964 | 185513
15 | 41:13.39 | 2:32.09 | 185514 | 196922
16 | 43:45.48 | 3:43.31 | 196923 | 213678
17 | 47:29.04 | 3:48.65 | 213679 | 230843
18 | 51:17.69 | 3:21.46 | 230844 | 245964
19 | 54:39.40 | 2:43.63 | 245965 | 258252
20 | 57:23.28 | 3:22.09 | 258253 | 273411
21 | 60:45.37 | 3:18.46 | 273412 | 288307
22 | 64:04.08 | 3:52.06 | 288308 | 305713
23 | 67:56.14 | 3:26.08 | 305714 | 321171
24 | 71:22.22 | 3:28.57 | 321172 | 336828
25 | 74:51.04 | 2:12.41 | 336829 | 346769


Range status and errors

Selected range

Filename C:\Documents and Settings\Администратор\Рабочий стол\Rip by ALLexxess\2006 The Walker Brothers. Everything Under The Sun (5CD Box Set Universal Music)\CD2\The Walker Brothers - Everything Under The Sun CD2.wav

Peak level 100.0 %
Extraction speed 0.1 X
Range quality 100.0 %
Test CRC 5B7BD44C
Copy CRC 5B7BD44C
Copy OK

No errors occurred


AccurateRip summary

Track 1 accurately ripped (confidence 5) [D4390226]
Track 2 accurately ripped (confidence 5) [EF0FC41D]
Track 3 accurately ripped (confidence 5) [316BCEC3]
Track 4 accurately ripped (confidence 5) [88105190]
Track 5 accurately ripped (confidence 5) [8D8BF023]
Track 6 accurately ripped (confidence 5) [5EE4FC0D]
Track 7 accurately ripped (confidence 5) [44255576]
Track 8 accurately ripped (confidence 5) [40E08B6B]
Track 9 accurately ripped (confidence 5) [2683AD6E]
Track 10 accurately ripped (confidence 5) [5E62172F]
Track 11 accurately ripped (confidence 5) [BDC85220]
Track 12 accurately ripped (confidence 5) [1F5E5405]
Track 13 accurately ripped (confidence 5) [F839DD8C]
Track 14 accurately ripped (confidence 5) [2DEA380D]
Track 15 accurately ripped (confidence 5) [6E8FF0D0]
Track 16 accurately ripped (confidence 5) [0B788727]
Track 17 accurately ripped (confidence 5) [A4746007]
Track 18 accurately ripped (confidence 5) [38F895E2]
Track 19 accurately ripped (confidence 5) [0F8AB0B9]
Track 20 accurately ripped (confidence 5) [539504F2]
Track 21 accurately ripped (confidence 5) [2F6C8C53]
Track 22 accurately ripped (confidence 5) [F40D9891]
Track 23 accurately ripped (confidence 5) [1BE7D185]
Track 24 accurately ripped (confidence 5) [DB7562C8]
Track 25 accurately ripped (confidence 5) [0865F75D]

All tracks accurately ripped

End of status report

==== Log checksum 8EA795FA89D6EE354931BF64AC0C55F01096758D87DBD03C1A7275D37E56B75A ====

[CUETools log; Date: 20.11.2017 21:47:11; Version: 2.1.4]
[CTDB TOCID: YxdGOkCBiXrKNfNfFtyb_qAdHMM-] found.
Track | CTDB Status
1 | (15/15) Accurately ripped
2 | (15/15) Accurately ripped
3 | (15/15) Accurately ripped
4 | (14/15) Accurately ripped
5 | (15/15) Accurately ripped
6 | (15/15) Accurately ripped
7 | (15/15) Accurately ripped
8 | (15/15) Accurately ripped
9 | (14/15) Accurately ripped
10 | (14/15) Accurately ripped
11 | (15/15) Accurately ripped
12 | (14/15) Accurately ripped
13 | (14/15) Accurately ripped
14 | (14/15) Accurately ripped
15 | (15/15) Accurately ripped
16 | (15/15) Accurately ripped
17 | (15/15) Accurately ripped
18 | (14/15) Accurately ripped
19 | (15/15) Accurately ripped
20 | (15/15) Accurately ripped
21 | (14/15) Accurately ripped
22 | (14/15) Accurately ripped
23 | (15/15) Accurately ripped
24 | (15/15) Accurately ripped
25 | (15/15) Accurately ripped
[AccurateRip ID: 00426454-04bd17c0-7f120f19] found.
Track [ CRC | V2 ] Status
01 [d4390226|308b2da8] (07+07/14) Accurately ripped
02 [ef0fc41d|01a6a794] (07+07/14) Accurately ripped
03 [316bcec3|70b0ebf8] (07+07/14) Accurately ripped
04 [88105190|7250f2ef] (07+07/14) Accurately ripped
05 [8d8bf023|5971816c] (07+07/14) Accurately ripped
06 [5ee4fc0d|9e02c5e7] (07+07/14) Accurately ripped
07 [44255576|b79a3761] (07+07/14) Accurately ripped
08 [40e08b6b|1a1f4415] (07+07/14) Accurately ripped
09 [2683ad6e|a865d79f] (07+07/14) Accurately ripped
10 [5e62172f|d4eca1f5] (07+07/14) Accurately ripped
11 [bdc85220|def77de0] (07+07/14) Accurately ripped
12 [1f5e5405|981347cd] (07+07/14) Accurately ripped
13 [f839dd8c|9c613d40] (07+07/14) Accurately ripped
14 [2dea380d|0a01a6e5] (07+07/14) Accurately ripped
15 [6e8ff0d0|c10127bb] (07+07/14) Accurately ripped
16 [0b788727|78317664] (07+07/14) Accurately ripped
17 [a4746007|62010872] (07+07/14) Accurately ripped
18 [38f895e2|15dcf1ee] (07+07/14) Accurately ripped
19 [0f8ab0b9|6cb79846] (07+07/14) Accurately ripped
20 [539504f2|46852082] (07+07/14) Accurately ripped
21 [2f6c8c53|10aeb144] (07+07/14) Accurately ripped
22 [f40d9891|c89a67c9] (07+07/14) Accurately ripped
23 [1be7d185|411bfe78] (07+07/14) Accurately ripped
24 [db7562c8|01ab5713] (07+07/14) Accurately ripped
25 [0865f75d|5daf1d0b] (08+07/15) Accurately ripped

Track Peak [ CRC32 ] [W/O NULL] [ LOG ]
– 100,0 [5B7BD44C] [6616BF4B] CRC32
01 95,9 [C1DB5007] [3265ECE7]
02 89,2 [B4C34B77] [327606F1]
03 96,5 [41F692AA] [42136699]
04 93,1 [13DE3C98] [ED517C83]
05 73,6 [01C47EB0] [C89603D1]
06 91,0 [4960AD8D] [0EEFD2E2]
07 83,7 [3EFB0AEE] [2F54F099]
08 91,0 [1C2FFC7C] [7C8F6083]
09 94,0 [42962E0B] [706D6EE0]
10 92,2 [C7A12856] [B77758A9]
11 91,5 [0D3C1851] [2AAE6EAF]
12 97,5 [4462673E] [EFD7868E]
13 96,0 [1B15B8DD] [411BD298]
14 92,5 [5B032B3A] [B6EAB5ED]
15 92,2 [04C09EB2] [CB93208D]
16 97,0 [242F98F1] [C07B711A]
17 86,4 [840A098B] [64983CB5]
18 85,4 [D5001526] [233A8E78]
19 79,5 [332A74E7] [A6F7361E]
20 98,4 [2C0B0189] [4F2D7277]
21 96,2 [3B1BB6F1] [E89283BF]
22 100,0 [A1EAD63D] [374509B2]
23 97,3 [CBCCAC16] [380E0546]
24 100,0 [FCCEF727] [BB59C9F8]
25 100,0 [885F3922] [1D7CB63B]

foobar2000 1.2 / Dynamic Range Meter 1.1.1
log date: 2017-11-20 21:55:10

––––––––––––––––––––––––––––––––––––––––
Analyzed: The Walker Brothers / Everything Under The Sun CD2
––––––––––––––––––––––––––––––––––––––––

DR Peak RMS Duration Track
––––––––––––––––––––––––––––––––––––––––
DR8 -0.36 dB -10.42 dB 2:29 01-Another Tear Falls
DR9 -0.98 dB -13.88 dB 2:13 02-Saddest Night In The World
DR9 -0.31 dB -13.20 dB 2:33 03-In My Room
DR9 -0.62 dB -11.82 dB 2:08 04-Saturday's Child
DR11 -2.66 dB -17.61 dB 3:37 05-Just For A Thrill
DR9 -0.81 dB -12.81 dB 2:44 06-Hurting Each Other
DR12 -1.55 dB -17.64 dB 3:13 07-Old Folks
DR10 -0.82 dB -13.70 dB 4:30 08-Summertime
DR10 -0.54 dB -13.23 dB 2:39 09-People Get Ready
DR10 -0.70 dB -13.17 dB 3:00 10-I Can See It Now
DR10 -0.77 dB -13.08 dB 3:14 11-Where's The Girl?
DR8 -0.22 dB -10.59 dB 2:42 12-Living Above Your Head
DR8 -0.35 dB -11.60 dB 2:31 13-Take It Like A Man
DR9 -0.67 dB -12.40 dB 3:41 14-No Sad Songs For Me
DR8 -0.70 dB -10.73 dB 2:32 15-Deadlier Than The Male
DR8 -0.26 dB -10.53 dB 3:43 16-Archangel
DR8 -1.27 dB -11.30 dB 3:49 17-Sunny
DR9 -1.37 dB -13.04 dB 3:22 18-Come Rain Or Come Shine
DR9 -1.98 dB -13.27 dB 2:44 19-The Gentle Rain
DR9 -0.13 dB -13.58 dB 3:22 20-Mrs. Murphy
DR9 -0.33 dB -12.41 dB 3:19 21-Stay With Me Baby
DR9 0.00 dB -11.72 dB 3:52 22-Turn Out The Moon
DR8 -0.24 dB -11.12 dB 3:26 23-Walking In The Rain
DR8 0.00 dB -10.64 dB 3:29 24-Baby Make It The Last Time
DR11 0.00 dB -13.33 dB 2:13 25-Me About You
––––––––––––––––––––––––––––––––––––––––

Number of tracks: 25
Official DR value: DR9

Samplerate: 44100 Hz
Channels: 2
Bits per sample: 16
Bitrate: 807 kbps
Codec: FLAC
================================================================================




The Walker Brothers - Everything Under The Sun: The Complete Recordings (2006) 5CD Box Set [Re-Up]


CD3: (1:16:54)

01. Everything Under The Sun (4:25)
02. Once Upon A Summertime (3:52)
03. Experience (2:56)
04. Blueberry Hill (3:29)
05. Orpheus (3:27)
06. Stand By Me (4:00)
07. I Wanna Know (2:27)
08. I Will Wait For You (Theme From Les Parapluies De Cherbourg) (3:41)
09. It Makes No Difference Now (2:40)
10. I Can't Let It Happen To You (3:14)
11. Genevieve (2:52)
12. Just Say Goodbye (3:39)
13. Looking For Me (2:14)
14. The Sun Ain't Gonna Shine (Anymore) (3:28)
15. Lazy Afternoon (4:13)
16. In The Midnight Hour (2:19)
17. A Song For Young Love (3:06)
18. Let The Music Play (2:49)
19. The Shadow Of Your Smile (2:31)
20. Hang On For Me (1:56)
21. I Got You (I Feel Good) (1:45)
22. I Got Lost For A While (3:04)
23. Fool Am I (3:04)
24. Wipe Away My Tears (2:38)
25. Lost One (3:08)


Exact Audio Copy V1.0 beta 1 from 15. November 2010

EAC extraction logfile from 7. March 2011, 1:07

The Walker Brothers / Everything Under The Sun CD3

Used drive : HL-DT-STDVDRAM GSA-H60N Adapter: 2 ID: 0

Read mode : Secure
Utilize accurate stream : Yes
Defeat audio cache : Yes
Make use of C2 pointers : No

Read offset correction : 667
Overread into Lead-In and Lead-Out : No
Fill up missing offset samples with silence : Yes
Delete leading and trailing silent blocks : No
Null samples used in CRC calculations : Yes
Used interface : Native Win32 interface for Win NT & 2000

Used output format : Internal WAV Routines
Sample format : 44.100 Hz; 16 Bit; Stereo


TOC of the extracted CD

Track | Start | Length | Start sector | End sector
––––––––––––––––––––––––––––-
1 | 0:00.00 | 4:24.46 | 0 | 19845
2 | 4:24.46 | 3:51.64 | 19846 | 37234
3 | 8:16.35 | 2:56.18 | 37235 | 50452
4 | 11:12.53 | 3:28.72 | 50453 | 66124
5 | 14:41.50 | 3:26.49 | 66125 | 81623
6 | 18:08.24 | 3:59.40 | 81624 | 99588
7 | 22:07.64 | 2:26.57 | 99589 | 110595
8 | 24:34.46 | 3:41.06 | 110596 | 127176
9 | 28:15.52 | 2:40.22 | 127177 | 139198
10 | 30:55.74 | 3:14.31 | 139199 | 153779
11 | 34:10.30 | 2:51.43 | 153780 | 166647
12 | 37:01.73 | 3:38.58 | 166648 | 183055
13 | 40:40.56 | 2:14.26 | 183056 | 193131
14 | 42:55.07 | 3:28.35 | 193132 | 208766
15 | 46:23.42 | 4:12.44 | 208767 | 227710
16 | 50:36.11 | 2:18.48 | 227711 | 238108
17 | 52:54.59 | 3:06.16 | 238109 | 252074
18 | 56:01.00 | 2:48.40 | 252075 | 264714
19 | 58:49.40 | 2:30.45 | 264715 | 276009
20 | 61:20.10 | 1:56.29 | 276010 | 284738
21 | 63:16.39 | 1:44.60 | 284739 | 292598
22 | 65:01.24 | 3:03.55 | 292599 | 306378
23 | 68:05.04 | 3:03.39 | 306379 | 320142
24 | 71:08.43 | 2:38.14 | 320143 | 332006
25 | 73:46.57 | 3:07.43 | 332007 | 346074


Range status and errors

Selected range

Filename C:\Documents and Settings\Администратор\Рабочий стол\Lossless Galaxy Rip by ALLexxess\2006 The Walker Brothers. Everything Under The Sun (5CD Box Set Universal Music)\CD3\The Walker Brothers - Everything Under The Sun CD3.wav

Peak level 100.0 %
Extraction speed 0.2 X
Range quality 100.0 %
Test CRC E5249D63
Copy CRC E5249D63
Copy OK

No errors occurred


AccurateRip summary

Track 1 accurately ripped (confidence 4) [7A17A99E]
Track 2 accurately ripped (confidence 4) [B8B6B56E]
Track 3 accurately ripped (confidence 4) [F31C7EA8]
Track 4 accurately ripped (confidence 4) [EB93DC11]
Track 5 accurately ripped (confidence 4) [C5347F85]
Track 6 accurately ripped (confidence 4) [A9A1C915]
Track 7 accurately ripped (confidence 4) [583BC5CC]
Track 8 accurately ripped (confidence 4) [E9C8B1DD]
Track 9 accurately ripped (confidence 4) [68508CF7]
Track 10 accurately ripped (confidence 4) [AC7D5940]
Track 11 accurately ripped (confidence 4) [6186B4C6]
Track 12 accurately ripped (confidence 4) [1D232936]
Track 13 accurately ripped (confidence 4) [67584932]
Track 14 accurately ripped (confidence 4) [B4F73791]
Track 15 accurately ripped (confidence 4) [2FA54A61]
Track 16 accurately ripped (confidence 4) [1FA561C5]
Track 17 accurately ripped (confidence 4) [B9546995]
Track 18 accurately ripped (confidence 4) [2AA98505]
Track 19 accurately ripped (confidence 4) [364A8C80]
Track 20 accurately ripped (confidence 4) [86A4B4A0]
Track 21 accurately ripped (confidence 4) [7905B8A3]
Track 22 accurately ripped (confidence 4) [54E0E725]
Track 23 accurately ripped (confidence 4) [9C89E6B1]
Track 24 accurately ripped (confidence 4) [59DEA129]
Track 25 accurately ripped (confidence 4) [869F2025]

All tracks accurately ripped

End of status report

==== Log checksum 8BF8317565824782B609CDE159C903BED4F78AC384162C9672A39F455BEBF241 ====

[CUETools log; Date: 20.11.2017 21:47:55; Version: 2.1.4]
[CTDB TOCID: HJQp7J8uH99KdYLYJxO3TIP0Myc-] found.
Track | CTDB Status
1 | (14/14) Accurately ripped
2 | (14/14) Accurately ripped
3 | (14/14) Accurately ripped
4 | (14/14) Accurately ripped
5 | (14/14) Accurately ripped
6 | (14/14) Accurately ripped
7 | (14/14) Accurately ripped
8 | (14/14) Accurately ripped
9 | (14/14) Accurately ripped
10 | (13/14) Accurately ripped
11 | (13/14) Accurately ripped
12 | (14/14) Accurately ripped
13 | (13/14) Accurately ripped
14 | (13/14) Accurately ripped
15 | (14/14) Accurately ripped
16 | (13/14) Accurately ripped
17 | (14/14) Accurately ripped
18 | (13/14) Accurately ripped
19 | (14/14) Accurately ripped
20 | (14/14) Accurately ripped
21 | (14/14) Accurately ripped
22 | (14/14) Accurately ripped
23 | (14/14) Accurately ripped
24 | (13/14) Accurately ripped
25 | (13/14) Accurately ripped
[AccurateRip ID: 0048e73d-05082cc1-93120619] found.
Track [ CRC | V2 ] Status
01 [7a17a99e|b7ff2c0c] (06+07/13) Accurately ripped
02 [b8b6b56e|7c2b8b61] (06+07/13) Accurately ripped
03 [f31c7ea8|a6a9c428] (06+07/13) Accurately ripped
04 [eb93dc11|d8de0dd5] (06+07/13) Accurately ripped
05 [c5347f85|fa39cc30] (06+07/13) Accurately ripped
06 [a9a1c915|35c03cf0] (06+07/13) Accurately ripped
07 [583bc5cc|e9bc6fb7] (06+07/13) Accurately ripped
08 [e9c8b1dd|b298078e] (06+07/13) Accurately ripped
09 [68508cf7|91512e88] (06+07/13) Accurately ripped
10 [ac7d5940|2c77a07e] (06+07/13) Accurately ripped
11 [6186b4c6|18a78188] (06+07/13) Accurately ripped
12 [1d232936|e9b88a98] (06+07/13) Accurately ripped
13 [67584932|ebf36917] (07+07/14) Accurately ripped
14 [b4f73791|49dfd90a] (07+07/14) Accurately ripped
15 [2fa54a61|ef36de6f] (07+07/14) Accurately ripped
16 [1fa561c5|f68c7c34] (07+07/14) Accurately ripped
17 [b9546995|847e1f99] (07+07/14) Accurately ripped
18 [2aa98505|bf866423] (07+07/14) Accurately ripped
19 [364a8c80|26f3cbe1] (07+07/14) Accurately ripped
20 [86a4b4a0|f1391221] (07+07/14) Accurately ripped
21 [7905b8a3|8ba6ed83] (07+07/14) Accurately ripped
22 [54e0e725|5d87132d] (07+07/14) Accurately ripped
23 [9c89e6b1|3e833bf5] (07+07/14) Accurately ripped
24 [59dea129|86478837] (07+07/14) Accurately ripped
25 [869f2025|d2047c50] (07+07/14) Accurately ripped

Track Peak [ CRC32 ] [W/O NULL] [ LOG ]
– 100,0 [E5249D63] [6A9FD028] CRC32
01 98,4 [C665779B] [6C59E1FF]
02 95,4 [2143109D] [742445A8]
03 95,6 [1021E154] [9D5299E9]
04 98,6 [81639359] [6A66ABD7]
05 99,2 [2B89DD83] [E3AB9EFD]
06 96,6 [CD42DE5C] [2D222A5A]
07 95,3 [6AB9B06A] [5614628C]
08 91,4 [51B598D4] [D7D4A948]
09 93,6 [47525589] [818E16B5]
10 92,9 [1DDB2D13] [CA144AC3]
11 84,6 [76899BF4] [0A82265A]
12 98,4 [2FDCABA0] [7E23203A]
13 98,6 [F0A25EB8] [4BC2AC4D]
14 100,0 [19F8E1EF] [A9693268]
15 80,9 [B3E8710E] [57356EE7]
16 100,0 [5CEDA4AC] [7ACCE9F7]
17 99,6 [06AF7F46] [0715EA76]
18 100,0 [792AD29B] [424175C1]
19 95,1 [BCB084D9] [4C6E7FDB]
20 100,0 [1EF1BDEE] [FD614F84]
21 100,0 [D976A615] [C5F56F79]
22 100,0 [EDF98001] [EF01B530]
23 96,8 [2FD497B3] [801A525A]
24 99,8 [8927EE24] [4CA292EF]
25 100,0 [95143411] [2F39BAEC]

foobar2000 1.2 / Dynamic Range Meter 1.1.1
log date: 2017-11-20 21:55:44

––––––––––––––––––––––––––––––––––––––––
Analyzed: The Walker Brothers / Everything Under The Sun CD3
––––––––––––––––––––––––––––––––––––––––

DR Peak RMS Duration Track
––––––––––––––––––––––––––––––––––––––––
DR8 -0.13 dB -10.23 dB 4:25 01-Everything Under The Sun
DR11 -0.41 dB -14.87 dB 3:52 02-Once Upon A Summertime
DR10 -0.39 dB -11.92 dB 2:56 03-Experience
DR12 -0.12 dB -15.85 dB 3:29 04-Blueberry Hill
DR11 -0.06 dB -15.48 dB 3:27 05-Orpheus
DR9 -0.30 dB -12.24 dB 4:00 06-Stand By Me
DR10 -0.41 dB -12.96 dB 2:27 07-I Wanna Know
DR11 -0.77 dB -15.08 dB 3:41 08-I Will Wait For You (Theme From Les Parapluies De Cherbourg)
DR10 -0.57 dB -14.17 dB 2:40 09-It Makes No Difference Now
DR11 -0.64 dB -14.19 dB 3:14 10-I Can't Let It Happen To You
DR12 -1.45 dB -16.31 dB 2:52 11-Genevieve
DR8 -0.14 dB -11.52 dB 3:39 12-Just Say Goodbye
DR7 -0.12 dB -10.22 dB 2:14 13-Looking For Me
DR9 0.00 dB -11.48 dB 3:28 14-The Sun Ain't Gonna Shine (Anymore)
DR12 -1.83 dB -18.32 dB 4:13 15-Lazy Afternoon
DR11 0.00 dB -12.96 dB 2:19 16-In The Midnight Hour
DR10 -0.03 dB -14.20 dB 3:06 17-A Song For Young Love
DR9 0.00 dB -12.08 dB 2:49 18-Let The Music Play
DR10 -0.43 dB -15.68 dB 2:31 19-The Shadow Of Your Smile
DR10 0.00 dB -13.73 dB 1:56 20-Hang On For Me
DR10 0.00 dB -11.25 dB 1:45 21-I Got You (I Feel Good)
DR10 0.00 dB -13.14 dB 3:04 22-I Got Lost For A While
DR9 -0.28 dB -14.26 dB 3:04 23-Fool Am I
DR9 -0.02 dB -11.96 dB 2:38 24-Wipe Away My Tears
DR10 0.00 dB -14.07 dB 3:08 25-Lost One
––––––––––––––––––––––––––––––––––––––––

Number of tracks: 25
Official DR value: DR10

Samplerate: 44100 Hz
Channels: 2
Bits per sample: 16
Bitrate: 800 kbps
Codec: FLAC
================================================================================




The Walker Brothers - Everything Under The Sun: The Complete Recordings (2006) 5CD Box Set [Re-Up]


CD4: (1:13:03)

01. No Regrets (5:45)
02. Hold An Old Friend's Hand (3:44)
03. Boulder To Birmingham (3:52)
04. Walkin' In The Sun (3:53)
05. Lover's Lullaby (3:49)
06. I've Got To Have You (3:29)
07. He'll Break Your Heart (5:10)
08. Everything That Touches You (4:07)
09. Lovers (3:00)
10. Burn Our Bridges (3:32)
11. Remember Me (3:54)
12. Loving Arms (3:38)
13. I Never Dreamed You'd Leave Me In Summer (3:14)
14. The Moon's A Harsh Mistress (3:02)
15. Marie (3:44)
16. Lines (3:26)
17. Taking It All In Stride (4:35)
18. Inside Of You (3:37)
19. Have You Seen My Baby? (3:34)


Exact Audio Copy V1.0 beta 1 from 15. November 2010

EAC extraction logfile from 7. March 2011, 10:38

The Walker Brothers / Everything Under The Sun CD4

Used drive : HL-DT-STDVDRAM GSA-H60N Adapter: 2 ID: 0

Read mode : Secure
Utilize accurate stream : Yes
Defeat audio cache : Yes
Make use of C2 pointers : No

Read offset correction : 667
Overread into Lead-In and Lead-Out : No
Fill up missing offset samples with silence : Yes
Delete leading and trailing silent blocks : No
Null samples used in CRC calculations : Yes
Used interface : Native Win32 interface for Win NT & 2000

Used output format : Internal WAV Routines
Sample format : 44.100 Hz; 16 Bit; Stereo


TOC of the extracted CD

Track | Start | Length | Start sector | End sector
––––––––––––––––––––––––––––-
1 | 0:00.00 | 5:44.69 | 0 | 25868
2 | 5:44.69 | 3:43.43 | 25869 | 42636
3 | 9:28.37 | 3:51.68 | 42637 | 60029
4 | 13:20.30 | 3:53.19 | 60030 | 77523
5 | 17:13.49 | 3:48.53 | 77524 | 94676
6 | 21:02.27 | 3:28.59 | 94677 | 110335
7 | 24:31.11 | 5:09.56 | 110336 | 133566
8 | 29:40.67 | 4:07.19 | 133567 | 152110
9 | 33:48.11 | 2:59.62 | 152111 | 165597
10 | 36:47.73 | 3:31.74 | 165598 | 181496
11 | 40:19.72 | 3:53.39 | 181497 | 199010
12 | 44:13.36 | 3:37.45 | 199011 | 215330
13 | 47:51.06 | 3:14.34 | 215331 | 229914
14 | 51:05.40 | 3:01.38 | 229915 | 243527
15 | 54:07.03 | 3:44.05 | 243528 | 260332
16 | 57:51.08 | 3:25.73 | 260333 | 275780
17 | 61:17.06 | 4:34.70 | 275781 | 296400
18 | 65:52.01 | 3:36.70 | 296401 | 312670
19 | 69:28.71 | 3:34.14 | 312671 | 328734


Range status and errors

Selected range

Filename C:\Documents and Settings\Администратор\Рабочий стол\Lossless Galaxy Rip by ALLexxess\2006 The Walker Brothers. Everything Under The Sun (5CD Box Set Universal Music)\CD4\The Walker Brothers - Everything Under The Sun CD4.wav

Peak level 95.9 %
Extraction speed 0.3 X
Range quality 100.0 %
Test CRC 2D682BB5
Copy CRC 2D682BB5
Copy OK

No errors occurred


AccurateRip summary

Track 1 accurately ripped (confidence 4) [139C71C5]
Track 2 accurately ripped (confidence 4) [E6F3B4C7]
Track 3 accurately ripped (confidence 4) [FC42518F]
Track 4 accurately ripped (confidence 4) [717738FC]
Track 5 accurately ripped (confidence 4) [FE11619B]
Track 6 accurately ripped (confidence 4) [B1322283]
Track 7 accurately ripped (confidence 4) [A4CDC92C]
Track 8 accurately ripped (confidence 4) [643655A2]
Track 9 accurately ripped (confidence 4) [4BCDAD11]
Track 10 accurately ripped (confidence 4) [B966B018]
Track 11 accurately ripped (confidence 4) [A3D39900]
Track 12 accurately ripped (confidence 4) [E3BA6618]
Track 13 accurately ripped (confidence 4) [8EEE9401]
Track 14 accurately ripped (confidence 4) [1ADE0CA5]
Track 15 accurately ripped (confidence 4) [30E27B8A]
Track 16 accurately ripped (confidence 4) [FFD0313D]
Track 17 accurately ripped (confidence 4) [56A43947]
Track 18 accurately ripped (confidence 4) [7ABA0692]
Track 19 accurately ripped (confidence 4) [9CE184C1]

All tracks accurately ripped

End of status report

==== Log checksum C65A7931E9EDB894F8A2BB6A1EB1FCBDD00056576CCA95DD8BBD160A645733DE ====

[CUETools log; Date: 20.11.2017 21:48:22; Version: 2.1.4]
[CTDB TOCID: a.c6HLX2ZgBJPX6iLtgLKTXLXpQ-] found.
Track | CTDB Status
1 | (14/14) Accurately ripped
2 | (14/14) Accurately ripped
3 | (14/14) Accurately ripped
4 | (14/14) Accurately ripped
5 | (14/14) Accurately ripped
6 | (14/14) Accurately ripped
7 | (14/14) Accurately ripped
8 | (14/14) Accurately ripped
9 | (14/14) Accurately ripped
10 | (14/14) Accurately ripped
11 | (13/14) Accurately ripped
12 | (14/14) Accurately ripped
13 | (14/14) Accurately ripped
14 | (14/14) Accurately ripped
15 | (13/14) Accurately ripped
16 | (13/14) Accurately ripped
17 | (14/14) Accurately ripped
18 | (14/14) Accurately ripped
19 | (12/14) Accurately ripped
[AccurateRip ID: 0033f6f0-02cd2e87-0b111f13] found.
Track [ CRC | V2 ] Status
01 [139c71c5|bc40b0a3] (06+07/13) Accurately ripped
02 [e6f3b4c7|43e1c481] (06+07/13) Accurately ripped
03 [fc42518f|a23855fc] (06+07/13) Accurately ripped
04 [717738fc|764aa4ac] (06+07/13) Accurately ripped
05 [fe11619b|e51861d6] (06+07/13) Accurately ripped
06 [b1322283|0ee0763a] (06+07/13) Accurately ripped
07 [a4cdc92c|9ec5e175] (06+07/13) Accurately ripped
08 [643655a2|8fa09bcf] (06+07/13) Accurately ripped
09 [4bcdad11|c60d0383] (06+07/13) Accurately ripped
10 [b966b018|a83540f7] (06+07/13) Accurately ripped
11 [a3d39900|40e8763d] (06+07/13) Accurately ripped
12 [e3ba6618|fad5b481] (06+07/13) Accurately ripped
13 [8eee9401|f61d86ae] (06+07/13) Accurately ripped
14 [1ade0ca5|a4232f13] (06+07/13) Accurately ripped
15 [30e27b8a|ef25275c] (06+07/13) Accurately ripped
16 [ffd0313d|92696786] (06+07/13) Accurately ripped
17 [56a43947|27017551] (06+07/13) Accurately ripped
18 [7aba0692|018f669d] (06+07/13) Accurately ripped
19 [9ce184c1|9207550f] (05+07/12) Accurately ripped

Track Peak [ CRC32 ] [W/O NULL] [ LOG ]
– 95,9 [2D682BB5] [00BF5AEC] CRC32
01 95,3 [E80D7118] [601C83CD]
02 95,9 [756A33A6] [464E7B4C]
03 93,7 [7814B701] [7F108989]
04 89,3 [70C0070C] [26916B9E]
05 77,0 [A29B2EAF] [B1ABA69E]
06 84,6 [5A1043B6] [6B4D541E]
07 90,1 [EB677F6D] [309535A6]
08 85,7 [C55DFCDB] [11F3ECF6]
09 73,9 [651A3A73] [0E494D11]
10 87,3 [41F07961] [1F0EA5A5]
11 95,0 [1E27C595] [6C253735]
12 89,4 [3F7A3B46] [3F1CE7BF]
13 91,2 [DBADB3AC] [DB223BD0]
14 95,4 [75BFEEBD] [A1F8426D]
15 94,5 [785314A3] [F484D322]
16 88,6 [81709851] [3DC4A150]
17 93,8 [FF4D6079] [E0B11E62]
18 93,8 [99F20EC7] [71C73A1E]
19 94,1 [49415A65] [E90DB32E]

foobar2000 1.2 / Dynamic Range Meter 1.1.1
log date: 2017-11-20 21:56:16

––––––––––––––––––––––––––––––––––––––––
Analyzed: The Walker Brothers / Everything Under The Sun CD4
––––––––––––––––––––––––––––––––––––––––

DR Peak RMS Duration Track
––––––––––––––––––––––––––––––––––––––––
DR8 -0.42 dB -11.82 dB 5:45 01-No Regrets
DR10 -0.36 dB -13.71 dB 3:44 02-Hold An Old Friend's Hand
DR9 -0.56 dB -12.03 dB 3:52 03-Boulder To Birmingham
DR10 -0.97 dB -13.65 dB 3:53 04-Walkin' In The Sun
DR9 -2.27 dB -14.14 dB 3:49 05-Lover's Lullaby
DR9 -1.45 dB -13.53 dB 3:29 06-I've Got To Have You
DR11 -0.90 dB -13.52 dB 5:10 07-He'll Break Your Heart
DR10 -1.34 dB -14.57 dB 4:07 08-Everything That Touches You
DR9 -2.63 dB -15.60 dB 3:00 09-Lovers
DR10 -1.17 dB -13.50 dB 3:32 10-Burn Our Bridges
DR12 -0.44 dB -13.57 dB 3:54 11-Remember Me
DR12 -0.97 dB -15.36 dB 3:38 12-Loving Arms
DR10 -0.79 dB -13.29 dB 3:14 13-I Never Dreamed You'd Leave Me In Summer
DR10 -0.41 dB -14.12 dB 3:02 14-The Moon's A Harsh Mistress
DR9 -0.49 dB -13.32 dB 3:44 15-Marie
DR8 -1.05 dB -11.68 dB 3:26 16-Lines
DR9 -0.55 dB -11.02 dB 4:35 17-Taking It All In Stride
DR8 -0.56 dB -11.16 dB 3:37 18-Inside Of You
DR10 -0.52 dB -11.10 dB 3:34 19-Have You Seen My Baby?
––––––––––––––––––––––––––––––––––––––––

Number of tracks: 19
Official DR value: DR10

Samplerate: 44100 Hz
Channels: 2
Bits per sample: 16
Bitrate: 793 kbps
Codec: FLAC
================================================================================




The Walker Brothers - Everything Under The Sun: The Complete Recordings (2006) 5CD Box Set [Re-Up]


CD5: (1:12:04)

01. We're All Alone (4:38)
02. Many Rivers To Cross (4:40)
03. First Day (2:22)
04. Brand New Tennessee Waltz (3:13)
05. Hard To Be Friends (3:29)
06. Dreaming As One (3:04)
07. 'Til I Gain Control Again (5:03)
08. The Ballad (4:07)
09. Shutout (2:48)
10. Fat Mama Kick (2:53)
11. Nite Flights (4:22)
12. The Electrician (6:03)
13. Death Of Romance (3:43)
14. Den Haague (4:03)
15. Rhythms Of Vision (2:54)
16. Disciples Of Death (3:48)
17. Fury And The Fire (3:57)
18. Child Of Flames (3:15)
19. Tokyo Rimshot (3:41)


Exact Audio Copy V1.0 beta 1 from 15. November 2010

EAC extraction logfile from 7. March 2011, 14:51

The Walker Brothers / Everything Under The Sun CD5

Used drive : HL-DT-STDVDRAM GSA-H60N Adapter: 2 ID: 0

Read mode : Secure
Utilize accurate stream : Yes
Defeat audio cache : Yes
Make use of C2 pointers : No

Read offset correction : 667
Overread into Lead-In and Lead-Out : No
Fill up missing offset samples with silence : Yes
Delete leading and trailing silent blocks : No
Null samples used in CRC calculations : Yes
Used interface : Native Win32 interface for Win NT & 2000

Used output format : Internal WAV Routines
Sample format : 44.100 Hz; 16 Bit; Stereo


TOC of the extracted CD

Track | Start | Length | Start sector | End sector
––––––––––––––––––––––––––––-
1 | 0:00.00 | 4:38.11 | 0 | 20860
2 | 4:38.11 | 4:39.67 | 20861 | 41852
3 | 9:18.03 | 2:21.62 | 41853 | 52489
4 | 11:39.65 | 3:12.71 | 52490 | 66960
5 | 14:52.61 | 3:28.59 | 66961 | 82619
6 | 18:21.45 | 3:04.20 | 82620 | 96439
7 | 21:25.65 | 5:03.00 | 96440 | 119164
8 | 26:28.65 | 4:06.58 | 119165 | 137672
9 | 30:35.48 | 2:47.38 | 137673 | 150235
10 | 33:23.11 | 2:53.14 | 150236 | 163224
11 | 36:16.25 | 4:21.67 | 163225 | 182866
12 | 40:38.17 | 6:03.36 | 182867 | 210127
13 | 46:41.53 | 3:42.74 | 210128 | 226851
14 | 50:24.52 | 4:03.31 | 226852 | 245107
15 | 54:28.08 | 2:54.23 | 245108 | 258180
16 | 57:22.31 | 3:47.51 | 258181 | 275256
17 | 61:10.07 | 3:57.26 | 275257 | 293057
18 | 65:07.33 | 3:15.24 | 293058 | 307706
19 | 68:22.57 | 3:40.70 | 307707 | 324276


Range status and errors

Selected range

Filename C:\Documents and Settings\Администратор\Рабочий стол\Lossless Galaxy Rip by ALLexxess\2006 The Walker Brothers. Everything Under The Sun (5CD Box Set Universal Music)\CD5\The Walker Brothers - Everything Under The Sun CD5.wav

Peak level 100.0 %
Extraction speed 0.3 X
Range quality 100.0 %
Test CRC 4975E51F
Copy CRC 4975E51F
Copy OK

No errors occurred


AccurateRip summary

Track 1 accurately ripped (confidence 4) [ED0538B1]
Track 2 accurately ripped (confidence 4) [81DF2A39]
Track 3 accurately ripped (confidence 4) [6851F048]
Track 4 accurately ripped (confidence 4) [05B46A77]
Track 5 accurately ripped (confidence 4) [213DF47C]
Track 6 accurately ripped (confidence 4) [804DAA39]
Track 7 accurately ripped (confidence 4) [B8DCA85E]
Track 8 accurately ripped (confidence 4) [BED602EE]
Track 9 accurately ripped (confidence 4) [869E6839]
Track 10 accurately ripped (confidence 4) [55F7A40A]
Track 11 accurately ripped (confidence 4) [B51689EC]
Track 12 accurately ripped (confidence 4) [126266B5]
Track 13 accurately ripped (confidence 4) [4FC06197]
Track 14 accurately ripped (confidence 4) [FC4471F0]
Track 15 accurately ripped (confidence 4) [629E524A]
Track 16 accurately ripped (confidence 4) [5A11A040]
Track 17 accurately ripped (confidence 4) [91EE3A1B]
Track 18 accurately ripped (confidence 4) [D559F4B9]
Track 19 accurately ripped (confidence 4) [9DB95756]

All tracks accurately ripped

End of status report

==== Log checksum 761DF0511AD81434334F0D91F053194DE5BBA5D6414CD38BEFE174DFDBEB35CA ====

[CUETools log; Date: 20.11.2017 21:48:43; Version: 2.1.4]
[CTDB TOCID: E2oiXrCpahkxqrzz2AsLU20asoc-] found.
Track | CTDB Status
1 | (14/14) Accurately ripped
2 | (14/14) Accurately ripped
3 | (14/14) Accurately ripped
4 | (13/14) Accurately ripped
5 | (14/14) Accurately ripped
6 | (14/14) Accurately ripped
7 | (14/14) Accurately ripped
8 | (13/14) Accurately ripped
9 | (14/14) Accurately ripped
10 | (14/14) Accurately ripped
11 | (14/14) Accurately ripped
12 | (14/14) Accurately ripped
13 | (14/14) Accurately ripped
14 | (14/14) Accurately ripped
15 | (14/14) Accurately ripped
16 | (13/14) Accurately ripped
17 | (13/14) Accurately ripped
18 | (14/14) Accurately ripped
19 | (14/14) Accurately ripped
[AccurateRip ID: 0031aaaf-02b753bd-f310e313] found.
Track [ CRC | V2 ] Status
01 [ed0538b1|9371b3a1] (06+07/13) Accurately ripped
02 [81df2a39|ca31c298] (06+07/13) Accurately ripped
03 [6851f048|e795843e] (06+07/13) Accurately ripped
04 [05b46a77|10b3e600] (06+07/13) Accurately ripped
05 [213df47c|9acf60f5] (06+07/13) Accurately ripped
06 [804daa39|9d5335b2] (06+07/13) Accurately ripped
07 [b8dca85e|7a746488] (06+07/13) Accurately ripped
08 [bed602ee|17975cff] (06+07/13) Accurately ripped
09 [869e6839|b3cbe4b6] (06+07/13) Accurately ripped
10 [55f7a40a|d1dd7768] (06+07/13) Accurately ripped
11 [b51689ec|fe60e163] (06+07/13) Accurately ripped
12 [126266b5|61adc823] (06+07/13) Accurately ripped
13 [4fc06197|116ecaa7] (06+07/13) Accurately ripped
14 [fc4471f0|c0398dbe] (06+07/13) Accurately ripped
15 [629e524a|b0442cf2] (06+07/13) Accurately ripped
16 [5a11a040|c56e097f] (06+07/13) Accurately ripped
17 [91ee3a1b|df813972] (05+07/12) Accurately ripped
18 [d559f4b9|f202debb] (05+07/12) Accurately ripped
19 [9db95756|db78d2d2] (05+07/12) Accurately ripped

Track Peak [ CRC32 ] [W/O NULL] [ LOG ]
– 100,0 [4975E51F] [6BCB7886] CRC32
01 91,4 [A404338B] [D610BA73]
02 92,1 [A7F8F33E] [A24230BB]
03 94,0 [5D921227] [3272071C]
04 93,2 [13E4410F] [B27357D2]
05 87,7 [163F8526] [D546C57C]
06 86,1 [8D6A1A39] [3F6CDB59]
07 95,8 [79299432] [45BC6AB1]
08 93,3 [13546E24] [3438C952]
09 93,6 [32E28779] [31313A53]
10 97,0 [BA5573E3] [E9AACA86]
11 95,5 [D22582E2] [72A4062B]
12 94,4 [ED35B65C] [57FC40CB]
13 94,1 [FD6971BE] [AA5D1A5A]
14 91,7 [3778B2BE] [EC19A7C8]
15 100,0 [0A4F446A] [EDE343E1]
16 93,8 [FC69047E] [4F66EBB5]
17 96,7 [4313FB1C] [E1945A7C]
18 93,9 [1296AE55] [CD675423]
19 92,1 [1736E7FD] [B3B218B0]

foobar2000 1.2 / Dynamic Range Meter 1.1.1
log date: 2017-11-20 21:56:49

––––––––––––––––––––––––––––––––––––––––
Analyzed: The Walker Brothers / Everything Under The Sun CD5
––––––––––––––––––––––––––––––––––––––––

DR Peak RMS Duration Track
––––––––––––––––––––––––––––––––––––––––
DR10 -0.78 dB -13.65 dB 4:38 01-We're All Alone
DR9 -0.71 dB -11.94 dB 4:40 02-Many Rivers To Cross
DR10 -0.53 dB -12.56 dB 2:22 03-First Day
DR8 -0.61 dB -11.22 dB 3:13 04-Brand New Tennessee Waltz
DR11 -1.13 dB -15.12 dB 3:29 05-Hard To Be Friends
DR12 -1.30 dB -16.09 dB 3:04 06-Dreaming As One
DR10 -0.37 dB -12.34 dB 5:03 07-'Til I Gain Control Again
DR11 -0.60 dB -14.33 dB 4:07 08-The Ballad
DR9 -0.57 dB -11.26 dB 2:48 09-Shutout
DR9 -0.26 dB -10.55 dB 2:53 10-Fat Mama Kick
DR9 -0.40 dB -10.77 dB 4:22 11-Nite Flights
DR9 -0.50 dB -13.70 dB 6:03 12-The Electrician
DR12 -0.52 dB -13.90 dB 3:43 13-Death Of Romance
DR15 -0.75 dB -17.49 dB 4:03 14-Den Haague
DR14 0.00 dB -15.46 dB 2:54 15-Rhythms Of Vision
DR14 -0.55 dB -16.56 dB 3:48 16-Disciples Of Death
DR14 -0.29 dB -18.07 dB 3:57 17-Fury And The Fire
DR13 -0.55 dB -16.22 dB 3:15 18-Child Of Flames
DR12 -0.71 dB -14.38 dB 3:41 19-Tokyo Rimshot
––––––––––––––––––––––––––––––––––––––––

Number of tracks: 19
Official DR value: DR11

Samplerate: 44100 Hz
Channels: 2
Bits per sample: 16
Bitrate: 847 kbps
Codec: FLAC
================================================================================





All thanks to original releaser - ALLexxess

More interesting music in My Blog