Tags
Language
Tags
June 2024
Su Mo Tu We Th Fr Sa
26 27 28 29 30 31 1
2 3 4 5 6 7 8
9 10 11 12 13 14 15
16 17 18 19 20 21 22
23 24 25 26 27 28 29
30 1 2 3 4 5 6

The Zombies - Time of the Season: Complete Studio Recordings (1993)

Posted By: Rtax
The Zombies - Time of the Season: Complete Studio Recordings (1993)

The Zombies - Time of the Season: Complete Studio Recordings (1993)
EAC Rip | FLAC (tracks, cue, log) - 861 MB | MP3 CBR 320 kbps - 349 MB
2:31:54 | Rock, Beat, Psychedelic Pop, Baroque Pop | Label: Century Records

Aside from the Beatles and perhaps the Beach Boys, no mid-'60s rock group wrote melodies as gorgeous as those of the Zombies. Dominated by Colin Blunstone's breathy vocals, choral backup harmonies, and Rod Argent's shining jazz- and classical-influenced organ and piano, the band sounded utterly unique for its era. Indeed, the Zombies' material – penned by either Argent or guitarist Chris White, with unexpected shifts from major to minor keys – was perhaps too adventurous for the singles market.

To this day, they're known primarily for their three big hit singles, "She's Not There" (1964), "Tell Her No" (1965), and "Time of the Season" (1969). Most listeners remain unaware that the group maintained a remarkably high quality of work for several years. The Zombies formed in the London suburb of St. Albans in the early '60s, and didn't actually entertain serious professional ambitions until they won a local contest, the prize being an opportunity to record a demo for consideration at major labels. Argent's composition "She's Not There" got them a deal with Decca, and the song ended up being their debut release. It was a remarkably confident and original first-time effort, with a great minor melody and the organ, harmonies, and urgent, almost neurotic vocals that would typify much of their work. It did well enough in Britain (making the Top 20), but did even better in the States, where it went to number two. In fact, throughout their career, the Zombies would experience a lot more success across the waters than they did at home. In early 1965, another piece of classic British Invasion pop, "Tell Her No," went into the Top Ten. Yet that was as much Top 40 success as the group would have for several years. The tragedy was that throughout 1965 and 1966, the Zombies released a string of equally fine, intricately arranged singles that flopped commercially, at a time in which the chart success of 45s was a lot more important to sustain a band's livelihood than it would be a few years down the road. "Remember When I Loved Her," "I Want You Back Again," "Indication," "She's Coming Home," "Whenever You're Ready," "Gotta Get a Hold of Myself," "I Must Move," "Remember You," "Just Out of Reach," "How We Were Before" – all are lost classics, some relegated to B-sides that went virtually unheard, all showing the group eager to try new ideas and expand its approaches. What's worse, the lack of a big single denied the group opportunities to record albums – only one LP, rushed out to capitalize on the success of "She's Not There," would appear before 1968. Their failure to achieve more widespread success is a bit mystifying, perhaps explained by a few factors. While undeniably pop-based, their original compositions and arrangements were in some senses too adventurous for the radio. "Indication," for instance, winds down with a lengthy, torturous swirl of bitter organ solos and wordless, windblown vocals; "Remember When I Loved Her," despite its beautiful melody, has downbeat lyrics that are almost morbid; "I Want You Back Again" is arranged like a jazz waltz, with the sorts of sudden stops, tempo shifts, and lengthy minor organ solos found in a lot of their tunes. The Zombies were also, perhaps unfairly, saddled with a somewhat square image; much was made of their formidable scholastic record, and they most definitely did not align themselves with the R&B-based school of British bands, preferring more subtle and tuneful territory. By 1967, the group hadn't had a hit for quite some time, and reckoned it was time to pack it in. Their Decca contract expired early in the year, and the Zombies signed with CBS for one last album, knowing before the sessions that it was to be their last. A limited budget precluded the use of many session musicians, which actually worked to the Zombies' advantage, as they became among the first to utilize the then-novel Mellotron to emulate strings and horns. Odessey and Oracle was their only cohesive full-length platter (the first album was largely pasted together from singles and covers). A near-masterpiece of pop/psychedelia, it showed the group reaching new levels of sophistication in composition and performance, finally branching out beyond strictly romantic themes into more varied lyrical territory. The album passed virtually unnoticed in Britain, and was only released in the States after some lobbying from Al Kooper. By that time it was 1968, and the group had split for good. The Zombies had been defunct for some time when one of the tracks from Odessey, "Time of the Season," was released as a single, almost as an afterthought. It took off in early 1969 to become their biggest hit, but the members resisted temptations to re-form, leading to a couple of bizarre tours in the late '60s by bogus "Zombies" with no relation to the original group. By this time, Rod Argent was already recording as the leader of Argent, which went in a harder rock direction than the Zombies. After a spell as an insurance clerk, Colin Blunstone had some success (more in Britain than America) in the early '70s as a solo vocalist, with material that often amounted to soft rock variations on the Zombies sound. Much more influential than their commercial success would indicate, echoes of the Zombies' innovations can be heard in the Doors, the Byrds, the Left Banke, the Kinks, and many others. After a long period during which most of their work was out of print, virtually all of their recordings have been restored to availability on CD. Blunstone and Argent reunited for an album, Out of the Shadows, and toured together in 2003 as Blunstone & Argent, playing live shows into 2004 when they began gigging again as the Zombies, with an album and DVD set, Live at the Bloomsbury Theatre, appearing under that name in 2005. To honor the 40th anniversary of Odessey and Oracle, the four surviving original members of the group reunited for a series of three concerts at London's Shepherd's Bush Empire Theatre in March of 2008, with a CD and DVD set of the shows hitting the market later that summer. A new studio album, Breathe Out, Breathe In, attributed to the Zombies featuring Colin Blunstone & Rod Argent, appeared in 2011. The moniker was pared down to the Zombies for 2015's Still Got That Hunger, an album of new tunes from a lineup anchored by Argent and Blunstone and featuring guitarist Tom Toomey, bassist Jim Rodford, and drummer Steve Rodford. The Still Got That Hunger lineup toured in tandem with the Argent, Blunstone, White, and Grundy edition, presenting a show in which the original members performed Odessey and Oracle in full, followed by a set of new material from the most recent lineup.

Tracklist
Disc 1
1.Road Runner*
2.Summertime
3.I Can't Make Up My Mind
4.The Way I Feel Inside (Stereo Version)
5.Work'n' Play*
6.You've Really Got A Hold On Me〜Bring It On Home To Me
7.She's Not There (Stereo Version)
8.Sticks And Stones*
9.Can't Nobody Love You*
10.Woman
11.I Don't Want To Know*
12.I Remember When I Loved Her
13.What More Can I Do*
14.I Got My Mojo Working
15.Kind Of Girl
16.Sometimes*
17.It's Alright With Me*
18.Nothing's Changed
19.I'll Call You Mine (Undubbed Stereo Version)
20.I'm Going Home

Disc 2
1.You Make Me Feel Good
2.Leave Me Be
3.Tell Her No
4.She's Coming Home*
5.I Must Move (Stereo Version)
6.Whenever You're Ready
7.I Love You (Stereo Version)
8.I This The Dream (Stereo Version)
9.Don't Go Away
10.Remember You*
11.Just Out Of Reach
12.Indication
13.How We Were Before
14.Gotta Get A Hold Of Myself*
15.Going Out Of My Head (Alternate Mono Version)*
16.She Does Everything For Me
17.I Want You Back Again
18.I'll Call You Mine (Overdubbed Version)
19.Imagine The Swan (Alternate Stereo Mix)
20.Conversation Off Floral Street

Disc 3
1.Care Of Cell 44
2.A Rose For Emily
3.Maybe After He's Gone
4.Beechwood Park
5.Brief Candles
6.Hung Up On A Dream
7.Changes
8.I Want Her She Wants Me
9.This Will Be Our Year (Duophonic Mix)
10.Butcher's Tale (Western Front 1914)
11.Friends Of Mine
12.Time Of The Season
13.I Could Spend The Day
14.Girl Help Me (Mono Mix)*
15.She Loves The Way They Love Her (Mono Mix)*
16.Smokey Day
17.If It Don't Work Out (Mono Mix)*
18.I Know She Will
19.Don't Cry For Me
20.Walking In The Sun (Mono Mix)*
Exact Audio Copy V1.3 from 2. September 2016

EAC extraction logfile from 2. March 2020, 12:42

The Zombies / Time of the Season: The Complete Studio Recordings

Used drive : hp PLDS DVDRW DU8AESH Adapter: 1 ID: 0

Read mode : Secure
Utilize accurate stream : Yes
Defeat audio cache : Yes
Make use of C2 pointers : No

Read offset correction : 6
Overread into Lead-In and Lead-Out : No
Fill up missing offset samples with silence : Yes
Delete leading and trailing silent blocks : No
Null samples used in CRC calculations : Yes
Used interface : Native Win32 interface for Win NT & 2000
Gap handling : Appended to previous track

Used output format : User Defined Encoder
Selected bitrate : 128 kBit/s
Quality : High
Add ID3 tag : No
Command line compressor : C:\flac\flac.exe
Additional command line options : -8 -V -T "ARTIST=%artist%" -T "TITLE=%title%" -T "ALBUM=%albumtitle%" -T "DATE=%year%" -T "TRACKNUMBER=%tracknr%" -T "GENRE=%genre%" -T "COMMENT=%comment%" -T "BAND=%albuminterpret%" -T "ALBUMARTIST=%albuminterpret%" -T "COMPOSER=%composer%" %haslyrics%–tag-from-file=LYRICS="%lyricsfile%"%haslyrics% -T "DISCNUMBER=%cdnumber%" -T "TOTALDISCS=%totalcds%" -T "TOTALTRACKS=%numtracks%" %hascover%–picture="%coverfile%"%hascover% %source% -o %dest%


TOC of the extracted CD

Track | Start | Length | Start sector | End sector
––––––––––––––––––––––––––––-
1 | 0:00.00 | 2:06.22 | 0 | 9471
2 | 2:06.22 | 2:14.63 | 9472 | 19584
3 | 4:21.10 | 2:36.40 | 19585 | 31324
4 | 6:57.50 | 1:28.07 | 31325 | 37931
5 | 8:25.57 | 2:02.63 | 37932 | 47144
6 | 10:28.45 | 3:39.62 | 47145 | 63631
7 | 14:08.32 | 2:25.15 | 63632 | 74521
8 | 16:33.47 | 2:56.63 | 74522 | 87784
9 | 19:30.35 | 2:16.12 | 87785 | 97996
10 | 21:46.47 | 2:25.45 | 97997 | 108916
11 | 24:12.17 | 2:07.60 | 108917 | 118501
12 | 26:20.02 | 2:00.28 | 118502 | 127529
13 | 28:20.30 | 1:39.37 | 127530 | 134991
14 | 29:59.67 | 3:35.53 | 134992 | 151169
15 | 33:35.45 | 2:11.72 | 151170 | 161066
16 | 35:47.42 | 2:06.08 | 161067 | 170524
17 | 37:53.50 | 1:52.65 | 170525 | 178989
18 | 39:46.40 | 2:31.12 | 178990 | 190326
19 | 42:17.52 | 2:38.18 | 190327 | 202194
20 | 44:55.70 | 1:49.02 | 202195 | 210371


Track 1

Filename C:\rips\CECC00500\1\01 - Road Runner.wav

Pre-gap length 0:00:02.00

Peak level 96.1 %
Extraction speed 2.3 X
Track quality 100.0 %
Test CRC 1F849600
Copy CRC 1F849600
Accurately ripped (confidence 1) [29C01E6C] (AR v1)
Copy OK

Track 2

Filename C:\rips\CECC00500\1\02 - Summertime.wav

Pre-gap length 0:00:02.20

Peak level 85.4 %
Extraction speed 2.4 X
Track quality 100.0 %
Test CRC CB6CE1C8
Copy CRC CB6CE1C8
Accurately ripped (confidence 1) [A8C24330] (AR v1)
Copy OK

Track 3

Filename C:\rips\CECC00500\1\03 - I Can't Make Up My Mind.wav

Pre-gap length 0:00:02.05

Peak level 98.9 %
Extraction speed 2.7 X
Track quality 100.0 %
Test CRC F95323EF
Copy CRC F95323EF
Accurately ripped (confidence 1) [70276F44] (AR v1)
Copy OK

Track 4

Filename C:\rips\CECC00500\1\04 - The Way I Feel Inside.wav

Pre-gap length 0:00:01.23

Peak level 98.9 %
Extraction speed 2.4 X
Track quality 100.0 %
Test CRC BD38E0B3
Copy CRC BD38E0B3
Accurately ripped (confidence 1) [28546698] (AR v1)
Copy OK

Track 5

Filename C:\rips\CECC00500\1\05 - Work'n' Play.wav

Pre-gap length 0:00:01.20

Peak level 98.9 %
Extraction speed 2.1 X
Track quality 99.9 %
Test CRC B975C7C3
Copy CRC B975C7C3
Accurately ripped (confidence 1) [65BCDDB1] (AR v1)
Copy OK

Track 6

Filename C:\rips\CECC00500\1\06 - You've Really Got A Hold On Me〜Bring It On Home To Me.wav

Pre-gap length 0:00:00.70

Peak level 91.4 %
Extraction speed 3.2 X
Track quality 100.0 %
Test CRC D8424975
Copy CRC D8424975
Accurately ripped (confidence 1) [D9206A87] (AR v1)
Copy OK

Track 7

Filename C:\rips\CECC00500\1\07 - She's Not There.wav

Pre-gap length 0:00:01.12

Peak level 83.8 %
Extraction speed 3.2 X
Track quality 100.0 %
Test CRC B7E4C33C
Copy CRC B7E4C33C
Accurately ripped (confidence 1) [D30740CB] (AR v1)
Copy OK

Track 8

Filename C:\rips\CECC00500\1\08 - Sticks And Stones.wav

Pre-gap length 0:00:00.65

Peak level 90.8 %
Extraction speed 3.4 X
Track quality 100.0 %
Test CRC 030168DA
Copy CRC 030168DA
Accurately ripped (confidence 1) [495AABB9] (AR v1)
Copy OK

Track 9

Filename C:\rips\CECC00500\1\09 - Can't Nobody Love You.wav

Pre-gap length 0:00:01.68

Peak level 98.9 %
Extraction speed 3.4 X
Track quality 100.0 %
Test CRC 2B9F79B3
Copy CRC 2B9F79B3
Accurately ripped (confidence 1) [A3A8D41C] (AR v1)
Copy OK

Track 10

Filename C:\rips\CECC00500\1\10 - Woman.wav

Pre-gap length 0:00:02.05

Peak level 98.9 %
Extraction speed 3.6 X
Track quality 100.0 %
Test CRC 9D542C60
Copy CRC 9D542C60
Accurately ripped (confidence 1) [6DD3C8E1] (AR v1)
Copy OK

Track 11

Filename C:\rips\CECC00500\1\11 - I Don't Want To Know.wav

Pre-gap length 0:00:02.15

Peak level 98.6 %
Extraction speed 2.7 X
Track quality 99.9 %
Test CRC A84B686B
Copy CRC A84B686B
Accurately ripped (confidence 1) [5E4E74E0] (AR v1)
Copy OK

Track 12

Filename C:\rips\CECC00500\1\12 - Remember When I Loved Her.wav

Pre-gap length 0:00:01.55

Peak level 98.9 %
Extraction speed 3.6 X
Track quality 100.0 %
Test CRC 9209A3A9
Copy CRC 9209A3A9
Accurately ripped (confidence 1) [E61CFE29] (AR v1)
Copy OK

Track 13

Filename C:\rips\CECC00500\1\13 - What More Can I Do.wav

Pre-gap length 0:00:01.63

Peak level 98.9 %
Extraction speed 3.5 X
Track quality 100.0 %
Test CRC B845D7B3
Copy CRC B845D7B3
Accurately ripped (confidence 1) [C8878085] (AR v1)
Copy OK

Track 14

Filename C:\rips\CECC00500\1\14 - I Got My Mojo Working.wav

Pre-gap length 0:00:02.07

Peak level 98.9 %
Extraction speed 4.2 X
Track quality 100.0 %
Test CRC 653F447D
Copy CRC 653F447D
Accurately ripped (confidence 1) [B54A6870] (AR v1)
Copy OK

Track 15

Filename C:\rips\CECC00500\1\15 - Kind Of Girl.wav

Pre-gap length 0:00:02.20

Peak level 95.8 %
Extraction speed 3.9 X
Track quality 100.0 %
Test CRC C151F38D
Copy CRC C151F38D
Accurately ripped (confidence 1) [9AAC81CD] (AR v1)
Copy OK

Track 16

Filename C:\rips\CECC00500\1\16 - Sometimes.wav

Pre-gap length 0:00:02.17

Peak level 98.9 %
Extraction speed 4.0 X
Track quality 100.0 %
Test CRC ACD39C76
Copy CRC ACD39C76
Accurately ripped (confidence 1) [38069023] (AR v1)
Copy OK

Track 17

Filename C:\rips\CECC00500\1\17 - It's Alright With Me.wav

Pre-gap length 0:00:02.13

Peak level 98.9 %
Extraction speed 3.0 X
Track quality 99.9 %
Test CRC C1142741
Copy CRC C1142741
Accurately ripped (confidence 1) [91788919] (AR v1)
Copy OK

Track 18

Filename C:\rips\CECC00500\1\18 - Nothing's Changed.wav

Pre-gap length 0:00:02.53

Peak level 98.9 %
Extraction speed 4.3 X
Track quality 100.0 %
Test CRC 3FFAA042
Copy CRC 3FFAA042
Accurately ripped (confidence 1) [132784F6] (AR v1)
Copy OK

Track 19

Filename C:\rips\CECC00500\1\19 - I'll Call You Mine.wav

Pre-gap length 0:00:01.32

Peak level 98.9 %
Extraction speed 4.5 X
Track quality 100.0 %
Test CRC 00D13107
Copy CRC 00D13107
Accurately ripped (confidence 1) [6B6CD806] (AR v1)
Copy OK

Track 20

Filename C:\rips\CECC00500\1\20 - I'm Going Home.wav

Pre-gap length 0:00:01.63

Peak level 98.9 %
Extraction speed 4.1 X
Track quality 100.0 %
Test CRC 5E8560B5
Copy CRC 5E8560B5
Accurately ripped (confidence 1) [AF7E7B0F] (AR v1)
Copy OK


All tracks accurately ripped

No errors occurred

End of status report

–– CUETools DB Plugin V2.1.6

[CTDB TOCID: seaAWBaHRFcSL_a1MBVPVBM5JlU-] disk not present in database
Submit result: seaAWBaHRFcSL_a1MBVPVBM5JlU- has been uploaded


==== Log checksum B7EA8759FC0A2009563D01830C66FE1FBE26D9DC5A291639C407460EB769900B ====


Exact Audio Copy V1.3 from 2. September 2016

EAC extraction logfile from 2. March 2020, 14:01

The Zombies / Time of the Season: The Complete Studio Recordings

Used drive : hp PLDS DVDRW DU8AESH Adapter: 1 ID: 0

Read mode : Secure
Utilize accurate stream : Yes
Defeat audio cache : Yes
Make use of C2 pointers : No

Read offset correction : 6
Overread into Lead-In and Lead-Out : No
Fill up missing offset samples with silence : Yes
Delete leading and trailing silent blocks : No
Null samples used in CRC calculations : Yes
Used interface : Native Win32 interface for Win NT & 2000
Gap handling : Appended to previous track

Used output format : User Defined Encoder
Selected bitrate : 128 kBit/s
Quality : High
Add ID3 tag : No
Command line compressor : C:\flac\flac.exe
Additional command line options : -8 -V -T "ARTIST=%artist%" -T "TITLE=%title%" -T "ALBUM=%albumtitle%" -T "DATE=%year%" -T "TRACKNUMBER=%tracknr%" -T "GENRE=%genre%" -T "COMMENT=%comment%" -T "BAND=%albuminterpret%" -T "ALBUMARTIST=%albuminterpret%" -T "COMPOSER=%composer%" %haslyrics%–tag-from-file=LYRICS="%lyricsfile%"%haslyrics% -T "DISCNUMBER=%cdnumber%" -T "TOTALDISCS=%totalcds%" -T "TOTALTRACKS=%numtracks%" %hascover%–picture="%coverfile%"%hascover% %source% -o %dest%


TOC of the extracted CD

Track | Start | Length | Start sector | End sector
––––––––––––––––––––––––––––-
1 | 0:00.00 | 2:37.17 | 0 | 11791
2 | 2:37.17 | 2:06.68 | 11792 | 21309
3 | 4:44.10 | 2:06.05 | 21310 | 30764
4 | 6:50.15 | 2:40.00 | 30765 | 42764
5 | 9:30.15 | 1:55.72 | 42765 | 51461
6 | 11:26.12 | 2:42.50 | 51462 | 63661
7 | 14:08.62 | 3:11.33 | 63662 | 78019
8 | 17:20.20 | 2:42.47 | 78020 | 90216
9 | 20:02.67 | 2:33.30 | 90217 | 101721
10 | 22:36.22 | 1:58.25 | 101722 | 110596
11 | 24:34.47 | 2:07.55 | 110597 | 120176
12 | 26:42.27 | 3:00.53 | 120177 | 133729
13 | 29:43.05 | 2:06.17 | 133730 | 143196
14 | 31:49.22 | 2:26.33 | 143197 | 154179
15 | 34:15.55 | 3:02.00 | 154180 | 167829
16 | 37:17.55 | 2:15.60 | 167830 | 178014
17 | 39:33.40 | 2:09.42 | 178015 | 187731
18 | 41:43.07 | 2:34.03 | 187732 | 199284
19 | 44:17.10 | 3:12.07 | 199285 | 213691
20 | 47:29.17 | 2:39.25 | 213692 | 225641


Track 1

Filename C:\rips\CECC00500\2\01 - You Make Me Feel Good.wav

Pre-gap length 0:00:02.00

Peak level 98.9 %
Extraction speed 1.0 X
Track quality 100.0 %
Test CRC 8DA5A13D
Copy CRC 8DA5A13D
Accurately ripped (confidence 1) [728AD958] (AR v1)
Copy OK

Track 2

Filename C:\rips\CECC00500\2\02 - Leave Me.wav

Pre-gap length 0:00:01.00

Peak level 98.4 %
Extraction speed 1.0 X
Track quality 100.0 %
Test CRC 7BACCE04
Copy CRC 7BACCE04
Accurately ripped (confidence 1) [F5D8D488] (AR v1)
Copy OK

Track 3

Filename C:\rips\CECC00500\2\03 - Tell Her No.wav

Pre-gap length 0:00:00.53

Peak level 96.5 %
Extraction speed 1.1 X
Track quality 100.0 %
Test CRC DE51ECB0
Copy CRC DE51ECB0
Accurately ripped (confidence 1) [07F9C22A] (AR v1)
Copy OK

Track 4

Filename C:\rips\CECC00500\2\04 - She’s Coming Home.wav

Pre-gap length 0:00:01.05

Peak level 86.1 %
Extraction speed 1.0 X
Track quality 99.9 %
Test CRC C62E66A0
Copy CRC C62E66A0
Accurately ripped (confidence 1) [672E77A0] (AR v1)
Copy OK

Track 5

Filename C:\rips\CECC00500\2\05 - I Must Move.wav

Pre-gap length 0:00:02.15

Peak level 98.4 %
Extraction speed 1.2 X
Track quality 100.0 %
Test CRC 28DAD36D
Copy CRC 28DAD36D
Accurately ripped (confidence 1) [590B1343] (AR v1)
Copy OK

Track 6

Filename C:\rips\CECC00500\2\06 - Whenever You’re Ready.wav

Pre-gap length 0:00:00.72

Peak level 94.4 %
Extraction speed 1.1 X
Track quality 99.9 %
Test CRC E3FE364C
Copy CRC E3FE364C
Accurately ripped (confidence 1) [80828DE9] (AR v1)
Copy OK

Track 7

Filename C:\rips\CECC00500\2\07 - I Love You.wav

Pre-gap length 0:00:01.10

Peak level 98.9 %
Extraction speed 1.4 X
Track quality 100.0 %
Test CRC 11189029
Copy CRC 11189029
Accurately ripped (confidence 1) [BFADBB2A] (AR v1)
Copy OK

Track 8

Filename C:\rips\CECC00500\2\08 - Is This the Dream.wav

Pre-gap length 0:00:01.25

Peak level 98.4 %
Extraction speed 1.4 X
Track quality 100.0 %
Test CRC D5696075
Copy CRC D5696075
Accurately ripped (confidence 1) [6F7B6192] (AR v1)
Copy OK

Track 9

Filename C:\rips\CECC00500\2\09 - Don’t Go Away.wav

Pre-gap length 0:00:01.15

Peak level 91.4 %
Extraction speed 1.5 X
Track quality 100.0 %
Test CRC E0D909B5
Copy CRC E0D909B5
Accurately ripped (confidence 1) [D52C03EE] (AR v1)
Copy OK

Track 10

Filename C:\rips\CECC00500\2\10 - Remember You.wav

Pre-gap length 0:00:00.72

Peak level 92.6 %
Extraction speed 1.4 X
Track quality 100.0 %
Test CRC 28FBB8CD
Copy CRC 28FBB8CD
Accurately ripped (confidence 1) [9F61AA69] (AR v1)
Copy OK

Track 11

Filename C:\rips\CECC00500\2\11 - Just Out of Reach.wav

Pre-gap length 0:00:01.40

Peak level 98.4 %
Extraction speed 1.5 X
Track quality 100.0 %
Test CRC B4336CE7
Copy CRC B4336CE7
Accurately ripped (confidence 1) [C028CE36] (AR v1)
Copy OK

Track 12

Filename C:\rips\CECC00500\2\12 - Indication.wav

Pre-gap length 0:00:01.60

Peak level 98.9 %
Extraction speed 1.7 X
Track quality 100.0 %
Test CRC 5047898C
Copy CRC 5047898C
Accurately ripped (confidence 1) [AE32DE25] (AR v1)
Copy OK

Track 13

Filename C:\rips\CECC00500\2\13 - How We Were Before.wav

Pre-gap length 0:00:01.10

Peak level 98.4 %
Extraction speed 1.6 X
Track quality 100.0 %
Test CRC BB1CF252
Copy CRC BB1CF252
Accurately ripped (confidence 1) [D72BEC7E] (AR v1)
Copy OK

Track 14

Filename C:\rips\CECC00500\2\14 - Gotta Get a Hold of Myself.wav

Pre-gap length 0:00:01.32

Peak level 93.0 %
Extraction speed 1.4 X
Track quality 99.9 %
Test CRC D076218A
Copy CRC D076218A
Accurately ripped (confidence 1) [41DD1A85] (AR v1)
Copy OK

Track 15

Filename C:\rips\CECC00500\2\15 - Going Out of My Head.wav

Pre-gap length 0:00:01.38

Peak level 98.9 %
Extraction speed 1.8 X
Track quality 100.0 %
Test CRC DEB2197B
Copy CRC DEB2197B
Accurately ripped (confidence 1) [2E817517] (AR v1)
Copy OK

Track 16

Filename C:\rips\CECC00500\2\16 - She Does Everything for Me.wav

Pre-gap length 0:00:01.33

Peak level 95.9 %
Extraction speed 1.4 X
Track quality 99.9 %
Test CRC F2825710
Copy CRC F2825710
Accurately ripped (confidence 1) [D1CF6090] (AR v1)
Copy OK

Track 17

Filename C:\rips\CECC00500\2\17 - I Wanna Her Back.wav

Pre-gap length 0:00:01.35

Peak level 93.7 %
Extraction speed 1.8 X
Track quality 100.0 %
Test CRC 279CF603
Copy CRC 279CF603
Accurately ripped (confidence 1) [1DA8EF32] (AR v1)
Copy OK

Track 18

Filename C:\rips\CECC00500\2\18 - I’ll Call You Mine.wav

Pre-gap length 0:00:01.47

Peak level 98.9 %
Extraction speed 1.6 X
Track quality 99.9 %
Test CRC C4532175
Copy CRC C4532175
Accurately ripped (confidence 1) [07A436DE] (AR v1)
Copy OK

Track 19

Filename C:\rips\CECC00500\2\19 - Imagine the Swan.wav

Pre-gap length 0:00:01.23

Peak level 98.4 %
Extraction speed 2.0 X
Track quality 100.0 %
Test CRC 332862E6
Copy CRC 332862E6
Accurately ripped (confidence 1) [AAB0EA28] (AR v1)
Copy OK

Track 20

Filename C:\rips\CECC00500\2\20 - Conversation Off Floral Street.wav

Pre-gap length 0:00:01.57

Peak level 98.9 %
Extraction speed 2.0 X
Track quality 100.0 %
Test CRC 0E469EB5
Copy CRC 0E469EB5
Accurately ripped (confidence 1) [1F5260F9] (AR v1)
Copy OK


All tracks accurately ripped

No errors occurred

End of status report

–– CUETools DB Plugin V2.1.6

[CTDB TOCID: DRxFoixm13qWckuHqwH7t04d.NQ-] disk not present in database
Submit result: DRxFoixm13qWckuHqwH7t04d.NQ- has been uploaded


==== Log checksum B1E22C254A4D2C3E749069B1AFDA0AC57AA4DA1D32949AB52437A080DFADB981 ====