Subcategories

The Allman Brothers Band - Universal Masters Collection: Classic Allman Brothers (1999) [Re-Up]

Posted By: Designol
The Allman Brothers Band - Universal Masters Collection: Classic Allman Brothers (1999) [Re-Up]

The Allman Brothers Band - Universal Masters Collection: Classic Allman Brothers (1999)
EAC | FLAC | Image (Cue, Log) ~ 562 Mb | Mp3 (CBR320) ~ 229 Mb
Label: Polydor/Universal | # 543 405-2 | Time: 01:18:26 | Scans included
Southern Rock, Blues Rock, Classic Rock, Jam Bands

The Best of the Allman Brothers offers a brief but effective introduction to the band, featuring such hits as "Ramblin' Man", "Crazy Love", "Melissa", "Jessica", and "Statesboro Blues".

Stephen Thomas Erlewine, Allmusic.com

The Allman Brothers have many discs, studio, live, compilations, so its a daunting task wanting to know where to start, you should consider this collection as a fitting place to dip your toes into the water.

All the classics are here, Ramblin Man, Midnight Rider, Jessica etc, each illustrating the different shades that the Allmans brought to their music, country, rock, blues, the studio tracks are excellent but only give a brief glimpse of what they were capable of, in concert they had a tendency to stretch out, often comparable to the Grateful Dead.

Other highlights include 'Whipping Post' and the fantastic instrumental 'In Memory Of Elizabeth Reid' who looked after Confederate Graves i believe during the Civil War. The musicianship shown is top drawer with special mention of Dicky Betts, an unsung hero on lead guitar.

For the money you cant go wrong, it doesnt paint the whole picture but its a decent place to start.

Review by Mr Blackwell, Amazon.co.uk

The Allman Brothers Band - Universal Masters Collection: Classic Allman Brothers (1999) [Re-Up]



Tracklist:

01. Ramblin' Man (04:59)
02. Pegasus (07:34)
03. Midnight Rider (02:56)
04. Revival (04:04)
05. Melissa (03:56)
06. Don't Want You No More (02:27)
07. It's Not My Cross To Bear (04:53)
08. Jessica (07:07)
09. Statesboro' Blues (04:15)
10. Hoochie Coochie Man (04:59)
11. Whipping Post (05:19)
12. In Memory Of Elizabeth Reed (06:56)
13. Blue Sky (05:14)
14. Crazy Love (03:45)
15. Southbound (05:11)
16. Win Lose Or Draw (04:43)


Exact Audio Copy V1.0 beta 6 from 9. April 2015

Отчёт EAC об извлечении, выполненном 22. апреля 2015, 19:09

The Allman Brothers Band / Classic Allman Brothers

Дисковод: SONY CD-RW CRX230ED Adapter: 1 ID: 0

Режим чтения : Достоверность
Использование точного потока : Да
Отключение кэша аудио : Да
Использование указателей C2 : Нет

Коррекция смещения при чтении : 6
Способность читать области Lead-in и Lead-out : Нет
Заполнение пропущенных сэмплов тишиной : Да
Удаление блоков с тишиной в начале и конце : Нет
При вычислениях CRC использовались нулевые сэмплы : Да
Интерфейс : Встроенный Win32-интерфейс для Win NT/2000

Выходной формат : Внутренние WAV-операции
Формат сэмплов : 44.100 Гц; 16 бит; стерео


TOC извлечённого CD

Трек | Старт | Длительность | Начальный сектор | Конечный сектор
––––––––––––––––––––––––––––––––––-
1 | 0:00.00 | 4:59.22 | 0 | 22446
2 | 4:59.22 | 7:34.65 | 22447 | 56561
3 | 12:34.12 | 2:56.48 | 56562 | 69809
4 | 15:30.60 | 4:04.35 | 69810 | 88144
5 | 19:35.20 | 3:56.50 | 88145 | 105894
6 | 23:31.70 | 2:27.15 | 105895 | 116934
7 | 25:59.10 | 4:53.72 | 116935 | 138981
8 | 30:53.07 | 7:07.30 | 138982 | 171036
9 | 38:00.37 | 4:15.73 | 171037 | 190234
10 | 42:16.35 | 4:59.12 | 190235 | 212671
11 | 47:15.47 | 5:19.05 | 212672 | 236601
12 | 52:34.52 | 6:56.45 | 236602 | 267846
13 | 59:31.22 | 5:14.38 | 267847 | 291434
14 | 64:45.60 | 3:45.47 | 291435 | 308356
15 | 68:31.32 | 5:11.30 | 308357 | 331711
16 | 73:42.62 | 4:43.30 | 331712 | 352966


Характеристики диапазона извлечения и сообщения об ошибках

Выбранный диапазон

Имя файла F:\MusicCD\Torrent\The Allman Brothers Band - Classic Allman Brothers\The Allman Brothers Band - Classic Allman Brothers.wav

Пиковый уровень 95.3 %
Скорость извлечения 8.9 X
Качество диапазона 100.0 %
CRC теста 7BB4FF41
CRC копии 7BB4FF41
Копирование… OK

Ошибок не произошло


AccurateRip: сводка

Трек 1 : извлечено точно (доверие 23) [514DEC2E] (AR v2)
Трек 2 : извлечено точно (доверие 23) [EE920FF6] (AR v2)
Трек 3 : извлечено точно (доверие 23) [A0691517] (AR v2)
Трек 4 : извлечено точно (доверие 23) [606FEDA5] (AR v2)
Трек 5 : извлечено точно (доверие 23) [1ECAAA07] (AR v2)
Трек 6 : извлечено точно (доверие 23) [E61662B0] (AR v2)
Трек 7 : извлечено точно (доверие 23) [B61383F5] (AR v2)
Трек 8 : извлечено точно (доверие 23) [9F55998E] (AR v2)
Трек 9 : извлечено точно (доверие 23) [00A6B7D2] (AR v2)
Трек 10 : извлечено точно (доверие 23) [D347DE9F] (AR v2)
Трек 11 : извлечено точно (доверие 23) [AEBD48CB] (AR v2)
Трек 12 : извлечено точно (доверие 22) [E10D8AD8] (AR v2)
Трек 13 : извлечено точно (доверие 23) [94E6BF82] (AR v2)
Трек 14 : извлечено точно (доверие 23) [E38FF91F] (AR v2)
Трек 15 : извлечено точно (доверие 23) [9150E481] (AR v2)
Трек 16 : извлечено точно (доверие 23) [3214FBC1] (AR v2)

Все треки извлечены точно

Конец отчёта

–– CUETools DB Plugin V2.1.6

[CTDB TOCID: 9z64zuz0VPjyrgnhrLpOAu2PL6c-] found
Submit result: 9z64zuz0VPjyrgnhrLpOAu2PL6c- has been confirmed
Track | CTDB Status
1 | (21/21) Accurately ripped
2 | (21/21) Accurately ripped
3 | (21/21) Accurately ripped
4 | (21/21) Accurately ripped
5 | (21/21) Accurately ripped
6 | (21/21) Accurately ripped
7 | (21/21) Accurately ripped
8 | (21/21) Accurately ripped
9 | (21/21) Accurately ripped
10 | (21/21) Accurately ripped
11 | (21/21) Accurately ripped
12 | (21/21) Accurately ripped
13 | (21/21) Accurately ripped
14 | (21/21) Accurately ripped
15 | (21/21) Accurately ripped
16 | (21/21) Accurately ripped


==== Контрольная сумма отчёта 512FD00695FFBA7C5B21FD856A4FD41A34A66A0C6C3318975B85B0383A6E4CAF ====

foobar2000 1.2 / Dynamic Range Meter 1.1.1
log date: 2015-11-02 15:31:12

––––––––––––––––––––––––––––––––––––––––
Analyzed: The Allman Brothers Band / Classic Allman Brothers
––––––––––––––––––––––––––––––––––––––––

DR Peak RMS Duration Track
––––––––––––––––––––––––––––––––––––––––
DR8 -0.43 dB -10.88 dB 4:59 01-Ramblin' Man
DR10 -0.42 dB -12.10 dB 7:35 02-Pegasus
DR11 -0.60 dB -14.07 dB 2:57 03-Midnight Rider
DR10 -0.43 dB -12.81 dB 4:04 04-Revival
DR10 -0.48 dB -11.93 dB 3:57 05-Melissa
DR9 -0.48 dB -10.79 dB 2:27 06-Don't Want You No More
DR10 -0.52 dB -13.27 dB 4:54 07-It's Not My Cross To Bear
DR8 -0.44 dB -9.50 dB 7:07 08-Jessica
DR9 -0.45 dB -11.49 dB 4:16 09-Statesboro' Blues
DR10 -0.47 dB -12.15 dB 4:59 10-Hoochie Coochie Man
DR9 -0.50 dB -11.68 dB 5:19 11-Whipping Post
DR9 -0.42 dB -10.63 dB 6:57 12-In Memory Of Elizabeth Reed
DR8 -0.53 dB -9.87 dB 5:15 13-Blue Sky
DR11 -0.54 dB -12.34 dB 3:46 14-Crazy Love
DR8 -0.45 dB -10.43 dB 5:11 15-Southbound
DR9 -0.47 dB -12.54 dB 4:43 16-Win Lose Or Draw
––––––––––––––––––––––––––––––––––––––––

Number of tracks: 16
Official DR value: DR9

Samplerate: 44100 Hz
Channels: 2
Bits per sample: 16
Bitrate: 914 kbps
Codec: FLAC
================================================================================

The Allman Brothers Band - Universal Masters Collection: Classic Allman Brothers (1999) [Re-Up]

The Allman Brothers Band - Universal Masters Collection: Classic Allman Brothers (1999) [Re-Up]

All thanks to original releaser - squirr

More interesting music in My Blog