Subcategories
Please register here if you want to download anything!

If domain in your address bar is different from the list below
PLEASE LEAVE THAT SITE IMMEDIATELY
❗IT'S A DANGEROUS FAKE❗



Spicy Magazines for Men! ;-)

The Temptations - 5 Classic Albums (2017)

Posted By: BlondStyle
The Temptations - 5 Classic Albums (2017)

The Temptations - 5 Classic Albums (2017)
R&B, Soul, Doo-Wop, Motown | EAC Rip | FLAC, Img+CUE+LOG+Covers (JPEG) | 02:49:14 h. | 1,13 Gb
Label: Motown/Universal/Spectrum Music (EU) | Cat.# 5375316 | Released: 2017-03-31 (1965-1968)
The Temptations - 5 Classic Albums (2017)

A selection of 5 classic studio albums packaged together in a new slim line slipcase from one of Motown’s greatest groups, The Temptations. Featuring the albums - The Temptations Sing Smokey, The Temptin' Temptations, Gettin' Ready, With A Lot O' Soul, Diana Ross & The Supremes Join The Temptations.
~Review by Amazon

The Temptations - 5 Classic Albums (2017)




Release of this 5CDs Box Set: 2017, March, 31 [CDs Motown/Universal/Spectrum Music (EU), Cat.# 5375316 / UPC: 600753753163]
This compilation [5375316] ℗ & © 2017 Spectrum Music
The copyright in these sound recordings is licensed to Spectrum Music, a division of Universal Music Operations Ltd.
Disc 1 [5375317] & Disc 2 [5375318] ℗ 1965 & © 2017 Motown Records, a division of UMG Recordings, Inc.
Disc 3 [5375319] ℗ 1966 & © 2017 Motown Records, a division of UMG Recordings, Inc.
Disc 4 [5375320] ℗ 1967 & © 2017 Motown Records, a division of UMG Recordings, Inc.
Disc 5 [5375321] ℗ 1968 & © 2017 Motown Records, a division of UMG Recordings, Inc.
Made in the E.U.

The Temptations - 5 Classic Albums (2017)

CD1: The Temptations Sing Smokey (1965)
R&B, Soul, Doo-Wop, Motown | EAC Rip | FLAC, Img+CUE+LOG+Covers (JPEG) | 33:43 Min | 218,51 Mb
Label: Motown/Universal/Spectrum Music (EU) | Cat.# 5375317 | Released: 2017-03-31 (1965-03-22)

The Temptations Sing Smokey is the second studio album by The Temptations for the Motown label, released on the Gordy Records subsidiary (G 912) in 1965. As its name implies, it is composed entirely of songs written and produced by Smokey Robinson, and several other members of the Miracles as well. Several of the songs are covers of songs Robinson produced for the Miracles or Mary Wells, while the rest were originally recorded by The Temptations. Among these are three successful hit singles, starting with "The Way You Do the Things You Do", which featured Eddie Kendricks on lead vocals. The next two songs feature lead vocals by new Temptation David Ruffin – "It's Growing" and the group's signature song, "My Girl".
~Wikipedia


Tracklist:

01. The Way You Do The Things You Do (02:43)
02. Baby, Baby I Need You (02:52)
03. My Girl (02:43)
04. What Love Has Joined Together (02:57)
05. You'll Lose A Precious Love (02:32)
06. It's Growing (02:59)
07. Who's Lovin' You (02:58)
08. What's So Good About Goodbye (02:40)
09. You Beat Me To The Punch (02:45)
10. Way Over There (03:03)
11. You've Really Got A Hold On Me (02:58)
12. (You Can) Depend On Me (02:34)

Exact Audio Copy V1.3 from 2. September 2016

EAC extraction logfile from 8. September 2018, 12:31

The Temptations / The Temptations Sing Smokey

Used drive : PIONEER BD-RW BDR-208D Adapter: 1 ID: 0

Read mode : Secure
Utilize accurate stream : Yes
Defeat audio cache : Yes
Make use of C2 pointers : No

Read offset correction : 667
Overread into Lead-In and Lead-Out : No
Fill up missing offset samples with silence : Yes
Delete leading and trailing silent blocks : No
Null samples used in CRC calculations : Yes
Used interface : Native Win32 interface for Win NT & 2000

Used output format : Internal WAV Routines
Sample format : 44.100 Hz; 16 Bit; Stereo


TOC of the extracted CD

Track | Start | Length | Start sector | End sector
––––––––––––––––––––––––––––-
1 | 0:00.00 | 2:42.41 | 0 | 12190
2 | 2:42.41 | 2:51.54 | 12191 | 25069
3 | 5:34.20 | 2:43.30 | 25070 | 37324
4 | 8:17.50 | 2:57.33 | 37325 | 50632
5 | 11:15.08 | 2:32.14 | 50633 | 62046
6 | 13:47.22 | 2:59.31 | 62047 | 75502
7 | 16:46.53 | 2:57.51 | 75503 | 88828
8 | 19:44.29 | 2:39.45 | 88829 | 100798
9 | 22:23.74 | 2:44.42 | 100799 | 113140
10 | 25:08.41 | 3:02.42 | 113141 | 126832
11 | 28:11.08 | 2:58.11 | 126833 | 140193
12 | 31:09.19 | 2:33.40 | 140194 | 151708


Range status and errors

Selected range

Filename D:\BlondStyle\The Temptations Sing Smokey.wav

Peak level 92.6 %
Extraction speed 4.0 X
Range quality 100.0 %
Test CRC 67898E54
Copy CRC 67898E54
Copy OK

No errors occurred


AccurateRip summary

Track 1 accurately ripped (confidence 2) [BD4F8C87] (AR v2)
Track 2 accurately ripped (confidence 2) [82CCFB92] (AR v2)
Track 3 accurately ripped (confidence 2) [B3DC4907] (AR v2)
Track 4 accurately ripped (confidence 2) [5675AC8D] (AR v2)
Track 5 accurately ripped (confidence 2) [ACF5FC39] (AR v2)
Track 6 accurately ripped (confidence 2) [FF6EC1DC] (AR v2)
Track 7 accurately ripped (confidence 2) [FDA3147F] (AR v2)
Track 8 accurately ripped (confidence 2) [0536BC9C] (AR v2)
Track 9 accurately ripped (confidence 2) [217F9569] (AR v2)
Track 10 accurately ripped (confidence 2) [967D1FD4] (AR v2)
Track 11 accurately ripped (confidence 2) [418756FD] (AR v2)
Track 12 accurately ripped (confidence 2) [FB345798] (AR v2)

All tracks accurately ripped

End of status report

–– CUETools DB Plugin V2.1.6

[CTDB TOCID: aGVsFzMmXCZmmh611mgkuF.NDvg-] found
Submit result: aGVsFzMmXCZmmh611mgkuF.NDvg- has been confirmed
Track | CTDB Status
1 | (5/5) Accurately ripped
2 | (5/5) Accurately ripped
3 | (5/5) Accurately ripped
4 | (5/5) Accurately ripped
5 | (5/5) Accurately ripped
6 | (5/5) Accurately ripped
7 | (5/5) Accurately ripped
8 | (5/5) Accurately ripped
9 | (5/5) Accurately ripped
10 | (5/5) Accurately ripped
11 | (5/5) Accurately ripped
12 | (5/5) Accurately ripped


==== Log checksum 91AB7E9971587F9085010D59C8D9C99C91434E5BC1BABA2A27BF055E3C310A6E ====

––––––––––––––––––––––––––––––––––––––––
Analyzed: The Temptations / The Temptations Sing Smokey
––––––––––––––––––––––––––––––––––––––––

DR Peak RMS Duration Track
––––––––––––––––––––––––––––––––––––––––
DR7 -1.88 dB -10.23 dB 2:43 01-The Way You Do The Things You Do
DR12 -1.91 dB -16.54 dB 2:52 02-Baby, Baby I Need You
DR6 -3.12 dB -10.57 dB 2:43 03-My Girl
DR10 -2.61 dB -14.93 dB 2:57 04-What Love Has Joined Together
DR13 -0.66 dB -17.13 dB 2:32 05-You'll Lose A Precious Love
DR11 -2.21 dB -15.19 dB 2:59 06-It's Growing
DR12 -1.10 dB -15.93 dB 2:58 07-Who's Lovin' You
DR11 -1.81 dB -15.06 dB 2:40 08-What's So Good About Goodbye
DR12 -1.15 dB -15.06 dB 2:45 09-You Beat Me To The Punch
DR12 -2.07 dB -15.81 dB 3:03 10-Way Over There
DR12 -1.95 dB -15.99 dB 2:58 11-You've Really Got A Hold On Me
DR11 -1.11 dB -14.53 dB 2:34 12-(You Can) Depend On Me
––––––––––––––––––––––––––––––––––––––––

Number of tracks: 12
Official DR value: DR11

Samplerate: 44100 Hz
Channels: 2
Bits per sample: 16
Bitrate: 860 kbps
Codec: FLAC
================================================================================


The Temptations - 5 Classic Albums (2017)

CD2: The Temptin' Temptations (1965)
R&B, Soul, Doo-Wop, Motown | EAC Rip | FLAC, Img+CUE+LOG+Covers (JPEG) | 33:11 Min | 214,56 Mb
Label: Motown/Universal/Spectrum Music (EU) | Cat.# 5375318 | Released: 2017-03-31 (1965-11-01)

The Temptations' third album for Motown's Gordy subsidiary in 1965 kept the hit streak alive with the inclusion of "Since I Lost My Baby," "My Baby," "Don't Look Back," and "Girl (Why You Wanna Make Me Blue)." As a matter of fact, this album churned out seven chart hit singles -- or rather, they were included on this collection, as singles wagged the album dog back in those days. Either way, Smokey Robinson produces the lion's share of tracks (six) on here, including "You've Got to Earn It," "I'll Be in Trouble," and "You're the One I Need." The album also introduces Ivory Joe Hunter and Mickey Stevenson's production work on "Just Another Lonely Night" and "Born to Love You" and future producer Norman Whitfield on "The Girl's Alright With Me," "I Gotta Know Now," and "Everybody Needs Love." Another classic album by the original group.
~Review by Cub Koda


Tracklist:

01. Since I Lost My Baby (02:49)
02. The Girl's Alright With Me (02:55)
03. Just Another Lonely Night (03:03)
04. My Baby (03:01)
05. You've Got To Earn It (02:36)
06. Everybody Needs Love (02:59)
07. Girl (Why You Wanna Make Me Blue) (02:18)
08. Don't Look Back (02:50)
09. I Gotta Know Now (02:40)
10. Born To Love You (02:37)
11. I'll Be In Trouble (02:55)
12. You're The One I Need (02:27)

Exact Audio Copy V1.3 from 2. September 2016

EAC extraction logfile from 8. September 2018, 13:41

The Temptations / Temptin' Temptations

Used drive : PIONEER BD-RW BDR-208D Adapter: 1 ID: 0

Read mode : Secure
Utilize accurate stream : Yes
Defeat audio cache : Yes
Make use of C2 pointers : No

Read offset correction : 667
Overread into Lead-In and Lead-Out : No
Fill up missing offset samples with silence : Yes
Delete leading and trailing silent blocks : No
Null samples used in CRC calculations : Yes
Used interface : Native Win32 interface for Win NT & 2000

Used output format : Internal WAV Routines
Sample format : 44.100 Hz; 16 Bit; Stereo


TOC of the extracted CD

Track | Start | Length | Start sector | End sector
––––––––––––––––––––––––––––-
1 | 0:00.00 | 2:49.13 | 0 | 12687
2 | 2:49.13 | 2:54.53 | 12688 | 25790
3 | 5:43.66 | 3:03.20 | 25791 | 39535
4 | 8:47.11 | 3:01.25 | 39536 | 53135
5 | 11:48.36 | 2:35.47 | 53136 | 64807
6 | 14:24.08 | 2:59.21 | 64808 | 78253
7 | 17:23.29 | 2:17.53 | 78254 | 88581
8 | 19:41.07 | 2:50.20 | 88582 | 101351
9 | 22:31.27 | 2:39.59 | 101352 | 113335
10 | 25:11.11 | 2:37.36 | 113336 | 125146
11 | 27:48.47 | 2:55.03 | 125147 | 138274
12 | 30:43.50 | 2:26.61 | 138275 | 149285


Range status and errors

Selected range

Filename D:\BlondStyle\Temptin' Temptations.wav

Peak level 100.0 %
Extraction speed 4.0 X
Range quality 100.0 %
Test CRC EE0981D9
Copy CRC EE0981D9
Copy OK

No errors occurred


AccurateRip summary

Track 1 accurately ripped (confidence 1) [AA31D448] (AR v2)
Track 2 accurately ripped (confidence 1) [59B7116C] (AR v2)
Track 3 accurately ripped (confidence 1) [53DC82CC] (AR v2)
Track 4 accurately ripped (confidence 1) [A426FE6D] (AR v2)
Track 5 accurately ripped (confidence 1) [CE6FBCD7] (AR v2)
Track 6 accurately ripped (confidence 1) [93384C5B] (AR v2)
Track 7 accurately ripped (confidence 1) [E8EAD9C7] (AR v2)
Track 8 accurately ripped (confidence 1) [00E14CE8] (AR v2)
Track 9 accurately ripped (confidence 1) [0A7A3696] (AR v2)
Track 10 accurately ripped (confidence 1) [C35134B0] (AR v2)
Track 11 accurately ripped (confidence 1) [B55FDD13] (AR v2)
Track 12 accurately ripped (confidence 1) [5D0B52EA] (AR v2)

All tracks accurately ripped

End of status report

–– CUETools DB Plugin V2.1.6

[CTDB TOCID: 21eXdKbBpXf4V73Z3q0EhdvSJys-] found
Submit result: 21eXdKbBpXf4V73Z3q0EhdvSJys- has been confirmed
Track | CTDB Status
1 | (5/5) Accurately ripped
2 | (5/5) Accurately ripped
3 | (5/5) Accurately ripped
4 | (5/5) Accurately ripped
5 | (5/5) Accurately ripped
6 | (5/5) Accurately ripped
7 | (5/5) Accurately ripped
8 | (5/5) Accurately ripped
9 | (5/5) Accurately ripped
10 | (5/5) Accurately ripped
11 | (5/5) Accurately ripped
12 | (5/5) Accurately ripped


==== Log checksum 78AF55C67D71D0C63F17EC3EB9BF71B159C574DCB6C9CAFF55610B661D4FF6C8 ====

––––––––––––––––––––––––––––––––––––––––
Analyzed: The Temptations / Temptin' Temptations
––––––––––––––––––––––––––––––––––––––––

DR Peak RMS Duration Track
––––––––––––––––––––––––––––––––––––––––
DR11 -0.63 dB -13.40 dB 2:49 01-Since I Lost My Baby
DR10 0.00 dB -12.22 dB 2:55 02-The Girl's Alright With Me
DR9 0.00 dB -11.28 dB 3:03 03-Just Another Lonely Night
DR10 -0.15 dB -12.98 dB 3:01 04-My Baby
DR9 -0.20 dB -10.74 dB 2:36 05-You've Got To Earn It
DR7 -1.08 dB -9.61 dB 2:59 06-Everybody Needs Love
DR9 -1.85 dB -12.60 dB 2:18 07-Girl (Why You Wanna Make Me Blue)
DR9 -1.65 dB -12.36 dB 2:50 08-Don't Look Back
DR8 -1.23 dB -11.06 dB 2:40 09-I Gotta Know Now
DR9 0.00 dB -11.02 dB 2:37 10-Born To Love You
DR10 -0.62 dB -12.56 dB 2:55 11-I'll Be In Trouble
DR11 0.00 dB -13.18 dB 2:27 12-You're The One I Need
––––––––––––––––––––––––––––––––––––––––

Number of tracks: 12
Official DR value: DR10

Samplerate: 44100 Hz
Channels: 2
Bits per sample: 16
Bitrate: 859 kbps
Codec: FLAC
================================================================================


The Temptations - 5 Classic Albums (2017)

CD3: Gettin' Ready (1966)
R&B, Soul, Doo-Wop, Motown | EAC Rip | FLAC, Img+CUE+LOG+Covers (JPEG) | 33:43 Min | 231,17 Mb
Label: Motown/Universal/Spectrum Music (EU) | Cat.# 5375319 | Released: 2017-03-31 (1966-06-15)

The marvelous title track alone, with Eddie Kendricks gliding into the stratosphere, made this an instant winner. There were several fine songs that weren't hits, such as "Not Now, I'll Tell You Later" and "I've Been Good to You," and there sure wasn't anything wrong with powerhouse cuts like "Ain't Too Proud to Beg." The Temptations would score four straight number one hits in the mid-'60s, each one an unforgettable classic.
~Review by Ron Wynn


Tracklist:

01. Say You (02:34)
02. Little Miss Sweetness (03:12)
03. Ain't Too Proud to Beg (02:31)
04. Get Ready (02:40)
05. Lonely, Lonely Man Am I (02:37)
06. Too Busy Thinking About My Baby (02:42)
07. I've Been Good to You (03:04)
08. It's a Lonely World Without Your Love (02:36)
09. Fading Away (02:41)
10. Who You Gonna Run To (03:12)
11. You're Not an Ordinary Girl (02:54)
12. Not Now (I'll Tell You Later) (03:01)

Exact Audio Copy V1.3 from 2. September 2016

EAC extraction logfile from 8. September 2018, 14:31

The Temptations / Gettin' Ready

Used drive : PIONEER BD-RW BDR-208D Adapter: 1 ID: 0

Read mode : Secure
Utilize accurate stream : Yes
Defeat audio cache : Yes
Make use of C2 pointers : No

Read offset correction : 667
Overread into Lead-In and Lead-Out : No
Fill up missing offset samples with silence : Yes
Delete leading and trailing silent blocks : No
Null samples used in CRC calculations : Yes
Used interface : Native Win32 interface for Win NT & 2000

Used output format : Internal WAV Routines
Sample format : 44.100 Hz; 16 Bit; Stereo


TOC of the extracted CD

Track | Start | Length | Start sector | End sector
––––––––––––––––––––––––––––-
1 | 0:00.00 | 2:33.62 | 0 | 11536
2 | 2:33.62 | 3:12.35 | 11537 | 25971
3 | 5:46.22 | 2:31.33 | 25972 | 37329
4 | 8:17.55 | 2:40.17 | 37330 | 49346
5 | 10:57.72 | 2:36.68 | 49347 | 61114
6 | 13:34.65 | 2:41.67 | 61115 | 73256
7 | 16:16.57 | 3:04.13 | 73257 | 87069
8 | 19:20.70 | 2:35.57 | 87070 | 98751
9 | 21:56.52 | 2:40.43 | 98752 | 110794
10 | 24:37.20 | 3:11.47 | 110795 | 125166
11 | 27:48.67 | 2:53.50 | 125167 | 138191
12 | 30:42.42 | 3:00.46 | 138192 | 151737


Range status and errors

Selected range

Filename D:\BlondStyle\Gettin' Ready.wav

Peak level 100.0 %
Extraction speed 4.0 X
Range quality 100.0 %
Test CRC 08116669
Copy CRC 08116669
Copy OK

No errors occurred


AccurateRip summary

Track 1 accurately ripped (confidence 1) [C5FDFBE9] (AR v2)
Track 2 accurately ripped (confidence 1) [A81FF9CF] (AR v2)
Track 3 accurately ripped (confidence 1) [C808EE4D] (AR v2)
Track 4 accurately ripped (confidence 1) [7C8DE73D] (AR v2)
Track 5 accurately ripped (confidence 1) [4B973D1A] (AR v2)
Track 6 accurately ripped (confidence 1) [8856C431] (AR v2)
Track 7 accurately ripped (confidence 1) [4277E328] (AR v2)
Track 8 accurately ripped (confidence 1) [3C62EB66] (AR v2)
Track 9 accurately ripped (confidence 1) [601E20EA] (AR v2)
Track 10 accurately ripped (confidence 1) [BD88B4E6] (AR v2)
Track 11 accurately ripped (confidence 1) [DF95C916] (AR v2)
Track 12 accurately ripped (confidence 1) [95F5848D] (AR v2)

All tracks accurately ripped

End of status report

–– CUETools DB Plugin V2.1.6

[CTDB TOCID: bqMqa9VXUE1Qmmh6TQEt91oeaZE-] found
Submit result: bqMqa9VXUE1Qmmh6TQEt91oeaZE- has been confirmed
Track | CTDB Status
1 | (5/5) Accurately ripped
2 | (5/5) Accurately ripped
3 | (5/5) Accurately ripped
4 | (5/5) Accurately ripped
5 | (5/5) Accurately ripped
6 | (5/5) Accurately ripped
7 | (5/5) Accurately ripped
8 | (5/5) Accurately ripped
9 | (5/5) Accurately ripped
10 | (5/5) Accurately ripped
11 | (5/5) Accurately ripped
12 | (5/5) Accurately ripped


==== Log checksum 2F42FD2D761FBB7FF30F72F174C627F251ED027F173D393B91171C174E3426D2 ====

––––––––––––––––––––––––––––––––––––––––
Analyzed: The Temptations / Gettin' Ready
––––––––––––––––––––––––––––––––––––––––

DR Peak RMS Duration Track
––––––––––––––––––––––––––––––––––––––––
DR9 0.00 dB -11.03 dB 2:34 01-Say You
DR6 -2.08 dB -10.13 dB 3:12 02-Little Miss Sweetness
DR6 -2.18 dB -9.84 dB 2:31 03-Ain't Too Proud To Beg
DR5 -0.14 dB -6.52 dB 2:40 04-Get Ready
DR8 -1.00 dB -10.52 dB 2:37 05-Lonely, Lonely Man Am I
DR11 -0.13 dB -12.99 dB 2:42 06-Too Busy Thinking About My Baby
DR8 -1.33 dB -11.24 dB 3:04 07-I've Been Good To You
DR7 -0.25 dB -10.03 dB 2:36 08-It's A Lonely World Without Your Love
DR8 -1.14 dB -11.10 dB 2:41 09-Fading Away
DR9 0.00 dB -11.51 dB 3:12 10-Who You Gonna Run To
DR9 -1.09 dB -11.75 dB 2:54 11-You're Not An Ordinary Girl
DR8 -1.00 dB -11.77 dB 3:01 12-Not Now, I'll Tell You Later
––––––––––––––––––––––––––––––––––––––––

Number of tracks: 12
Official DR value: DR8

Samplerate: 44100 Hz
Channels: 2
Bits per sample: 16
Bitrate: 914 kbps
Codec: FLAC
================================================================================


The Temptations - 5 Classic Albums (2017)

CD4: The Temptations With A Lot O' Soul (1967)
R&B, Soul, Pop-Soul, Motown | EAC Rip | FLAC, Img+CUE+LOG+Covers (JPEG) | 34:46 Min | 214,36 Mb
Label: Motown/Universal/Spectrum Music (EU) | Cat.# 5375320 | Released: 2017-03-31 (1967-07-17)

This was the Temptations' seventh hit album in a row, released as Gordy 922 in July of 1967. It shows them -- and the Motown Sound moving in a more modern direction. Sporting the hits "(I Know) I'm Losing You" and "All I Need," it also features some first-rate vocal exchanges between Eddie Kendricks and David Ruffin on "You're My Everything." Other highlights include the Smokey Robinson-written and -produced "Don't Send Me Away," "Now That You've Won Me" and "No More Water In the Well," plus Ivy Jo Hunter's "Sorry Is a Sorry Word," while Norman Whitfield checks in for six of the production credits on here, especially effective on "Loneliness Made Me Realize) It's You That I Need" and "Two Sides to Love." Considered by many to be their best recording of the '60s, this is a very strong addition to anyone's Motown/R&B/soul music collection.
~Review by Cub Koda


Tracklist:

01. (I Know) I'm Losing You (02:30)
02. Ain't No Sun Since You've Been Gone (03:03)
03. All I Need (03:10)
04. (Loneliness Made Me Realize) It's You That I Need (02:39)
05. No More Water In The Well (03:03)
06. Save My Love For A Rainy Day (02:59)
07. Just One Last Look (02:46)
08. Sorry Is A Sorry Word (02:30)
09. You're My Everything (03:09)
10. Now That You've Won Me (03:12)
11. Two Sides To Love (02:46)
12. Don't Send Me Away (02:58)

Exact Audio Copy V1.3 from 2. September 2016

EAC extraction logfile from 8. September 2018, 15:20

The Temptations / With A Lot O' Soul

Used drive : PIONEER BD-RW BDR-208D Adapter: 1 ID: 0

Read mode : Secure
Utilize accurate stream : Yes
Defeat audio cache : Yes
Make use of C2 pointers : No

Read offset correction : 667
Overread into Lead-In and Lead-Out : No
Fill up missing offset samples with silence : Yes
Delete leading and trailing silent blocks : No
Null samples used in CRC calculations : Yes
Used interface : Native Win32 interface for Win NT & 2000

Used output format : Internal WAV Routines
Sample format : 44.100 Hz; 16 Bit; Stereo


TOC of the extracted CD

Track | Start | Length | Start sector | End sector
––––––––––––––––––––––––––––-
1 | 0:00.00 | 2:29.60 | 0 | 11234
2 | 2:29.60 | 3:02.65 | 11235 | 24949
3 | 5:32.50 | 3:10.03 | 24950 | 39202
4 | 8:42.53 | 2:38.55 | 39203 | 51107
5 | 11:21.33 | 3:02.60 | 51108 | 64817
6 | 14:24.18 | 2:59.30 | 64818 | 78272
7 | 17:23.48 | 2:46.22 | 78273 | 90744
8 | 20:09.70 | 2:30.20 | 90745 | 102014
9 | 22:40.15 | 3:09.25 | 102015 | 116214
10 | 25:49.40 | 3:12.07 | 116215 | 130621
11 | 29:01.47 | 2:45.48 | 130622 | 143044
12 | 31:47.20 | 2:58.11 | 143045 | 156405


Range status and errors

Selected range

Filename D:\BlondStyle\With A Lot O' Soul.wav

Peak level 100.0 %
Extraction speed 3.9 X
Range quality 100.0 %
Test CRC 4D7899F3
Copy CRC 4D7899F3
Copy OK

No errors occurred


AccurateRip summary

Track 1 accurately ripped (confidence 1) [C42C2408] (AR v2)
Track 2 accurately ripped (confidence 1) [209FC31E] (AR v2)
Track 3 accurately ripped (confidence 1) [A8CCEA7F] (AR v2)
Track 4 accurately ripped (confidence 1) [CC0A2346] (AR v2)
Track 5 accurately ripped (confidence 1) [3D291A04] (AR v2)
Track 6 accurately ripped (confidence 1) [F39D7FE0] (AR v2)
Track 7 accurately ripped (confidence 1) [489D8383] (AR v2)
Track 8 accurately ripped (confidence 1) [B335844A] (AR v2)
Track 9 accurately ripped (confidence 1) [125242C3] (AR v2)
Track 10 accurately ripped (confidence 1) [7C1DD6E7] (AR v2)
Track 11 accurately ripped (confidence 1) [22219125] (AR v2)
Track 12 accurately ripped (confidence 1) [F89919D2] (AR v2)

All tracks accurately ripped

End of status report

–– CUETools DB Plugin V2.1.6

[CTDB TOCID: 9nzu.vPqNJrSOLr8VcmNICkD9x0-] found
Submit result: 9nzu.vPqNJrSOLr8VcmNICkD9x0- has been confirmed
Track | CTDB Status
1 | (5/5) Accurately ripped
2 | (5/5) Accurately ripped
3 | (5/5) Accurately ripped
4 | (5/5) Accurately ripped
5 | (5/5) Accurately ripped
6 | (5/5) Accurately ripped
7 | (5/5) Accurately ripped
8 | (5/5) Accurately ripped
9 | (5/5) Accurately ripped
10 | (5/5) Accurately ripped
11 | (5/5) Accurately ripped
12 | (5/5) Accurately ripped


==== Log checksum D585DB0EC0843B2DEC30FE3E627AD4D5B29F160A6A5C43A061DC236F2FFC6D65 ====

––––––––––––––––––––––––––––––––––––––––
Analyzed: The Temptations / With A Lot O' Soul
––––––––––––––––––––––––––––––––––––––––

DR Peak RMS Duration Track
––––––––––––––––––––––––––––––––––––––––
DR12 -2.03 dB -16.14 dB 2:30 01-(I Know) I'm Losing You
DR11 -1.54 dB -14.97 dB 3:03 02-Ain't No Sun Since You've Been Gone
DR11 -1.88 dB -15.61 dB 3:10 03-All I Need
DR10 -2.75 dB -14.79 dB 2:39 04-(Loneliness Made Me Realize) It's You That I Need
DR10 -1.77 dB -14.13 dB 3:03 05-No More Water In The Well
DR12 0.00 dB -15.24 dB 2:59 06-Save My Love For A Rainy Day
DR11 -2.03 dB -15.43 dB 2:46 07-Just One Last Look
DR11 -2.43 dB -15.70 dB 2:30 08-Sorry Is A Sorry Word
DR9 -0.83 dB -11.08 dB 3:09 09-You're My Everything
DR13 -2.78 dB -18.26 dB 3:12 10-Now That You've Won Me
DR9 -1.34 dB -13.18 dB 2:46 11-Two Sides To Love
DR10 -2.12 dB -15.41 dB 2:58 12-Don't Send Me Away
––––––––––––––––––––––––––––––––––––––––

Number of tracks: 12
Official DR value: DR11

Samplerate: 44100 Hz
Channels: 2
Bits per sample: 16
Bitrate: 819 kbps
Codec: FLAC
================================================================================


The Temptations - 5 Classic Albums (2017)

CD5: Diana Ross & The Supremes Join The Temptations (1968)
R&B, Soul, Pop-Soul, Motown | EAC Rip | FLAC, Img+CUE+LOG+Covers (JPEG) | 33:52 Min | 211,68 Mb
Label: Motown/Universal/Spectrum Music (EU) | Cat.# 5375321 | Released: 2017-03-31 (1968-11-08)

What more could you want, two great groups, 11 great songs, and classic Motown productions. Contains the super groups' big hit "I'm Gonna Make You Love Me" and the equally effervescent "I'll Try Something New." But the goodies don't stop there: Check "Try It Baby," a remake of Marvin Gaye's hit, done this time with bass Melvin Franklin groaning lead lines to Diana Ross' soprano; Diana and Dennis Edwards recreate Marvin and Tammi on a rousing version of "Ain't No Mountain High Enough"; smooth tenor-singing Otis Williams does a silky rendition of "This Guy's in Love With You"; and Paul Williams is forever Paul as the prominent voice on "Then," an old Four Tops album cut. Originally released in 1969, this is a CD every Temptations, Diana Ross & the Supremes, and Motown fan should have.
~Review by Andrew Hamilton


Tracklist:

01. Try It Baby (03:48)
02. I Second That Emotion (02:30)
03. Ain't No Mountain High Enough (02:16)
04. I'm Gonna Make You Love Me (03:07)
05. This Guy's In Love With You (03:50)
06. Funky Broadway (02:31)
07. I'll Try Something New (02:21)
08. A Place In The Sun (03:30)
09. Sweet Inspiration (02:56)
10. Then (02:14)
11. The Impossible Dream (04:49)

Exact Audio Copy V1.3 from 2. September 2016

EAC extraction logfile from 8. September 2018, 16:10

Diana Ross & The Supremes And The Temptaions / Diana Ross & The Supremes Join The Temptations

Used drive : PIONEER BD-RW BDR-208D Adapter: 1 ID: 0

Read mode : Secure
Utilize accurate stream : Yes
Defeat audio cache : Yes
Make use of C2 pointers : No

Read offset correction : 667
Overread into Lead-In and Lead-Out : No
Fill up missing offset samples with silence : Yes
Delete leading and trailing silent blocks : No
Null samples used in CRC calculations : Yes
Used interface : Native Win32 interface for Win NT & 2000

Used output format : Internal WAV Routines
Sample format : 44.100 Hz; 16 Bit; Stereo


TOC of the extracted CD

Track | Start | Length | Start sector | End sector
––––––––––––––––––––––––––––-
1 | 0:00.00 | 3:48.28 | 0 | 17127
2 | 3:48.28 | 2:29.62 | 17128 | 28364
3 | 6:18.15 | 2:16.35 | 28365 | 38599
4 | 8:34.50 | 3:07.23 | 38600 | 52647
5 | 11:41.73 | 3:49.49 | 52648 | 69871
6 | 15:31.47 | 2:31.16 | 69872 | 81212
7 | 18:02.63 | 2:20.60 | 81213 | 91772
8 | 20:23.48 | 3:29.39 | 91773 | 107486
9 | 23:53.12 | 2:55.73 | 107487 | 120684
10 | 26:49.10 | 2:13.68 | 120685 | 130727
11 | 29:03.03 | 4:48.71 | 130728 | 152398


Range status and errors

Selected range

Filename D:\BlondStyle\Diana Ross & The Supremes Join The Temptations.wav

Peak level 100.0 %
Extraction speed 4.0 X
Range quality 100.0 %
Test CRC BBCBABEA
Copy CRC BBCBABEA
Copy OK

No errors occurred


AccurateRip summary

Track 1 accurately ripped (confidence 1) [979623AA] (AR v2)
Track 2 accurately ripped (confidence 1) [B2EACDF9] (AR v2)
Track 3 accurately ripped (confidence 1) [B4DF1376] (AR v2)
Track 4 accurately ripped (confidence 1) [40EFE501] (AR v2)
Track 5 accurately ripped (confidence 1) [DCCCF865] (AR v2)
Track 6 accurately ripped (confidence 1) [616EEBC0] (AR v2)
Track 7 accurately ripped (confidence 1) [937829CF] (AR v2)
Track 8 accurately ripped (confidence 1) [4D59872C] (AR v2)
Track 9 accurately ripped (confidence 1) [E026AE7B] (AR v2)
Track 10 accurately ripped (confidence 1) [0CED12FD] (AR v2)
Track 11 accurately ripped (confidence 1) [276A33BB] (AR v2)

All tracks accurately ripped

End of status report

–– CUETools DB Plugin V2.1.6

[CTDB TOCID: yicZzDDKzPq4BeLfn3kxRoalVB0-] found
Submit result: yicZzDDKzPq4BeLfn3kxRoalVB0- has been confirmed
Track | CTDB Status
1 | (5/5) Accurately ripped
2 | (5/5) Accurately ripped
3 | (5/5) Accurately ripped
4 | (5/5) Accurately ripped
5 | (5/5) Accurately ripped
6 | (5/5) Accurately ripped
7 | (5/5) Accurately ripped
8 | (5/5) Accurately ripped
9 | (5/5) Accurately ripped
10 | (5/5) Accurately ripped
11 | (5/5) Accurately ripped


==== Log checksum 6F4DFD3BEA6AE1F936DC234E9261CAE1B7E85366EFC2821295B477649B883D69 ====

––––––––––––––––––––––––––––––––––––––––
Analyzed: Diana Ross & The Supremes And The Temptaions / Diana Ross & The Supremes Join The Temptations
––––––––––––––––––––––––––––––––––––––––

DR Peak RMS Duration Track
––––––––––––––––––––––––––––––––––––––––
DR7 -2.30 dB -12.50 dB 3:48 01-Try It Baby
DR12 -1.20 dB -15.44 dB 2:30 02-I Second That Emotion
DR12 -0.25 dB -15.51 dB 2:16 03-Ain't No Mountain High Enough
DR13 -0.08 dB -16.93 dB 3:07 04-I'm Gonna Make You Love Me
DR13 -0.17 dB -17.44 dB 3:50 05-This Guy's In Love With You
DR12 -0.39 dB -15.74 dB 2:31 06-Funky Broadway
DR10 0.00 dB -13.76 dB 2:21 07-I'll Try Something New
DR14 -1.49 dB -17.61 dB 3:30 08-A Place In The Sun
DR14 -0.56 dB -17.74 dB 2:56 09-Sweet Inspiration
DR11 -2.15 dB -16.86 dB 2:14 10-Then
DR12 -0.89 dB -18.31 dB 4:49 11-The Impossible Dream
––––––––––––––––––––––––––––––––––––––––

Number of tracks: 11
Official DR value: DR12

Samplerate: 44100 Hz
Channels: 2
Bits per sample: 16
Bitrate: 830 kbps
Codec: FLAC
================================================================================

See also:


password: BlondStyle