Tags
Language
Tags

Tina Dico - In The Red (2005) 2CD Special Edition 2007

Posted By: Designol
Tina Dico - In The Red (2005) 2CD Special Edition 2007

Tina Dico - In The Red (2005) 2CD Special Edition 2007
EAC | FLAC | Tracks (Cue&Log) ~ 645 Mb | Mp3 (CBR320) ~ 146 Mb | Scans ~ 82 Mb
Label: Defend Music Inc., Finest Gramophone | # DFN 80008/DFN 80024 | Time: 01:47:29
Singer/Songwriter, Adult Alternative Pop/Rock, Folk-Rock, Acoustic

Special two CD edition of this critically-lauded album from the British-based Danish vocalist best known for her work with Zero 7. Features a bonus disc featuring 11 tracks from a live acoustic set recorded at the Copenhagen Jazzhouse plus two tracks from the album sessions ('When You're Away' and 'Lost In Art').

Singers who grow up in countries that are known for long, dark, cold winters don't necessarily provide an abundance of melancholy music. ABBA, after all, came out of Sweden – and they wrote the book on fun, frivolous, sugary Europop and became the blueprint for countless other Scandinavian (and German and Dutch) party groups. But it is safe to say that melancholy (or melancholic) is something that some Nordic artists do very well – Denmark's Tina Dico, for example. In the Red (which was released in Denmark in 2005 and the United States and England in early 2006) is a moody, dusky, highly introspective adult alternative/folk-rock outing that has plenty of melancholy moments, although it isn't as dark or troubled a disc as, say, Fiona Apple's Tidal. Dico has been quoted as saying that her three favorite albums of all time are Joni Mitchell's Blue, Tracy Chapman's self-titled debut album, and Nirvana's Nevermind – and while In the Red doesn't sound anything like Nevermind (Dico's work is reflective and understated, not forceful or aggressive), one can see that the Dane picked those three classics because she obviously identifies with music's deep thinkers. For all its restraint, In the Red has a lot of meat on its bones. Dico's performances are subtle but never wimpy – and anyone who has spent a lot of time savoring the likes of Mitchell (a major influence), Sarah McLachlan, Beth Orton, or Dido would have a hard time not enjoying finely crafted gems like "Room with a View," "One," "Losing," and "Head Shop." Produced by Chris Potter (the guy who worked with the Verve, not the jazz reedman Potter), In the Red is a highly promising effort from Dico – not to mention extremely listenable.

Review by Alex Henderson, Allmusic.com

Tina Dico - In The Red (2005) 2CD Special Edition 2007



Tracklist:

CD1 - In The Red (Album):

01. Losing (3:52)
02. Warm Sand (3:52)
03. Nobody's Man (4:03)
04. The City (4:22)
05. Give In (3:51)
06. In The Red (5:51)
07. Head Shop (3:54)
08. Use Me (3:43)
09. Room With A View (4:27)
10. My Mirror (4:17)
11. One (5:51)
12. Long Goodbye (4:19)

CD2 - Acoustic solo set recorded at Copenhagen Jazzhouse April 24, 2006

01. One (3:31)
02. Break of Day (4:06)
03. Craftmanship and Poetry (3:47)
04. Use Me (3:17)
05. Room with a View (3:33)
06. Don't Think Twice (3:00)
07. Magic (4:11)
08. Warm Sand (4:52)
09. Undone (4:49)
10. In The Red (5:59)
11. Back Where We Started (4:26)

In The Red "B" Sides

12. When You're Away (4:26)
13. Lost In Art (5:12)


EAC extraction logfile from 13. May 2008, 18:45 for CD
Tina Dico / In The Red

Used drive : HL-DT-STDVDRAM GSA-E10L Adapter: 2 ID: 0
Read mode : Secure with NO C2, accurate stream, disable cache
Read offset correction : 667
Overread into Lead-In and Lead-Out : No

Used output format : C:\Programme\FLAC\flac.exe (User Defined Encoder)
128 kBit/s
Additional command line options : -8 -A tukey(0.25) -A gauss(0.1875) -b 4096 -V –sector-align -T "artist=%a" -T "title=%t" -T "album=%g" -T "date=%y" -T "tracknumber=%n" -T "totaltracks=%x" -T "genre=%m" -T "comment=EAC FLAC 1.2.0 -8"

Other options :
Fill up missing offset samples with silence : Yes
Delete leading and trailing silent blocks : No
Native Win32 interface for Win NT & 2000


Track 1
Filename U:\Audio\FLAC4\Tina Dico (2007) In The Red {FLAC}\01 - Losing.wav

Pre-gap length 0:00:02.00

Peak level 97.2 %
Track quality 100.0 %
Test CRC D7C7FC2F
Copy CRC D7C7FC2F
Copy OK

Track 2
Filename U:\Audio\FLAC4\Tina Dico (2007) In The Red {FLAC}\02 - Warm Sand.wav

Peak level 99.5 %
Track quality 100.0 %
Test CRC 9780569D
Copy CRC 9780569D
Copy OK

Track 3
Filename U:\Audio\FLAC4\Tina Dico (2007) In The Red {FLAC}\03 - Nobody's Man.wav

Peak level 99.5 %
Track quality 100.0 %
Test CRC 7A958658
Copy CRC 7A958658
Copy OK

Track 4
Filename U:\Audio\FLAC4\Tina Dico (2007) In The Red {FLAC}\04 - The City.wav

Peak level 99.4 %
Track quality 100.0 %
Test CRC 96C4E1BC
Copy CRC 96C4E1BC
Copy OK

Track 5
Filename U:\Audio\FLAC4\Tina Dico (2007) In The Red {FLAC}\05 - Give In.wav

Peak level 99.6 %
Track quality 100.0 %
Test CRC 1C29ECCA
Copy CRC 1C29ECCA
Copy OK

Track 6
Filename U:\Audio\FLAC4\Tina Dico (2007) In The Red {FLAC}\06 - In The Red.wav

Peak level 94.9 %
Track quality 99.9 %
Test CRC E9CC0D87
Copy CRC E9CC0D87
Copy OK

Track 7
Filename U:\Audio\FLAC4\Tina Dico (2007) In The Red {FLAC}\07 - Head Shop.wav

Peak level 99.5 %
Track quality 99.9 %
Test CRC E1DA9F69
Copy CRC E1DA9F69
Copy OK

Track 8
Filename U:\Audio\FLAC4\Tina Dico (2007) In The Red {FLAC}\08 - Use Me.wav

Peak level 93.9 %
Track quality 100.0 %
Test CRC 50BC57E0
Copy CRC 50BC57E0
Copy OK

Track 9
Filename U:\Audio\FLAC4\Tina Dico (2007) In The Red {FLAC}\09 - Room With A View.wav

Peak level 99.4 %
Track quality 100.0 %
Test CRC FDB92692
Copy CRC FDB92692
Copy OK

Track 10
Filename U:\Audio\FLAC4\Tina Dico (2007) In The Red {FLAC}\10 - My Mirror.wav

Peak level 99.4 %
Track quality 100.0 %
Test CRC 88B713A0
Copy CRC 88B713A0
Copy OK

Track 11
Filename U:\Audio\FLAC4\Tina Dico (2007) In The Red {FLAC}\11 - One.wav

Peak level 99.5 %
Track quality 100.0 %
Test CRC D0C77A15
Copy CRC D0C77A15
Copy OK

Track 12
Filename U:\Audio\FLAC4\Tina Dico (2007) In The Red {FLAC}\12 - Long Goodbye.wav

Peak level 88.5 %
Track quality 100.0 %
Test CRC 2CDCFF03
Copy CRC 2CDCFF03
Copy OK

No errors occured


End of status report

[CUETools log; Date: 22.10.2018 22:56:18; Version: 2.1.4]
[CTDB TOCID: 7UQMEZC9EcwH7u6_WKHdzklpaOM-] found.
Track | CTDB Status
1 | (63/63) Accurately ripped
2 | (63/63) Accurately ripped
3 | (62/63) Accurately ripped
4 | (63/63) Accurately ripped
5 | (63/63) Accurately ripped
6 | (63/63) Accurately ripped
7 | (63/63) Accurately ripped
8 | (63/63) Accurately ripped
9 | (63/63) Accurately ripped
10 | (63/63) Accurately ripped
11 | (63/63) Accurately ripped
12 | (63/63) Accurately ripped
[AccurateRip ID: 00169958-00d4d601-a10c460c] found.
Track [ CRC | V2 ] Status
01 [c2ae8373|2c81b0ea] (041+030/099) Accurately ripped
02 [4351abe5|54967a21] (041+030/099) Accurately ripped
03 [56ab1d4f|2aa2b8d4] (041+029/098) Accurately ripped
04 [d0cdf68e|316a027d] (040+030/098) Accurately ripped
05 [292bc3db|163dea88] (041+030/100) Accurately ripped
06 [9499b9c4|8e75d282] (041+030/101) Accurately ripped
07 [0e442e98|57e3696b] (041+030/100) Accurately ripped
08 [eadb3a7b|1d8ce568] (041+030/099) Accurately ripped
09 [922749ef|732d547f] (041+030/099) Accurately ripped
10 [94c5521c|a5b4b0b7] (040+030/099) Accurately ripped
11 [e3d656e2|605993f4] (041+030/100) Accurately ripped
12 [e63cc50a|c3830c1f] (040+030/098) Accurately ripped
Offsetted by -634:
01 [c0bb143f] (006/099) Accurately ripped
02 [5485f963] (006/099) Accurately ripped
03 [4de97151] (006/098) Accurately ripped
04 [3468c48e] (006/098) Accurately ripped
05 [a34b3b71] (006/100) Accurately ripped
06 [5f1d2ab0] (006/101) Accurately ripped
07 [e4eb52fc] (006/100) Accurately ripped
08 [4e43e5e5] (006/099) Accurately ripped
09 [248ed4fd] (006/099) Accurately ripped
10 [a4509bf8] (006/099) Accurately ripped
11 [db88a5f6] (006/100) Accurately ripped
12 [3ebfe70a] (006/098) Accurately ripped
Offsetted by -730:
01 [bfa0b77f] (000/099) No match (V2 was not tested)
02 [69b3d983] (000/099) No match (V2 was not tested)
03 [c6877931] (000/098) No match (V2 was not tested)
04 [c4b3e48e] (000/098) No match (V2 was not tested)
05 [eb15da11] (000/100) No match (V2 was not tested)
06 [49494bf0] (000/101) No match (V2 was not tested)
07 [a88d1cbc] (000/100) No match (V2 was not tested)
08 [8f631745] (000/099) No match (V2 was not tested)
09 [31091c1d] (000/099) No match (V2 was not tested)
10 [6068ee38] (000/099) No match (V2 was not tested)
11 [fd0084b6] (000/100) No match (V2 was not tested)
12 [8a55c70a] (000/098) No match (V2 was not tested)

Track Peak [ CRC32 ] [W/O NULL] [ LOG ]
– 99,6 [13CF1FBC] [F8DD19D6]
01 97,2 [D7C7FC2F] [35D5C348] CRC32
02 99,5 [9780569D] [04FF7F4C] CRC32
03 99,5 [7A958658] [403ADD81] CRC32
04 99,4 [96C4E1BC] [54C84101] CRC32
05 99,6 [1C29ECCA] [7EE61670] CRC32
06 94,9 [E9CC0D87] [661EC8E4] CRC32
07 99,5 [E1DA9F69] [8987F40D] CRC32
08 93,9 [50BC57E0] [CD3A69AC] CRC32
09 99,4 [FDB92692] [A11E41B5] CRC32
10 99,4 [88B713A0] [F7C69C51] CRC32
11 99,5 [D0C77A15] [4EBED86D] CRC32
12 88,5 [2CDCFF03] [05B23B96] CRC32

foobar2000 1.2 / Dynamic Range Meter 1.1.1
log date: 2018-10-22 23:05:18

––––––––––––––––––––––––––––––––––––––––
Analyzed: Tina Dico / In The Red
––––––––––––––––––––––––––––––––––––––––

DR Peak RMS Duration Track
––––––––––––––––––––––––––––––––––––––––
DR7 -0.24 dB -9.93 dB 3:52 01-Losing
DR6 -0.04 dB -8.23 dB 3:52 02-Warm Sand
DR6 -0.04 dB -8.27 dB 4:03 03-Nobody's Man
DR7 -0.05 dB -8.54 dB 4:22 04-The City
DR7 -0.03 dB -8.60 dB 3:51 05-Give In
DR7 -0.45 dB -9.42 dB 5:51 06-In The Red
DR7 -0.04 dB -8.78 dB 3:54 07-Head Shop
DR7 -0.54 dB -8.90 dB 3:43 08-Use Me
DR7 -0.05 dB -9.28 dB 4:27 09-Room With A View
DR7 -0.05 dB -9.25 dB 4:17 10-My Mirror
DR7 -0.04 dB -8.87 dB 5:51 11-One
DR7 -1.05 dB -10.88 dB 4:19 12-Long Goodbye
––––––––––––––––––––––––––––––––––––––––

Number of tracks: 12
Official DR value: DR7

Samplerate: 44100 Hz
Channels: 2
Bits per sample: 16
Bitrate: 722 kbps
Codec: FLAC
================================================================================


EAC extraction logfile from 13. May 2008, 19:29 for CD
Tina Dico / In The Red (Bonus)

Used drive : HL-DT-STDVDRAM GSA-E10L Adapter: 2 ID: 0
Read mode : Secure with NO C2, accurate stream, disable cache
Read offset correction : 667
Overread into Lead-In and Lead-Out : No

Used output format : C:\Programme\FLAC\flac.exe (User Defined Encoder)
128 kBit/s
Additional command line options : -8 -A tukey(0.25) -A gauss(0.1875) -b 4096 -V –sector-align -T "artist=%a" -T "title=%t" -T "album=%g" -T "date=%y" -T "tracknumber=%n" -T "totaltracks=%x" -T "genre=%m" -T "comment=EAC FLAC 1.2.0 -8"

Other options :
Fill up missing offset samples with silence : Yes
Delete leading and trailing silent blocks : No
Native Win32 interface for Win NT & 2000


Track 1
Filename U:\Audio\FLAC4\Tina Dico (2007) In The Red (Bonus) {FLAC}\01 - One.wav

Pre-gap length 0:00:02.00

Peak level 99.4 %
Track quality 100.0 %
Test CRC F676B1E6
Copy CRC F676B1E6
Copy OK

Track 2
Filename U:\Audio\FLAC4\Tina Dico (2007) In The Red (Bonus) {FLAC}\02 - Break of Day.wav

Peak level 99.4 %
Track quality 100.0 %
Test CRC 715D4FF2
Copy CRC 715D4FF2
Copy OK

Track 3
Filename U:\Audio\FLAC4\Tina Dico (2007) In The Red (Bonus) {FLAC}\03 - Craftmanship and Poetry.wav

Peak level 99.7 %
Track quality 100.0 %
Test CRC 5A658AA5
Copy CRC 5A658AA5
Copy OK

Track 4
Filename U:\Audio\FLAC4\Tina Dico (2007) In The Red (Bonus) {FLAC}\04 - Use Me.wav

Peak level 99.4 %
Track quality 100.0 %
Test CRC 52576CDE
Copy CRC 52576CDE
Copy OK

Track 5
Filename U:\Audio\FLAC4\Tina Dico (2007) In The Red (Bonus) {FLAC}\05 - Room with a View.wav

Peak level 99.8 %
Track quality 100.0 %
Test CRC B7964856
Copy CRC B7964856
Copy OK

Track 6
Filename U:\Audio\FLAC4\Tina Dico (2007) In The Red (Bonus) {FLAC}\06 - Don't Think Twice.wav

Peak level 99.3 %
Track quality 100.0 %
Test CRC E7AD4FFE
Copy CRC E7AD4FFE
Copy OK

Track 7
Filename U:\Audio\FLAC4\Tina Dico (2007) In The Red (Bonus) {FLAC}\07 - Magic.wav

Peak level 99.4 %
Track quality 100.0 %
Test CRC 27ED7649
Copy CRC 27ED7649
Copy OK

Track 8
Filename U:\Audio\FLAC4\Tina Dico (2007) In The Red (Bonus) {FLAC}\08 - Warm Sand.wav

Peak level 99.5 %
Track quality 100.0 %
Test CRC 737F8154
Copy CRC 737F8154
Copy OK

Track 9
Filename U:\Audio\FLAC4\Tina Dico (2007) In The Red (Bonus) {FLAC}\09 - Undone.wav

Peak level 99.5 %
Track quality 100.0 %
Test CRC 8F734FCD
Copy CRC 8F734FCD
Copy OK

Track 10
Filename U:\Audio\FLAC4\Tina Dico (2007) In The Red (Bonus) {FLAC}\10 - In The Red.wav

Peak level 99.4 %
Track quality 100.0 %
Test CRC C961684F
Copy CRC C961684F
Copy OK

Track 11
Filename U:\Audio\FLAC4\Tina Dico (2007) In The Red (Bonus) {FLAC}\11 - Back Where We Started.wav

Peak level 99.7 %
Track quality 100.0 %
Test CRC 28B40D3B
Copy CRC 28B40D3B
Copy OK

Track 12
Filename U:\Audio\FLAC4\Tina Dico (2007) In The Red (Bonus) {FLAC}\12 - When You're Away.wav

Peak level 100.0 %
Track quality 99.9 %
Test CRC B2013F39
Copy CRC B2013F39
Copy OK

Track 13
Filename U:\Audio\FLAC4\Tina Dico (2007) In The Red (Bonus) {FLAC}\13 - Lost In Art.wav

Peak level 100.0 %
Track quality 100.0 %
Test CRC C7AF3875
Copy CRC C7AF3875
Copy OK

No errors occured


End of status report

[CUETools log; Date: 22.10.2018 22:57:08; Version: 2.1.4]
[CTDB TOCID: hvjeFARDmya._nxAW2cSIpq5VT8-] found.
Track | CTDB Status
1 | (35/35) Accurately ripped
2 | (35/35) Accurately ripped
3 | (35/35) Accurately ripped
4 | (35/35) Accurately ripped
5 | (35/35) Accurately ripped
6 | (35/35) Accurately ripped
7 | (35/35) Accurately ripped
8 | (35/35) Accurately ripped
9 | (35/35) Accurately ripped
10 | (35/35) Accurately ripped
11 | (35/35) Accurately ripped
12 | (35/35) Accurately ripped
13 | (35/35) Accurately ripped
[AccurateRip ID: 0018a62e-00fab4be-bd0ceb0d] found.
Track [ CRC | V2 ] Status
01 [89069ebb|88f5611c] (20+14/56) Accurately ripped
02 [ab733342|1e14e5b1] (20+14/56) Accurately ripped
03 [ea4aa52e|dc70401d] (20+14/56) Accurately ripped
04 [60afc3ef|3a8f94a6] (20+14/56) Accurately ripped
05 [a2145ed9|16b3266b] (20+14/56) Accurately ripped
06 [a00b34b9|78f9783f] (20+14/56) Accurately ripped
07 [21b72b6a|00fa2106] (20+14/56) Accurately ripped
08 [d0762a8d|39b89fce] (20+14/56) Accurately ripped
09 [abb14d7b|5a18ce36] (20+14/56) Accurately ripped
10 [44912df2|fb5456ca] (20+14/56) Accurately ripped
11 [aba5f567|3703b650] (20+14/56) Accurately ripped
12 [d611688e|0e3746e8] (20+14/56) Accurately ripped
13 [a0ca0905|69533585] (19+14/55) Accurately ripped
Offsetted by 68:
01 [b285341f] (07/56) Accurately ripped
02 [e2e06a5a] (07/56) Accurately ripped
03 [0e48a2aa] (07/56) Accurately ripped
04 [dde5824b] (07/56) Accurately ripped
05 [da415b5c] (07/56) Accurately ripped
06 [99939bcf] (07/56) Accurately ripped
07 [ef864a4a] (07/56) Accurately ripped
08 [09c125a2] (07/56) Accurately ripped
09 [5c60b9bf] (07/56) Accurately ripped
10 [1bf1f60a] (07/56) Accurately ripped
11 [bd87f0ee] (07/56) Accurately ripped
12 [1f826ed7] (07/56) Accurately ripped
13 [768dad56] (07/55) Accurately ripped
Offsetted by 6:
01 [98a28e0c] (00/56) No match (V2 was not tested)
02 [de8d064d] (00/56) No match (V2 was not tested)
03 [0bd94a35] (00/56) No match (V2 was not tested)
04 [8e00548b] (00/56) No match (V2 was not tested)
05 [4591a621] (00/56) No match (V2 was not tested)
06 [90f91c2d] (00/56) No match (V2 was not tested)
07 [be1da053] (00/56) No match (V2 was not tested)
08 [a764425b] (00/56) No match (V2 was not tested)
09 [2cacafc2] (00/56) No match (V2 was not tested)
10 [99df244c] (00/56) No match (V2 was not tested)
11 [981ce729] (00/56) No match (V2 was not tested)
12 [6f38c6fa] (00/56) No match (V2 was not tested)
13 [7ed7db31] (00/55) No match (V2 was not tested)

Track Peak [ CRC32 ] [W/O NULL] [ LOG ]
– 100,0 [35F1A8E8] [AD7BAA61]
01 99,4 [F676B1E6] [6FE6935F] CRC32
02 99,4 [715D4FF2] [66138539] CRC32
03 99,7 [5A658AA5] [D9995DB7] CRC32
04 99,4 [52576CDE] [4B6D65F1] CRC32
05 99,8 [B7964856] [62EB3E31] CRC32
06 99,3 [E7AD4FFE] [E98CBACE] CRC32
07 99,4 [27ED7649] [D3208388] CRC32
08 99,5 [737F8154] [8E96660C] CRC32
09 99,5 [8F734FCD] [18907C9C] CRC32
10 99,4 [C961684F] [E20DDB1E] CRC32
11 99,7 [28B40D3B] [53201A1E] CRC32
12 100,0 [B2013F39] [A5E71B1F] CRC32
13 100,0 [C7AF3875] [04AE1407] CRC32

foobar2000 1.2 / Dynamic Range Meter 1.1.1
log date: 2018-10-22 23:06:03

––––––––––––––––––––––––––––––––––––––––
Analyzed: Tina Dico / In The Red: Acoustic Solo Set
––––––––––––––––––––––––––––––––––––––––

DR Peak RMS Duration Track
––––––––––––––––––––––––––––––––––––––––
DR6 -0.05 dB -7.87 dB 3:31 01-One
DR6 -0.05 dB -8.57 dB 4:06 02-Break of Day
DR6 -0.03 dB -8.72 dB 3:47 03-Craftmanship and Poetry
DR6 -0.05 dB -8.64 dB 3:17 04-Use Me
DR7 -0.01 dB -9.77 dB 3:33 05-Room with a View
DR6 -0.05 dB -8.68 dB 3:00 06-Don't Think Twice
DR7 -0.05 dB -9.42 dB 4:11 07-Magic
DR5 -0.04 dB -7.36 dB 4:52 08-Warm Sand
DR6 -0.04 dB -7.48 dB 4:49 09-Undone
DR6 -0.05 dB -7.95 dB 5:59 10-In The Red
DR7 -0.02 dB -9.38 dB 4:26 11-Back Where We Started
DR7 0.00 dB -8.92 dB 4:26 12-When You're Away
DR6 0.00 dB -8.55 dB 5:12 13-Lost In Art
––––––––––––––––––––––––––––––––––––––––

Number of tracks: 13
Official DR value: DR6

Samplerate: 44100 Hz
Channels: 2
Bits per sample: 16
Bitrate: 874 kbps
Codec: FLAC
================================================================================

Tina Dico - In The Red (2005) 2CD Special Edition 2007