Subcategories

Zero 7 - Studio Albums 2001-2009 (5CD) [Re-Up]

Posted By: Designol
Zero 7 - Studio Albums 2001-2009 (5CD) [Re-Up]

Zero 7 - Studio Albums 2001-2009 [5CD]
EAC | FLAC | Image (Cue&Log) ~ 1.9 Gb | Mp3 (CBR320) ~ 830 Mb | Scans included | 04:52:29
Downtempo, Trip Hop, Ambient, Lounge, Chillout, Acid Jazz, Alternative/Indie Rock

Collection includes: Simple Things (2001, US Bonus tracks Edition), When It Falls (2004, US), The Garden (2006 US and Japanese Edition) and Yeah Ghost (2009, US).

The men behind the European downtempo outfit Zero 7 – producers Henry Binns and Sam Hardaker – launched their careers in the music industry as tea boys at a London recording studio. Shortly thereafter, however, both were in the thick of action, working alongside a string of well-known British musicians such as the Pet Shop Boys and Robert Plant. They spent the best part of the '90s honing their production skills behind the scenes. Then, after taking on the name of a nightclub in Honduras, the duo gradually began unleashing their own ideas onto an unsuspecting public.

First came a handful of remixes, including Radiohead's "Climbing Up the Walls" and Terry Callier's "Love Theme from Spartacus." Then came Zero 7's own material, beginning with the release of EP 1 in 1999. Only a handful of copies were made and they sold out in a matter of days, a feat that was repeated with Zero 7's second release, EP 2. The duo's first full-length album, Simple Things, came out amid much salivating from the media in mid-2001. A collection of laid-back soul, acid jazz, and funk tracks, the album carried collaborations with respected vocalists Mozez, Sia Furler, and Sophie Barker. A sophomore effort, When It Falls, appeared in March 2004, followed two years later by the Grammy-nominated Garden, which included contributions from longtime partner Sia as well as Swedish star José González. Meanwhile, Zero 7's presence on the popular Garden State soundtrack helped attract a wider audience, endearing the group's music to crowds that didn't typically follow the downtempo scene.

Despite the gathering momentum (which increased when Garden was nominated for a Grammy in 2007), Zero 7 was left without a principal vocalist when Sia Furler left the group's fold, choosing instead to focus on her songwriting career. Binns and Hardaker soon aligned themselves with a different singer, the London-based Eska Mtungwazi, whose influence resulted in a new emphasis on pop music. Released in 2009, Yeah Ghost unveiled Zero 7's retooled mix of pop-influenced electronica and ambient jazz, and the group toured on both sides of the Atlantic in support of its release.

Biography by David Peter Wesolowski, Allmusic.com

Zero 7 - Studio Albums 2001-2009 (5CD) [Re-Up]

Zero 7 - Studio Albums 2001-2009 (5CD) [Re-Up]






Zero 7 - Studio Albums 2001-2009 (5CD) [Re-Up]

Zero 7 - Simple Things (2001) US Bonus Tracks
EAC | FLAC | Image (Cue&Log) ~ 470 Mb (incl 5%) | Mp3 (CBR320) ~ 185 Mb (incl 5%)
Label: Quango/Palm | # QMGCD5007 | Time: 01:12:33 | Scans included

Forget the rampant labeling of Zero 7 as the "British Air," because Simple Things is a debut album that stands on its own as a chilled, subtle collection of organic songs. There are hints of Air, but there are equally relevant comparisons that might be made with Morcheeba, Rae & Christian, Nightmares on Wax, and early Massive Attack. Indeed, after Morcheeba's overproduced Fragments of Freedom and Rae & Christian's sloppy Sleepwalking, Simple Things picks up the slack in a rewarding manner. Simple Things might just be a gentle Cinderella, a kind stepsister to Massive Attack's dark masterpiece, Mezzanine. It's rare that a post-trip-hop album is so interesting and engrossing, but the duo of Henry Binns and Sam Hardaker mix a number of musical elements, such as soul-influenced diva vocals, gurgling and ringing keyboards, and classical string arrangements, into a relaxing, potent wave of sounds. Though the album starts to meander in its closing tracks, the first 50 minutes are cohesive, vibrant, and calming. Highlights are too numerous to call out, as the duo switches from instrumentals to songs featuring passionate, energized vocals from Mozez, Sia Furler, and Sophie Barker. All three vocalists mingle as perfect matches to the smart arrangements. Twinkling keyboards, barely-there basslines, and acoustic guitars create rolling melodies that never interfere with the task at hand, that of chiseling textured aural atmospheres. Simple Things is an accomplished slice of soulful genius that rewards frequent spins.

Review by Tim DiGravina, Allmusic.com

Tracklist:

01. I Have Seen (05:07), vocals – Mozez
02. Polaris (04:48)
03. Destiny (05:37), vocals – Sia Furler, Sophie Barker
04. Give It Away (05:17)
05. Simple Things (04:24), vocals – Mozez
06. Red Dust (05:40)
07. Distractions (05:16), vocals – Sia Furler
08. In The Waiting Line (04:32), vocals – Sophie Barker
09. Out Of Town (04:47)
10. This World (05:35), vocals – Mozez
11. Likufanele (06:11)
12. End Theme (03:39)
13. Salt Water Sound (bonus) (05:30)
14. Spinning (bonus) (06:03), vocals – Sophie Barker


Exact Audio Copy V1.0 beta 3 from 29. August 2011

EAC extraction logfile from 3. March 2013, 18:27

Zero 7 / Simple Things (US Edition)

Used drive : ASUS DRW-1814BLT Adapter: 3 ID: 0

Read mode : Secure
Utilize accurate stream : Yes
Defeat audio cache : Yes
Make use of C2 pointers : No

Read offset correction : 6
Overread into Lead-In and Lead-Out : No
Fill up missing offset samples with silence : Yes
Delete leading and trailing silent blocks : No
Null samples used in CRC calculations : Yes
Used interface : Native Win32 interface for Win NT & 2000

Used output format : User Defined Encoder
Selected bitrate : 1024 kBit/s
Quality : High
Add ID3 tag : No
Command line compressor : C:\Program Files (x86)\Exact Audio Copy\FLAC\FLAC.EXE
Additional command line options : -8 -V -T "ARTIST=%artist%" -T "TITLE=%title%" -T "ALBUM=%albumtitle%" -T "DATE=%year%" -T "TRACKNUMBER=%tracknr%" -T "GENRE=%genre%" -T "COMMENT=%comment%" -T "BAND=%albuminterpret%" -T "ALBUMARTIST=%albuminterpret%" -T "COMPOSER=%composer%" %haslyrics%–tag-from-file=LYRICS="%lyricsfile%"%haslyrics% -T "DISCNUMBER=%cdnumber%" -T "TOTALDISCS=%totalcds%" -T "TOTALTRACKS=%numtracks%" %hascover%–picture="%coverfile%"%hascover% %source% -o %dest%


TOC of the extracted CD

Track | Start | Length | Start sector | End sector
––––––––––––––––––––––––––––-
1 | 0:00.33 | 5:07.30 | 33 | 23087
2 | 5:07.63 | 4:48.15 | 23088 | 44702
3 | 9:56.03 | 5:37.60 | 44703 | 70037
4 | 15:33.63 | 5:17.25 | 70038 | 93837
5 | 20:51.13 | 4:24.07 | 93838 | 113644
6 | 25:15.20 | 5:40.25 | 113645 | 139169
7 | 30:55.45 | 5:16.28 | 139170 | 162897
8 | 36:11.73 | 4:32.17 | 162898 | 183314
9 | 40:44.15 | 4:47.70 | 183315 | 204909
10 | 45:32.10 | 5:35.60 | 204910 | 230094
11 | 51:07.70 | 6:11.30 | 230095 | 257949
12 | 57:19.25 | 3:39.50 | 257950 | 274424
13 | 60:59.00 | 5:30.65 | 274425 | 299239
14 | 66:29.65 | 6:03.10 | 299240 | 326474


Range status and errors

Selected range

Filename G:\Torrent\OUT\ZERO 7 (3 Albums)\2001 - Simple Things\Zero 7 - Simple Things (US Edition).wav

Peak level 97.9 %
Extraction speed 8.2 X
Range quality 100.0 %
Test CRC 897098C7
Copy CRC 897098C7
Copy OK

No errors occurred


AccurateRip summary

Track 1 accurately ripped (confidence 9) [70F76789] (AR v2)
Track 2 accurately ripped (confidence 9) [3BE985DE] (AR v2)
Track 3 accurately ripped (confidence 9) [CA41C149] (AR v2)
Track 4 accurately ripped (confidence 9) [9077B9DC] (AR v2)
Track 5 accurately ripped (confidence 9) [DA9BB053] (AR v2)
Track 6 accurately ripped (confidence 9) [A20C34FF] (AR v2)
Track 7 accurately ripped (confidence 9) [A0837E6B] (AR v2)
Track 8 accurately ripped (confidence 9) [9B57B433] (AR v2)
Track 9 accurately ripped (confidence 9) [16A4E00D] (AR v2)
Track 10 accurately ripped (confidence 9) [2CC6B1C3] (AR v2)
Track 11 accurately ripped (confidence 8) [9401D7AC] (AR v2)
Track 12 accurately ripped (confidence 9) [9594D535] (AR v2)
Track 13 accurately ripped (confidence 9) [E7398D0D] (AR v2)
Track 14 accurately ripped (confidence 8) [D7B7C00D] (AR v2)

All tracks accurately ripped

End of status report

–– CUETools DB Plugin V2.1.3

[CTDB TOCID: bvanMCGY_nXgp7FJzZYlwnaL4JI-] found, Submit result: discs with pregaps not supported in this protocol version
[0634b8dc] (83/83) Differs in 0 samples @
You can use CUETools to repair this rip.


==== Log checksum F0B543307E4EAD6B67F5D51F169BCB16A32CED19EE78132867BE511D9EE1DB6C ====

foobar2000 1.2 / Dynamic Range Meter 1.1.1
log date: 2013-04-01 19:30:01

––––––––––––––––––––––––––––––––––––––––
Analyzed: Zero 7 / Simple Things (US Edition)
––––––––––––––––––––––––––––––––––––––––

DR Peak RMS Duration Track
––––––––––––––––––––––––––––––––––––––––
DR7 -0.18 dB -8.39 dB 5:07 01-I Have Seen
DR8 -0.18 dB -10.93 dB 4:48 02-Polaris
DR7 -0.18 dB -8.23 dB 5:38 03-Destiny
DR7 -0.18 dB -9.87 dB 5:17 04-Give It Away
DR8 -0.18 dB -9.43 dB 4:24 05-Simple Things
DR8 -0.18 dB -10.24 dB 5:40 06-Red Dust
DR7 -0.18 dB -8.78 dB 5:16 07-Distractions
DR7 -0.18 dB -8.70 dB 4:32 08-In The Waiting Line
DR7 -0.18 dB -9.38 dB 4:48 09-Out Of Town
DR7 -0.18 dB -9.10 dB 5:36 10-This World
DR7 -0.18 dB -8.82 dB 6:11 11-Likufanele
DR9 -0.18 dB -13.23 dB 3:40 12-End Theme
DR8 -0.18 dB -9.27 dB 5:31 13-Salt Water Sound (bonus)
DR9 -0.18 dB -10.93 dB 6:03 14-Spinning (bonus)
––––––––––––––––––––––––––––––––––––––––

Number of tracks: 14
Official DR value: DR7

Samplerate: 44100 Hz
Channels: 2
Bits per sample: 16
Bitrate: 844 kbps
Codec: FLAC
================================================================================




Zero 7 - Studio Albums 2001-2009 (5CD) [Re-Up]

Zero 7 - When It Falls (2004) US
EAC | FLAC | Image (Cue&Log) ~ 408 Mb (incl 5%) | Mp3 (CBR320) ~ 163 Mb (incl 5%)
Label: Elektra | # 61558-2 | Time: 00:59:09 | Scans included

Downbeat acts proceed down the middle of the road at their own peril. While such a path may guarantee them a lucrative career in Starbucks outlets and on crossover compilations, the onset of advanced musicianship and mature songwriting often comes at the expense of artistic ability (see the steady downward fall of Groove Armada for an example). Zero 7, one of the few acts following in the wake of Air that had the talent to match, debuted with a record (Simple Things) that featured some of the warmest, most mellifluous tracks heard in electronic music since Moon Safari. When It Falls, their second record, finds the duo largely sticking to the same formula, with all the sinewy basslines and languorous vocals that follow along. As before, Zero 7 is more of a band than most downbeat acts, with credits for bass, guitar, and drums plus keyboards, brass, flute, and strings. Much of the record is nearly perfect downbeat, and the productions of Zero 7 main men Sam Hardaker and Henry Binns mesh perfectly with the instrumentation – so well, in fact, that the record threatens to sink into a nether region of pop music that's both flawless and harmless, more adult alternative than electronic pop. There's nothing wrong with that prospect, but when a downbeat act begins to emulate a pop act, the situation practically demands developed songs and tighter hooks. Unfortunately, only a few tracks here meet those criteria. Fortunately, though, they are beautiful indeed. On "Home," new addition Tina Dico summons the downy, pastoral yearning that's become de rigueur for downbeat female vocalists, and the returning Sia Furler shines on a track ("Somersault") that's simultaneously spacy and down-home. Sophie Barker, the star of Simple Things' "Destiny," returns for "In Time," one of the sweetest tracks Zero 7 has ever produced. The rest of the record, however, possesses very few of the unburnished edges needed by albums with character or personality. When It Falls reaches a nadir of sorts on "The Space Between," a pleasant song that unfortunately descends into self-parody over the course of its six minutes – two minutes of which are taken up by an overripe harmonica solo.

Review by John Bush, Allmusic.com

Tracklist:

01. Warm Sound (05:30), vocals – Mozez
02. Home (04:36), vocals – Tina Dico
03. Somersault (06:57), vocals – Sia Furler
04. Over Our Heads (04:24), vocals – Mozez
05. Passing By (04:51), vocals – Sophie Barker
06. When It Falls (05:30)
07. The Space Between (06:01), vocals – Tina Dico
08. Look Up (05:57), vocals – Yvonne John-Lewis
09. In Time (04:58), vocals – Sophie Barker
10. Speed Dial No. 2 (03:50), vocals – Sia Furler
11. Morning Song (06:30), vocals – Mozez


Exact Audio Copy V1.0 beta 3 from 29. August 2011

EAC extraction logfile from 3. March 2013, 18:43

Zero 7 / When It Falls

Used drive : ASUS DRW-1814BLT Adapter: 3 ID: 0

Read mode : Secure
Utilize accurate stream : Yes
Defeat audio cache : Yes
Make use of C2 pointers : No

Read offset correction : 6
Overread into Lead-In and Lead-Out : No
Fill up missing offset samples with silence : Yes
Delete leading and trailing silent blocks : No
Null samples used in CRC calculations : Yes
Used interface : Native Win32 interface for Win NT & 2000

Used output format : User Defined Encoder
Selected bitrate : 1024 kBit/s
Quality : High
Add ID3 tag : No
Command line compressor : C:\Program Files (x86)\Exact Audio Copy\FLAC\FLAC.EXE
Additional command line options : -8 -V -T "ARTIST=%artist%" -T "TITLE=%title%" -T "ALBUM=%albumtitle%" -T "DATE=%year%" -T "TRACKNUMBER=%tracknr%" -T "GENRE=%genre%" -T "COMMENT=%comment%" -T "BAND=%albuminterpret%" -T "ALBUMARTIST=%albuminterpret%" -T "COMPOSER=%composer%" %haslyrics%–tag-from-file=LYRICS="%lyricsfile%"%haslyrics% -T "DISCNUMBER=%cdnumber%" -T "TOTALDISCS=%totalcds%" -T "TOTALTRACKS=%numtracks%" %hascover%–picture="%coverfile%"%hascover% %source% -o %dest%


TOC of the extracted CD

Track | Start | Length | Start sector | End sector
––––––––––––––––––––––––––––-
1 | 0:00.00 | 5:30.35 | 0 | 24784
2 | 5:30.35 | 4:36.45 | 24785 | 45529
3 | 10:07.05 | 6:57.28 | 45530 | 76832
4 | 17:04.33 | 4:24.02 | 76833 | 96634
5 | 21:28.35 | 4:51.60 | 96635 | 118519
6 | 26:20.20 | 5:30.35 | 118520 | 143304
7 | 31:50.55 | 6:01.30 | 143305 | 170409
8 | 37:52.10 | 5:56.73 | 170410 | 197182
9 | 43:49.08 | 4:58.32 | 197183 | 219564
10 | 48:47.40 | 3:50.33 | 219565 | 236847
11 | 52:37.73 | 6:30.55 | 236848 | 266152
12 | 61:40.53 | 1:06.60 | 277553 | 282562


Range status and errors

Selected range

Filename G:\Torrent\OUT\ZERO 7 (3 Albums)\2004 - When It Falls\Zero 7 - When It Falls.wav

Peak level 98.0 %
Extraction speed 8.9 X
Range quality 100.0 %
Test CRC 6E9C1831
Copy CRC 6E9C1831
Copy OK

No errors occurred


AccurateRip summary

Track 1 accurately ripped (confidence 10) [F87DD2C9] (AR v2)
Track 2 accurately ripped (confidence 11) [613E1FA6] (AR v2)
Track 3 accurately ripped (confidence 11) [74F67C7E] (AR v2)
Track 4 accurately ripped (confidence 11) [51293725] (AR v2)
Track 5 accurately ripped (confidence 11) [5E9157FB] (AR v2)
Track 6 accurately ripped (confidence 10) [8514D459] (AR v2)
Track 7 accurately ripped (confidence 11) [085543D3] (AR v2)
Track 8 accurately ripped (confidence 11) [E3B05252] (AR v2)
Track 9 accurately ripped (confidence 11) [31CE4D2B] (AR v2)
Track 10 accurately ripped (confidence 11) [06EE04CD] (AR v2)
Track 11 accurately ripped (confidence 11) [C439AD53] (AR v2)

All tracks accurately ripped

End of status report

–– CUETools DB Plugin V2.1.3

[CTDB TOCID: umo8NLCtJ5XUaQb9SOvScXM3IOM-] found, Submit result: umo8NLCtJ5XUaQb9SOvScXM3IOM- has been confirmed
[487b61e4] (122/122) Accurately ripped


==== Log checksum F0A1B37D03AEFE7A3110EE019938A0018FDF057DE9CCCEB15E09C0062399530A ====

foobar2000 1.2 / Dynamic Range Meter 1.1.1
log date: 2013-04-01 19:30:20

––––––––––––––––––––––––––––––––––––––––
Analyzed: Zero 7 / When It Falls
––––––––––––––––––––––––––––––––––––––––

DR Peak RMS Duration Track
––––––––––––––––––––––––––––––––––––––––
DR7 -0.17 dB -9.09 dB 5:30 01-Warm Sound
DR6 -0.17 dB -9.17 dB 4:37 02-Home
DR8 -0.17 dB -10.06 dB 6:57 03-Somersault
DR7 -0.17 dB -8.92 dB 4:24 04-Over Our Heads
DR9 -0.17 dB -10.30 dB 4:52 05-Passing By
DR7 -0.17 dB -9.87 dB 5:30 06-When It Falls
DR8 -0.17 dB -10.44 dB 6:01 07-The Space Between
DR7 -0.17 dB -9.50 dB 5:57 08-Look Up
DR8 -0.64 dB -9.70 dB 4:58 09-In Time
DR8 -0.17 dB -10.97 dB 3:50 10-Speed Dial No. 2
DR7 -0.17 dB -10.12 dB 6:31 11-Morning Song
––––––––––––––––––––––––––––––––––––––––

Number of tracks: 11
Official DR value: DR7

Samplerate: 44100 Hz
Channels: 2
Bits per sample: 16
Bitrate: 870 kbps
Codec: FLAC
================================================================================




Zero 7 - Studio Albums 2001-2009 (5CD) [Re-Up]

Zero 7 - The Garden (2006) US Press
EAC | FLAC | Image (Cue&Log) ~ 339 Mb (incl 5%) | Mp3 (CBR320) ~ 150 Mb (incl 5%)
Label: Atlantic | # 63380-2 | Time: 00:51:29 | Scans included

In Zero 7's last album, When It Falls, there were more than noticeable hints that the band was taking the idea of a pop song a lot more seriously, which should then make it unsurprising that with Garden they've stepped even further in that direction, all but leaving their downbeat roots behind. Instead of being what the music is based around, the synthesized aspects once so prominent now act more like the thread that sews the different squares of the quilt together and keeps them in place. The actual substance, the fabric, is much more organic; it's the guitars, the keyboards, the horns, and the rich vocal harmonies. Sia returns as a guest artist, as does Swedish star José González, whose Jim Croce-esque voice works fantastically with the verdant plot of land that Zero 7 has managed to cultivate. The songs are creative and interesting, explorative without losing their focus or their point, moving about from being in love to reflections on life to obsession. "Throw It All Away" has a nice, easy summer groove, "Today" uses sparser instrumentals over electronic percussion, the vibraphone in "The Pageant of the Bizarre" adds a circusy, Air-like feel, and "Crosses," which first appeared on González's album Veneer, is embellished with changing dynamics, a Fleetwood Mac-esque piano line, plenty of keyboard effects, and a string section. While Sia's emotive voice has been long proven to be an excellent fit with Zero 7's music, the relative flatness of González's adds a nice texture to the rolling movement behind it. And main songwriter Henry Binns, who also take lead vocals occasionally, is a master at adding harmonies that bring a kind of light pastoral intensity to the pieces, and gives them a great sense of structure. With Garden, Zero 7 has created what could be the ultimate summer evening record: warm pop hooks, lush instrumentation, unobtrusive electronica elements, and '60s-style harmonies that all come together into superb, wonderfully descriptive songs. And what could be better than that?

Review by Marisa Brown, Allmusic.com

Tracklist:

01. Futures (03:49)
02. Throw It All Away (05:20), vocals – Sia Furler
03. Seeing Things (05:09)
04. The Pageant Of The Bizarre (04:21), vocals – Sia Furler
05. You're My Flame (03:15), vocals – Sia Furler
06. Left Behind (01:15)
07. Today (04:03)
08. This Fine Social Scene (04:27), vocals – Sia Furler
09. Your Place (06:01)
10. If I Can't Have You (03:22), vocals – Sia Furler
11. Crosses (06:39)
12. Waiting To Die (03:41), vocals – Sia Furler


Exact Audio Copy V1.0 beta 3 from 29. August 2011

EAC extraction logfile from 4. March 2013, 19:42

Zero 7 / The Garden (US Version)

Used drive : ASUS DRW-1814BLT Adapter: 3 ID: 0

Read mode : Secure
Utilize accurate stream : Yes
Defeat audio cache : Yes
Make use of C2 pointers : No

Read offset correction : 6
Overread into Lead-In and Lead-Out : No
Fill up missing offset samples with silence : Yes
Delete leading and trailing silent blocks : No
Null samples used in CRC calculations : Yes
Used interface : Native Win32 interface for Win NT & 2000

Used output format : User Defined Encoder
Selected bitrate : 1024 kBit/s
Quality : High
Add ID3 tag : No
Command line compressor : C:\Program Files (x86)\Exact Audio Copy\FLAC\FLAC.EXE
Additional command line options : -8 -V -T "ARTIST=%artist%" -T "TITLE=%title%" -T "ALBUM=%albumtitle%" -T "DATE=%year%" -T "TRACKNUMBER=%tracknr%" -T "GENRE=%genre%" -T "COMMENT=%comment%" -T "BAND=%albuminterpret%" -T "ALBUMARTIST=%albuminterpret%" -T "COMPOSER=%composer%" %haslyrics%–tag-from-file=LYRICS="%lyricsfile%"%haslyrics% -T "DISCNUMBER=%cdnumber%" -T "TOTALDISCS=%totalcds%" -T "TOTALTRACKS=%numtracks%" %hascover%–picture="%coverfile%"%hascover% %source% -o %dest%


TOC of the extracted CD

Track | Start | Length | Start sector | End sector
––––––––––––––––––––––––––––-
1 | 0:00.00 | 3:49.38 | 0 | 17212
2 | 3:49.38 | 5:20.27 | 17213 | 41239
3 | 9:09.65 | 5:09.64 | 41240 | 64478
4 | 14:19.54 | 4:21.49 | 64479 | 84102
5 | 18:41.28 | 3:15.69 | 84103 | 98796
6 | 21:57.22 | 1:15.25 | 98797 | 104446
7 | 23:12.47 | 4:03.48 | 104447 | 122719
8 | 27:16.20 | 4:27.67 | 122720 | 142811
9 | 31:44.12 | 6:01.44 | 142812 | 169930
10 | 37:45.56 | 3:22.62 | 169931 | 185142
11 | 41:08.43 | 6:39.03 | 185143 | 215070
12 | 47:47.46 | 3:41.05 | 215071 | 231650


Range status and errors

Selected range

Filename G:\Torrent\OUT\ZERO 7 (4 Albums)\2006 - The Garden (US)\Zero 7 - The Garden (US Version).wav

Peak level 93.8 %
Extraction speed 7.5 X
Range quality 100.0 %
Test CRC 3970769A
Copy CRC 3970769A
Copy OK

No errors occurred


AccurateRip summary

Track 1 not present in database
Track 2 not present in database
Track 3 not present in database
Track 4 not present in database
Track 5 not present in database
Track 6 not present in database
Track 7 not present in database
Track 8 not present in database
Track 9 not present in database
Track 10 not present in database
Track 11 not present in database
Track 12 not present in database

None of the tracks are present in the AccurateRip database

End of status report

–– CUETools DB Plugin V2.1.3

[CTDB TOCID: FU_HReOX8GtKvKnI8XSsESGLfeQ-] disk not present in database, Submit result: FU_HReOX8GtKvKnI8XSsESGLfeQ- has been uploaded


==== Log checksum D3E4F097FF30BB6A3545992190F285418A3A3F2EFBC40AE6F7AF2542A355D0BB ====

foobar2000 1.2 / Dynamic Range Meter 1.1.1
log date: 2013-04-01 19:30:53

––––––––––––––––––––––––––––––––––––––––
Analyzed: Zero 7 / The Garden (US Version)
––––––––––––––––––––––––––––––––––––––––

DR Peak RMS Duration Track
––––––––––––––––––––––––––––––––––––––––
DR8 -1.40 dB -12.16 dB 3:50 01-Futures
DR7 -1.40 dB -10.57 dB 5:20 02-Throw It All Away
DR8 -1.40 dB -12.06 dB 5:10 03-Seeing Things
DR9 -1.40 dB -12.67 dB 4:22 04-The Pageant Of The Bizarre
DR7 -1.40 dB -9.59 dB 3:16 05-You're My Flame
DR10 -1.94 dB -16.79 dB 1:15 06-Left Behind
DR8 -1.40 dB -10.46 dB 4:04 07-Today
DR8 -1.40 dB -11.78 dB 4:28 08-This Fine Social Scene
DR10 -0.55 dB -14.50 dB 6:02 09-Your Place
DR8 -1.94 dB -10.90 dB 3:23 10-If I Can't Have You
DR9 -0.55 dB -11.33 dB 6:39 11-Crosses
DR8 -1.40 dB -11.07 dB 3:41 12-Waiting To Die
––––––––––––––––––––––––––––––––––––––––

Number of tracks: 12
Official DR value: DR8

Samplerate: 44100 Hz
Channels: 2
Bits per sample: 16
Bitrate: 808 kbps
Codec: FLAC
================================================================================




Zero 7 - Studio Albums 2001-2009 (5CD) [Re-Up]

Zero 7 - The Garden (2006) Japanese Edition
EAC | FLAC | Image (Cue&Log) ~ 431 Mb (incl 5%) | Mp3 (CBR320) ~ 200 Mb (incl 5%)
Label: Warner | # WPCR-12395 | Time: 01:03:59 | Scans included


Tracklist:

01. Futures (03:49), vocals – José González
02. Throw It All Away (05:20), vocals – Sia Furler
03. Seeing Things (05:09)
04. The Pageant of the Bizarre (04:21), vocals – Sia Furler
05. You're My Flame (03:15), vocals – Sia Furler
06. Left Behind (01:15), vocals – José González
07. Today (04:03), vocals – José González
08. This Fine Social Scene (04:27), vocals – Sia Furler
09. Your Place (06:01)
10. If I Can't Have You (03:22), vocals – Sia Furler
11. Crosses (06:39), vocals – José González
12. Waiting to Die (03:41), vocals – Sia Furler
13. Thistles (Bonus) (04:17), vocals – Sia Furler
14. Inaminute (Bonus) (04:49)
15. Dreaming (Bonus) (03:22), vocals – Sia Furler


Exact Audio Copy V1.0 beta 3 from 29. August 2011

EAC extraction logfile from 3. March 2013, 19:01

Zero 7 / The Garden (Japan Edition)

Used drive : ASUS DRW-1814BLT Adapter: 3 ID: 0

Read mode : Secure
Utilize accurate stream : Yes
Defeat audio cache : Yes
Make use of C2 pointers : No

Read offset correction : 6
Overread into Lead-In and Lead-Out : No
Fill up missing offset samples with silence : Yes
Delete leading and trailing silent blocks : No
Null samples used in CRC calculations : Yes
Used interface : Native Win32 interface for Win NT & 2000

Used output format : User Defined Encoder
Selected bitrate : 1024 kBit/s
Quality : High
Add ID3 tag : No
Command line compressor : C:\Program Files (x86)\Exact Audio Copy\FLAC\FLAC.EXE
Additional command line options : -8 -V -T "ARTIST=%artist%" -T "TITLE=%title%" -T "ALBUM=%albumtitle%" -T "DATE=%year%" -T "TRACKNUMBER=%tracknr%" -T "GENRE=%genre%" -T "COMMENT=%comment%" -T "BAND=%albuminterpret%" -T "ALBUMARTIST=%albuminterpret%" -T "COMPOSER=%composer%" %haslyrics%–tag-from-file=LYRICS="%lyricsfile%"%haslyrics% -T "DISCNUMBER=%cdnumber%" -T "TOTALDISCS=%totalcds%" -T "TOTALTRACKS=%numtracks%" %hascover%–picture="%coverfile%"%hascover% %source% -o %dest%


TOC of the extracted CD

Track | Start | Length | Start sector | End sector
––––––––––––––––––––––––––––-
1 | 0:00.00 | 3:49.38 | 0 | 17212
2 | 3:49.38 | 5:20.27 | 17213 | 41239
3 | 9:09.65 | 5:09.63 | 41240 | 64477
4 | 14:19.53 | 4:21.49 | 64478 | 84101
5 | 18:41.27 | 3:15.68 | 84102 | 98794
6 | 21:57.20 | 1:15.25 | 98795 | 104444
7 | 23:12.45 | 4:03.48 | 104445 | 122717
8 | 27:16.18 | 4:27.67 | 122718 | 142809
9 | 31:44.10 | 6:01.43 | 142810 | 169927
10 | 37:45.53 | 3:22.62 | 169928 | 185139
11 | 41:08.40 | 6:39.03 | 185140 | 215067
12 | 47:47.43 | 3:41.05 | 215068 | 231647
13 | 51:28.48 | 4:17.09 | 231648 | 250931
14 | 55:45.57 | 4:49.25 | 250932 | 272631
15 | 60:35.07 | 3:22.69 | 272632 | 287850


Range status and errors

Selected range

Filename G:\Torrent\OUT\ZERO 7 (3 Albums)\2006 - The Garden\Zero 7 - The Garden (Japan Edition).wav

Peak level 100.0 %
Extraction speed 9.5 X
Range quality 100.0 %
Test CRC 7AB59586
Copy CRC 7AB59586
Copy OK

No errors occurred


AccurateRip summary

Track 1 accurately ripped (confidence 2) [B1FA0299] (AR v1)
Track 2 accurately ripped (confidence 2) [922A322A] (AR v1)
Track 3 accurately ripped (confidence 2) [C4608210] (AR v1)
Track 4 accurately ripped (confidence 2) [AA9667B3] (AR v1)
Track 5 accurately ripped (confidence 2) [D067FFE3] (AR v1)
Track 6 accurately ripped (confidence 2) [82EA6A2F] (AR v1)
Track 7 accurately ripped (confidence 2) [7FE7DCF5] (AR v1)
Track 8 accurately ripped (confidence 2) [6EC86DA7] (AR v1)
Track 9 accurately ripped (confidence 2) [1AE47161] (AR v1)
Track 10 accurately ripped (confidence 2) [83E6D80D] (AR v1)
Track 11 accurately ripped (confidence 2) [727249D0] (AR v1)
Track 12 accurately ripped (confidence 2) [DD0514C1] (AR v1)
Track 13 accurately ripped (confidence 2) [AF214D42] (AR v1)
Track 14 accurately ripped (confidence 2) [57D1A108] (AR v1)
Track 15 accurately ripped (confidence 2) [CA4DD22A] (AR v1)

All tracks accurately ripped

End of status report

–– CUETools DB Plugin V2.1.3

[CTDB TOCID: 9KSVRjtQs5Hlp4kK.qHQZkjKcHQ-] found, Submit result: 9KSVRjtQs5Hlp4kK.qHQZkjKcHQ- has been confirmed
[52c907f5] (4/4) Accurately ripped


==== Log checksum 80F57674B4D108792397B4151531C062DA22C3971074C129794A9A6EC405373C ====

foobar2000 1.2 / Dynamic Range Meter 1.1.1
log date: 2013-04-01 19:30:38

––––––––––––––––––––––––––––––––––––––––
Analyzed: Zero 7 / The Garden (Japan Edition)
––––––––––––––––––––––––––––––––––––––––

DR Peak RMS Duration Track
––––––––––––––––––––––––––––––––––––––––
DR8 -1.40 dB -12.16 dB 3:50 01-Futures
DR7 -1.40 dB -10.57 dB 5:20 02-Throw It All Away
DR8 -1.40 dB -12.06 dB 5:10 03-Seeing Things
DR9 -1.40 dB -12.67 dB 4:22 04-The Pageant of the Bizarre
DR7 -1.40 dB -9.59 dB 3:16 05-You're My Flame
DR10 -1.94 dB -16.79 dB 1:15 06-Left Behind
DR8 -1.40 dB -10.46 dB 4:04 07-Today
DR8 -1.40 dB -11.78 dB 4:28 08-This Fine Social Scene
DR10 -0.55 dB -14.50 dB 6:02 09-Your Place
DR8 -1.94 dB -10.90 dB 3:23 10-If I Can't Have You
DR9 -0.55 dB -11.33 dB 6:39 11-Crosses
DR8 -1.40 dB -11.06 dB 3:41 12-Waiting to Die
DR10 0.00 dB -11.52 dB 4:17 13-Thistles (Bonus)
DR9 0.00 dB -10.81 dB 4:49 14-Inaminute (Bonus)
DR10 0.00 dB -11.06 dB 3:23 15-Dreaming (Bonus)
––––––––––––––––––––––––––––––––––––––––

Number of tracks: 15
Official DR value: DR9

Samplerate: 44100 Hz
Channels: 2
Bits per sample: 16
Bitrate: 802 kbps
Codec: FLAC
================================================================================




Zero 7 - Studio Albums 2001-2009 (5CD) [Re-Up]

Zero 7 - Yeah Ghost (2009)
EAC | FLAC | Image (Cue&Log) ~ 303 Mb (incl 5%) | Mp3 (CBR320) ~ 130 Mb (incl 5%)
Label: Atlantic | # 5051865511724 | Time: 00:45:07 | Scans included

Studio mainstays for well over a decade, Zero 7's Henry Binns and Sam Hardaker can wring an expert production from nearly any song, whether it's synth-based or band-based, instrumental or vocal, unadulterated pop or colored with some other genre shade thereof. Their fourth album as Zero 7 includes all of those approaches, so file it as another in a career of ever-evolving records that have moved them from chilled downbeat into dynamic alternative pop. A dedicated rhythm section appears on half the record, accentuating the feel that this is a band record – albeit impeccably produced – with an array of guests taking vocal turns. As before, the songs are written well and the guest vocalists are selected with care, but they're usually overwhelmed by the numerous production touches. Each song is a variation on the pop form, whether it's straight commercial pop on "Mr McGee," neo-soul on "Medicine Man," folkie introspection on "Swing," or starburst electronica on "Pop Art Blue." The best and most natural blend occurs on "Everything Up (Zizou)," which has a bit of indie guitar over its sheen of electronic pop, with vocals from Binns himself and the most impressive of the guests, Eska (who sings over five tracks total). Though Zero 7 are still not in the same class as Air (or even Phoenix), Yeah Ghost is an enjoyable record that shows them apparently on the way to something more unique.

Review by John Bush, Allmusic.com

Tracklist:

01. Count Me Out (01:26)
02. Mr McGee (04:19), vocals – Eska
03. Swing (03:57)
04. Everything Up (Zizou) (05:19)
05. Pop Art Blue (04:23), vocals – Martha Tilston
06. Medicine Man (04:32), vocals – Eska
07. Ghost Symbol (04:36), vocals – Jackie Daniels
08. Sleeper (04:39), vocals – Eska & Rowdy Superstar
09. Solastalgia (01:59)
10. The Road (03:42), vocals – Eska
11. All of Us (06:20)


Exact Audio Copy V1.0 beta 3 from 29. August 2011

EAC extraction logfile from 25. September 2013, 12:57

Zero 7 / Yeah Ghost

Used drive : ASUS DRW-1814BLT Adapter: 0 ID: 2

Read mode : Secure
Utilize accurate stream : Yes
Defeat audio cache : Yes
Make use of C2 pointers : No

Read offset correction : 6
Overread into Lead-In and Lead-Out : No
Fill up missing offset samples with silence : Yes
Delete leading and trailing silent blocks : No
Null samples used in CRC calculations : Yes
Used interface : Native Win32 interface for Win NT & 2000

Used output format : User Defined Encoder
Selected bitrate : 1024 kBit/s
Quality : High
Add ID3 tag : No
Command line compressor : C:\Program Files (x86)\Exact Audio Copy\FLAC\FLAC.EXE
Additional command line options : -6 -V -T "ARTIST=%artist%" -T "TITLE=%title%" -T "ALBUM=%albumtitle%" -T "DATE=%year%" -T "TRACKNUMBER=%tracknr%" -T "GENRE=%genre%" -T "PERFORMER=%albuminterpret%" -T "COMPOSER=%composer%" %haslyrics%–tag-from-file=LYRICS="%lyricsfile%"%haslyrics% -T "ALBUMARTIST=%albumartist%" -T "DISCNUMBER=%cdnumber%" -T "TOTALDISCS=%totalcds%" -T "TOTALTRACKS=%numtracks%" -T "COMMENT=%comment%" %source% -o %dest%


TOC of the extracted CD

Track | Start | Length | Start sector | End sector
––––––––––––––––––––––––––––-
1 | 0:00.00 | 1:26.34 | 0 | 6483
2 | 1:26.34 | 4:19.04 | 6484 | 25912
3 | 5:45.38 | 3:57.45 | 25913 | 43732
4 | 9:43.08 | 5:19.22 | 43733 | 67679
5 | 15:02.30 | 4:23.25 | 67680 | 87429
6 | 19:25.55 | 4:32.46 | 87430 | 107875
7 | 23:58.26 | 4:36.39 | 107876 | 128614
8 | 28:34.65 | 4:39.42 | 128615 | 149581
9 | 33:14.32 | 1:59.17 | 149582 | 158523
10 | 35:13.49 | 3:42.60 | 158524 | 175233
11 | 38:56.34 | 6:20.20 | 175234 | 203753


Range status and errors

Selected range

Filename G:\1.Torrent\2.Out\ZERO 7 - Main Studios Discography (5 Albums)\2009 - Yeah Ghost (Germany)\Zero 7 - Yeah Ghost.wav

Peak level 98.4 %
Extraction speed 6.7 X
Range quality 99.9 %
Test CRC 7AB3047E
Copy CRC 7AB3047E
Copy OK

No errors occurred


AccurateRip summary

Track 1 accurately ripped (confidence 32) [4549BB20] (AR v2)
Track 2 accurately ripped (confidence 32) [4CA08A06] (AR v2)
Track 3 accurately ripped (confidence 32) [14709F91] (AR v2)
Track 4 accurately ripped (confidence 32) [D49932DF] (AR v2)
Track 5 accurately ripped (confidence 32) [1BF8594A] (AR v2)
Track 6 accurately ripped (confidence 32) [9D016C08] (AR v2)
Track 7 accurately ripped (confidence 32) [3D4DE5CF] (AR v2)
Track 8 accurately ripped (confidence 32) [5E1637ED] (AR v2)
Track 9 accurately ripped (confidence 32) [7076FDBC] (AR v2)
Track 10 accurately ripped (confidence 32) [72A460AC] (AR v2)
Track 11 accurately ripped (confidence 31) [AC7C9D20] (AR v2)

All tracks accurately ripped

End of status report

==== Log checksum F7D2AF07DCBD8142EDC53A58842B9455A319AE2B5BC73DEE7D2D1C9A57F42297 ====

foobar2000 1.2 / Dynamic Range Meter 1.1.1
log date: 2017-02-16 15:45:39

––––––––––––––––––––––––––––––––––––––––
Analyzed: Zero 7 / Yeah Ghost
––––––––––––––––––––––––––––––––––––––––

DR Peak RMS Duration Track
––––––––––––––––––––––––––––––––––––––––
DR9 -0.16 dB -13.34 dB 1:26 01-Count Me Out
DR8 -0.13 dB -9.59 dB 4:19 02-Mr McGee
DR8 -0.14 dB -10.61 dB 3:58 03-Swing
DR7 -0.13 dB -8.62 dB 5:19 04-Everything Up (Zizou)
DR8 -0.13 dB -10.33 dB 4:23 05-Pop Art Blue
DR8 -0.13 dB -9.99 dB 4:33 06-Medicine Man
DR7 -0.13 dB -9.12 dB 4:37 07-Ghost Symbol
DR7 -0.13 dB -8.69 dB 4:40 08-Sleeper
DR8 -1.23 dB -12.68 dB 1:59 09-Solastalgia
DR9 -0.16 dB -12.16 dB 3:43 10-The Road
DR7 -0.13 dB -12.05 dB 6:20 11-All of Us
––––––––––––––––––––––––––––––––––––––––

Number of tracks: 11
Official DR value: DR8

Samplerate: 44100 Hz
Channels: 2
Bits per sample: 16
Bitrate: 826 kbps
Codec: FLAC
================================================================================





All thanks to original releaser - Mammonth66

More interesting music in My Blog