Subcategories

Tommy Emmanuel - The Journey (1993)

Posted By: Designol
Tommy Emmanuel - The Journey (1993)

Tommy Emmanuel - The Journey (1993)
EAC | FLAC | Image (Cue&Log) ~ 334 Mb | Mp3 (CBR320) ~ 120 Mb
Label: Columbia | # 474489 2 | Time: 00:51:09 | Scans included
Guitar Virtuoso, Pop/Rock, Jazz-Rock, Fusion, Smooth Jazz

Tommy Emmanuel, four-time winner of Australia's Best Guitarist Award, has helped bring the art of rock guitar down under to a higher awareness by bringing a sense of jazz improvisation into a mix that also includes blues, country, rock, classical, and Spanish music. After years as a popular sideman and ace songwriter, the two-time ARIA Award winner launched his solo career in 1988 with Up from Down Under. Several releases followed, notably 1993's critically acclaimed The Journey, which hit high on Gavin and Radio & Records NAC airplay charts.

It's been, what, 6 years since this album was released. I still consider track 5 "The Journey" to be one of the 3 best EVER recorded, the other two being Stairway to Heaven and Classical Gas by Mason Williams. I defy anyone not to get chills down their spine when it gets to the crescendo at the end!
The rest of the album is okay, and quite good in some parts, but it's the title track that blows my mind and makes the whole album worth purchasing.

Review by Durand Sinclair, Amazon.com

Tommy Emmanuel - The Journey (1993)



Tracklist:

01. Tailin the Invisible Man (5:04)
02. Big Brother (4:00)
03. Somethin's Goin' on (4:08)
04. Hellos & Goodbyes (4:35)
05. The Journey (4:58)
06. If Your Heart Tells You to (3:55)
07. Like Family (4:25)
08. Don't Hold Me Back (3:30)
09. Villa Anita (5:43)
10. White Picket Fences (4:46)
11. The Big Swell (4:07)
12. Amy (1:58)


Exact Audio Copy V0.99 prebeta 4 from 23. January 2008

Отчёт EAC об извлечении, выполненном 28. мая 2009, 21:21

Tommy Emmanuel / The Journey

Дисковод: Optiarc DVD RW AD-7190A Adapter: 0 ID: 0

Режим чтения : Достоверность
Использование точного потока : Да
Отключение кэша аудио : Да
Использование указателей C2 : Нет

Коррекция смещения при чтении : 6
Способность читать области Lead-in и Lead-out : Нет
Заполнение пропущенных сэмплов тишиной : Да
Удаление блоков с тишиной в начале и конце : Нет
При вычислениях CRC использовались нулевые сэмплы : Да
Интерфейс : Встроенный Win32-интерфейс для Win NT/2000

Выходной формат : Внутренние WAV-операции
Формат сэмплов : 44.100 Гц; 16 бит; стерео


TOC извлечённого CD

Трек | Старт | Длительность | Начальный сектор | Конечный сектор
––––––––––––––––––––––––––––––––––-
1 | 0:00.00 | 5:03.72 | 0 | 22796
2 | 5:03.72 | 3:59.68 | 22797 | 40789
3 | 9:03.65 | 4:07.55 | 40790 | 59369
4 | 13:11.45 | 4:35.20 | 59370 | 80014
5 | 17:46.65 | 4:58.32 | 80015 | 102396
6 | 22:45.22 | 3:54.73 | 102397 | 120019
7 | 26:40.20 | 4:25.22 | 120020 | 139916
8 | 31:05.42 | 3:29.50 | 139917 | 155641
9 | 34:35.17 | 5:42.58 | 155642 | 181349
10 | 40:18.00 | 4:46.00 | 181350 | 202799
11 | 45:04.00 | 4:06.50 | 202800 | 221299
12 | 49:10.50 | 1:58.20 | 221300 | 230169


Характеристики диапазона извлечения и сообщения об ошибках

Выбранный диапазон

Имя файла F:\Аудио Lossless\Tommy Emmanuel - The Journey (1993)\Tommy Emmanuel - The Journey.wav

Пиковый уровень 98.4 %
Качество диапазона 99.9 %
CRC теста 14C11EC9
CRC копии 14C11EC9
Копирование… OK

Ошибок не произошло


AccurateRip: сводка

Трек 1 точность не определена (достоверность 13) [B029E16E], AccurateRip вернул [F8AECACC]
Трек 2 точность не определена (достоверность 14) [BBEA5EFD], AccurateRip вернул [9E0D281F]
Трек 3 точность не определена (достоверность 14) [3E463B01], AccurateRip вернул [89F63B01]
Трек 4 точность не определена (достоверность 14) [ACC9B5AB], AccurateRip вернул [9B4DB5AB]
Трек 5 точность не определена (достоверность 14) [C17240E8], AccurateRip вернул [404640E8]
Трек 6 точность не определена (достоверность 14) [BE768317], AccurateRip вернул [DDA268A8]
Трек 7 точность не определена (достоверность 14) [756FFB55], AccurateRip вернул [8E6A9738]
Трек 8 точность не определена (достоверность 14) [A34A12D1], AccurateRip вернул [03CE13D9]
Трек 9 точность не определена (достоверность 14) [38A24731], AccurateRip вернул [7D824629]
Трек 10 точность не определена (достоверность 13) [07F7A6FA], AccurateRip вернул [1E53AB1A]
Трек 11 точность не определена (достоверность 13) [06AB8B20], AccurateRip вернул [88178808]
Трек 12 точность не определена (достоверность 13) [FB6D3708], AccurateRip вернул [E8593684]

Ни один трек не прошёл проверки на точность
В вашей базе может быть иной вариант штамповки диска

Конец отчёта

[CUETools log; Date: 28.10.2019 2:31:00; Version: 2.1.4]
[CTDB TOCID: Qts.gMwTtf4VR8tTikYj4e7P.tE-] found.
Track | CTDB Status
1 | ( 99/101) Accurately ripped
2 | (100/101) Accurately ripped
3 | (101/101) Accurately ripped
4 | (101/101) Accurately ripped
5 | (100/101) Accurately ripped
6 | (100/101) Accurately ripped
7 | (100/101) Accurately ripped
8 | ( 99/101) Accurately ripped
9 | (100/101) Accurately ripped
10 | (100/101) Accurately ripped
11 | (101/101) Accurately ripped
12 | (101/101) Accurately ripped
[AccurateRip ID: 0017c058-00dcd44a-a30bfc0c] found.
Track [ CRC | V2 ] Status
01 [b029e16e|2ee0608e] (00+00/75) No match
02 [bbea5efd|b982841b] (00+00/76) No match
03 [3e463b01|27241284] (00+00/76) No match
04 [acc9b5ab|35b8fa53] (00+00/76) No match
05 [c17240e8|c4cdcd2e] (00+00/76) No match
06 [be768317|d7648853] (00+00/75) No match
07 [756ffb55|c5f27f00] (00+00/76) No match
08 [a34a12d1|17b64654] (00+00/76) No match
09 [38a24731|297c9033] (00+00/76) No match
10 [07f7a6fa|817b802a] (00+00/75) No match
11 [06ab8b20|bb313b0a] (00+00/75) No match
12 [fb6d3708|e0b086db] (00+00/75) No match
Offsetted by 132:
01 [f8aecacc] (30/75) Accurately ripped
02 [9e0d281f] (31/76) Accurately ripped
03 [89f63b01] (31/76) Accurately ripped
04 [9b4db5ab] (31/76) Accurately ripped
05 [404640e8] (31/76) Accurately ripped
06 [dda268a8] (31/75) Accurately ripped
07 [8e6a9738] (31/76) Accurately ripped
08 [03ce13d9] (31/76) Accurately ripped
09 [7d824629] (31/76) Accurately ripped
10 [1e53ab1a] (30/75) Accurately ripped
11 [88178808] (30/75) Accurately ripped
12 [e8593684] (30/75) Accurately ripped
Offsetted by -532:
01 [9af1ddae] (00/75) No match (V2 was not tested)
02 [edf69db9] (00/76) No match (V2 was not tested)
03 [79d63b01] (00/76) No match (V2 was not tested)
04 [c4b5b5ab] (00/76) No match (V2 was not tested)
05 [d1ce40e8] (00/76) No match (V2 was not tested)
06 [997f1da2] (00/75) No match (V2 was not tested)
07 [aaf9b4c2] (00/76) No match (V2 was not tested)
08 [c1360ea9] (00/76) No match (V2 was not tested)
09 [fc424b59] (00/76) No match (V2 was not tested)
10 [f3ab965a] (00/75) No match (V2 was not tested)
11 [fd0f9798] (00/75) No match (V2 was not tested)
12 [4851391c] (00/75) No match (V2 was not tested)

Track Peak [ CRC32 ] [W/O NULL] [ LOG ]
– 98,4 [14C11EC9] [ECDCBCDC] CRC32
01 92,9 [490C116B] [2F306A58]
02 98,2 [9E92E5AC] [39D6D193]
03 97,9 [CA6AAB22] [8D455BB1]
04 98,2 [CB2E7A66] [F467AAC3]
05 95,2 [723104EA] [97B4AB9A]
06 98,0 [83D3BF42] [E8684A27]
07 96,8 [854C58AA] [7BB40EA6]
08 98,4 [E605012D] [E7F4F8C6]
09 97,9 [B0BF9391] [764A3259]
10 98,4 [71069A1C] [669777BA]
11 95,5 [100B8A02] [915D2AC7]
12 90,1 [66BB9E05] [4A81A14D]

foobar2000 1.2 / Dynamic Range Meter 1.1.1
log date: 2019-10-28 15:38:01

––––––––––––––––––––––––––––––––––––––––
Analyzed: Tommy Emmanuel / The Journey
––––––––––––––––––––––––––––––––––––––––

DR Peak RMS Duration Track
––––––––––––––––––––––––––––––––––––––––
DR8 -0.63 dB -10.62 dB 5:04 01-Tailin the Invisible Man
DR7 -0.16 dB -9.75 dB 4:00 02-Big Brother
DR8 -0.18 dB -10.25 dB 4:08 03-Somethin's Goin' on
DR9 -0.15 dB -11.92 dB 4:35 04-Hellos & Goodbyes
DR6 -0.43 dB -9.66 dB 4:58 05-The Journey
DR11 -0.17 dB -15.06 dB 3:55 06-If Your Heart Tells You to
DR8 -0.28 dB -10.94 dB 4:25 07-Like Family
DR8 -0.13 dB -9.32 dB 3:30 08-Don't Hold Me Back
DR9 -0.18 dB -11.56 dB 5:43 09-Villa Anita
DR12 -0.13 dB -14.03 dB 4:46 10-White Picket Fences
DR6 -0.39 dB -8.19 dB 4:07 11-The Big Swell
DR15 -0.90 dB -19.15 dB 1:58 12-Amy
––––––––––––––––––––––––––––––––––––––––

Number of tracks: 12
Official DR value: DR9

Samplerate: 44100 Hz
Channels: 2
Bits per sample: 16
Bitrate: 905 kbps
Codec: FLAC
================================================================================

Tommy Emmanuel - The Journey (1993)

Tommy Emmanuel - The Journey (1993)