Subcategories
Tags
Language
Tags

Trettioåriga Kriget - Till Horisonten (2021)

Posted By: gribovar
Trettioåriga Kriget - Till Horisonten (2021)

Trettioariga Kriget - Till Horisonten (2021)
EAC Rip | FLAC (tracks+.cue+log) - 286 MB | MP3 CBR 320 kbps (LAME 3.93) - 110 MB | Covers - 27 MB
Genre: Progressive Rock | RAR 3% Rec. | Label: Mellotronen (MELLOCD 040)

"Till Horisonten" ("To the Horizon") is the 10th album from Trettioåriga Kriget. Actually, it is the 11th if you include "Glorious War" by the band’s original line-up. However, most would know this remarkable Swedish band from their first five albums, including the classic "Krigssång". These were recorded between 1974 and 1981. In 2003 the band regrouped, consisting of the same members, gigging and recording as if there had been no hiatus at all. Indeed, this phase II of the War's career has proved extremely fruitful, and the new album is in many ways the crowning achivement of a very dedicated, tightly-knit ensemble of five musicians and a lyricist. TK are by now capable of drawing on all aspects of their extended experience as friends, fellow players and human beings.
"To the Horizon" is an album of remarkable unity: unity of purpose, unity of music and lyrics and Johan Gullberg's sensitive artwork, and also of strong emotion and vital energy. It is an album that celebrates the incredible life span of the Trettioåriga Kriget, that looks back on the band's and its members' life stories and counterbalances an inevitable melancholy with inventiveness and a curiosity that is still very much present after so many decades.

Tracklist:
01. Intro
02. In Memoriam
03. Tidigt (Early)
04. Staden (The City)
05. Till En Vän (To A Friend)
06. En Gång (Once)
07. Brevet (The Letter)
08. Vägen Till Horisonten (The Road To The Horizon)
09. Till Horisonten (To The Horizon)

Total time: 46:50

Exact Audio Copy V1.3 from 2. September 2016

EAC extraction logfile from 12. June 2021, 11:50

Trettioariga Kriget / Till Horisonten

Used drive : ATAPI iHAS122 F Adapter: 1 ID: 0

Read mode : Secure
Utilize accurate stream : Yes
Defeat audio cache : Yes
Make use of C2 pointers : No

Read offset correction : 6
Overread into Lead-In and Lead-Out : No
Fill up missing offset samples with silence : Yes
Delete leading and trailing silent blocks : No
Null samples used in CRC calculations : Yes
Used interface : Native Win32 interface for Win NT & 2000
Gap handling : Not detected, thus appended to previous track

Used output format : User Defined Encoder
Selected bitrate : 1024 kBit/s
Quality : High
Add ID3 tag : Yes
Command line compressor : C:\Program Files (x86)\Exact Audio Copy\Flac\flac.exe
Additional command line options : -6 -V -T "ARTIST=%artist%" -T "TITLE=%title%" -T "ALBUM=%albumtitle%" -T "DATE=%year%" -T "TRACKNUMBER=%tracknr%" -T "GENRE=%genre%" -T "COMMENT=%comment%" %hascover%–picture="%coverfile%"%hascover% %source% -o %dest%


TOC of the extracted CD

Track | Start | Length | Start sector | End sector
––––––––––––––––––––––––––––-
1 | 0:00.00 | 0:49.04 | 0 | 3678
2 | 0:49.04 | 7:38.31 | 3679 | 38059
3 | 8:27.35 | 4:35.17 | 38060 | 58701
4 | 13:02.52 | 6:38.56 | 58702 | 88607
5 | 19:41.33 | 3:51.11 | 88608 | 105943
6 | 23:32.44 | 1:30.29 | 105944 | 112722
7 | 25:02.73 | 2:44.71 | 112723 | 125093
8 | 27:47.69 | 13:54.46 | 125094 | 187689
9 | 41:42.40 | 5:07.36 | 187690 | 210750


Track 1

Filename E:\Music\download\TRETTIOARIGA KRIGET\Trettioariga Kriget ‎– Till Horisonten (2021, Mellotronen)\01 - Intro.wav

Peak level 61.6 %
Extraction speed 3.2 X
Track quality 100.0 %
Test CRC 014EA852
Copy CRC 014EA852
Accurately ripped (confidence 1) [2D62635A] (AR v2)
Copy OK

Track 2

Filename E:\Music\download\TRETTIOARIGA KRIGET\Trettioariga Kriget ‎– Till Horisonten (2021, Mellotronen)\02 - In Memoriam.wav

Peak level 89.1 %
Extraction speed 5.8 X
Track quality 100.0 %
Test CRC 9A19292A
Copy CRC 9A19292A
Accurately ripped (confidence 1) [99DF5927] (AR v2)
Copy OK

Track 3

Filename E:\Music\download\TRETTIOARIGA KRIGET\Trettioariga Kriget ‎– Till Horisonten (2021, Mellotronen)\03 - Tidigt (Early).wav

Peak level 80.3 %
Extraction speed 5.3 X
Track quality 99.9 %
Test CRC 507AE963
Copy CRC 507AE963
Accurately ripped (confidence 1) [7F2B8C60] (AR v2)
Copy OK

Track 4

Filename E:\Music\download\TRETTIOARIGA KRIGET\Trettioariga Kriget ‎– Till Horisonten (2021, Mellotronen)\04 - Staden (The City).wav

Peak level 89.1 %
Extraction speed 6.3 X
Track quality 99.9 %
Test CRC 535909BA
Copy CRC 535909BA
Accurately ripped (confidence 1) [CD17A8A9] (AR v2)
Copy OK

Track 5

Filename E:\Music\download\TRETTIOARIGA KRIGET\Trettioariga Kriget ‎– Till Horisonten (2021, Mellotronen)\05 - Till En Vän (To a Friend).wav

Peak level 83.0 %
Extraction speed 7.3 X
Track quality 100.0 %
Test CRC 089B5B2C
Copy CRC 089B5B2C
Accurately ripped (confidence 1) [EDEC60E2] (AR v2)
Copy OK

Track 6

Filename E:\Music\download\TRETTIOARIGA KRIGET\Trettioariga Kriget ‎– Till Horisonten (2021, Mellotronen)\06 - En Gang (Once).wav

Peak level 69.4 %
Extraction speed 6.1 X
Track quality 100.0 %
Test CRC A698B10B
Copy CRC A698B10B
Accurately ripped (confidence 1) [B5CC0809] (AR v2)
Copy OK

Track 7

Filename E:\Music\download\TRETTIOARIGA KRIGET\Trettioariga Kriget ‎– Till Horisonten (2021, Mellotronen)\07 - Brevet (The Letter).wav

Peak level 86.1 %
Extraction speed 7.3 X
Track quality 100.0 %
Test CRC 69D66B72
Copy CRC 69D66B72
Accurately ripped (confidence 1) [7AC57E79] (AR v2)
Copy OK

Track 8

Filename E:\Music\download\TRETTIOARIGA KRIGET\Trettioariga Kriget ‎– Till Horisonten (2021, Mellotronen)\08 - Vägen Till Horisonten (The Road to the Horizon).wav

Peak level 89.1 %
Extraction speed 8.6 X
Track quality 99.9 %
Test CRC 6A27EBD8
Copy CRC 6A27EBD8
Accurately ripped (confidence 1) [132CD7B9] (AR v2)
Copy OK

Track 9

Filename E:\Music\download\TRETTIOARIGA KRIGET\Trettioariga Kriget ‎– Till Horisonten (2021, Mellotronen)\09 - Till Horisonten (To the Horizon).wav

Peak level 89.1 %
Extraction speed 9.2 X
Track quality 100.0 %
Test CRC ECEF6A28
Copy CRC ECEF6A28
Accurately ripped (confidence 1) [43F89DAE] (AR v2)
Copy OK


All tracks accurately ripped

No errors occurred

End of status report

–– CUETools DB Plugin V2.1.6

[CTDB TOCID: 2H.dtu9OtJ_Zh3vbi6E3F2W6uT8-] found
Submit result: 2H.dtu9OtJ_Zh3vbi6E3F2W6uT8- has been confirmed
Track | CTDB Status
1 | (2/2) Accurately ripped
2 | (2/2) Accurately ripped
3 | (2/2) Accurately ripped
4 | (2/2) Accurately ripped
5 | (2/2) Accurately ripped
6 | (2/2) Accurately ripped
7 | (2/2) Accurately ripped
8 | (2/2) Accurately ripped
9 | (2/2) Accurately ripped


==== Log checksum 972F70B582AB23D12905D40E06229B82566A93950AB24491B10AAAFE37E06A5E ====

[CUETools log; Date: 13.06.2021 14:14:10; Version: 2.1.4]
[CTDB TOCID: 2H.dtu9OtJ_Zh3vbi6E3F2W6uT8-] found.
Track | CTDB Status
1 | (3/3) Accurately ripped
2 | (3/3) Accurately ripped
3 | (3/3) Accurately ripped
4 | (3/3) Accurately ripped
5 | (3/3) Accurately ripped
6 | (3/3) Accurately ripped
7 | (3/3) Accurately ripped
8 | (3/3) Accurately ripped
9 | (3/3) Accurately ripped
[AccurateRip ID: 000e35b3-006b2410-6b0afa09] found.
Track [ CRC | V2 ] Status
01 [9a78c49a|2d62635a] (0+1/1) Accurately ripped
02 [237a8565|99df5927] (0+1/1) Accurately ripped
03 [a1a451f0|7f2b8c60] (0+1/1) Accurately ripped
04 [dada7f8e|cd17a8a9] (0+1/1) Accurately ripped
05 [58b1263a|edec60e2] (0+1/1) Accurately ripped
06 [9ddc59c2|b5cc0809] (0+1/1) Accurately ripped
07 [1cf0946b|7ac57e79] (0+1/1) Accurately ripped
08 [4a28889a|132cd7b9] (0+1/1) Accurately ripped
09 [57f66d86|43f89dae] (0+1/1) Accurately ripped

Track Peak [ CRC32 ] [W/O NULL] [ LOG ]
– 89,1 [F6CCCEF0] [7FD581C9]
01 61,6 [014EA852] [BF3D8ADC] CRC32
02 89,1 [9A19292A] [EE5A4D42] CRC32
03 80,3 [507AE963] [DDB52075] CRC32
04 89,1 [535909BA] [9E5B333E] CRC32
05 83,0 [089B5B2C] [C0B28BAA] CRC32
06 69,4 [A698B10B] [6022464F] CRC32
07 86,1 [69D66B72] [3D52723A] CRC32
08 89,1 [6A27EBD8] [34E88743] CRC32
09 89,1 [ECEF6A28] [421D107B] CRC32

Thanks to Olaf_alien

See also:
Trettioåriga Kriget - 7 Studio Albums (1974-2011)
Trettioåriga Kriget - Glorious War (Recordings from 1970-1971) (2004)
Trettioåriga Kriget - War Diaries Vol. 1: 1974 (2018)