Tags
Language
Tags

UFO - Live Throughout The Years (2011) [4CD Box Set]

Posted By: v3122
UFO - Live Throughout The Years (2011) [4CD Box Set]

UFO - Live Throughout The Years (2011)
EAC | Flac(Image) + Cue + Log & MP3 CBR 320Kbps
Music Melon / Mischief Music, MMLTDBOX17 | ~ 1563 or 679 Mb | Artwork(png) -> 168 Mb
Hard Rock

There have been countless UFO live recordings issued over the years, with the best undoubtedly being 1979's classic Strangers in the Night. But certainly one of the more intriguing live UFO releases came in 2008 with the arrival of the four-disc set Live Throughout the Years. And what makes this set stand out from the oodles of other live UFO items is that it includes standout live performances from three different decades – 1976 (London), 1982 (London), and 1998 (Vienna). As expected, the two performances that feature guitar wiz Michael Schenker (the first and last shows here) are the best of the bunch – both sonically and in terms of the track listings. Most of UFO's live standards are included here ("Doctor Doctor," "Love to Love," "Lights Out," etc. ), as well as quite a few often overlooked goodies ("Electric Phase," "One More for the Rodeo," "The Wild, the Willing and the Innocent," etc.). While Live Throughout the Years will probably be too much to chew on for newcomers, it will be a meaty three-course meal for old-timers.

~ Greg Prato
UFO - Live Throughout The Years (2011):

UFO - Live Throughout The Years (2011) [4CD Box Set]

Tracklist CD1 - Live At The Roundhouse 1976:

01. Intro - Can You Roll Her 03:52
02. Doctor Doctor 05:33
03. Oh My 04:28
04. Out On The Street 05:44
05. Highway Lady 05:17
06. I'm A Loser 04:25
07. Let It Roll 04:56
08. This Kids 04:23
09. Shoot Shoot 04:05
10. Rock Bottom 10:36
11. C'Mon Everybody 08:51
12. Boogie For George 09:16
13. All Or Nothing 04:30

Exact Audio Copy V1.0 beta 3 from 29. August 2011

EAC extraction logfile from 9. August 2012, 9:05

UFO / Live Throughout The Years CD1

Used drive : HL-DT-STDVDRAM GSA-H60N Adapter: 2 ID: 0

Read mode : Secure
Utilize accurate stream : Yes
Defeat audio cache : Yes
Make use of C2 pointers : No

Read offset correction : 667
Overread into Lead-In and Lead-Out : No
Fill up missing offset samples with silence : Yes
Delete leading and trailing silent blocks : No
Null samples used in CRC calculations : Yes
Used interface : Native Win32 interface for Win NT & 2000

Used output format : Internal WAV Routines
Sample format : 44.100 Hz; 16 Bit; Stereo


TOC of the extracted CD

Track | Start | Length | Start sector | End sector
––––––––––––––––––––––––––––-
1 | 0:00.00 | 3:52.00 | 0 | 17399
2 | 3:52.00 | 5:33.20 | 17400 | 42394
3 | 9:25.20 | 4:28.17 | 42395 | 62511
4 | 13:53.37 | 5:44.10 | 62512 | 88321
5 | 19:37.47 | 5:17.38 | 88322 | 112134
6 | 24:55.10 | 4:25.00 | 112135 | 132009
7 | 29:20.10 | 4:56.30 | 132010 | 154239
8 | 34:16.40 | 4:23.60 | 154240 | 174024
9 | 38:40.25 | 4:05.62 | 174025 | 192461
10 | 42:46.12 | 10:36.35 | 192462 | 240196
11 | 53:22.47 | 8:51.40 | 240197 | 280061
12 | 62:14.12 | 9:16.20 | 280062 | 321781
13 | 71:30.32 | 4:30.63 | 321782 | 342094


Range status and errors

Selected range

Filename C:\Documents and Settings\Admin\Рабочий стол\Rip by ALLexxess\UFO\2011 Live Throughout The Years (4CD Box Set Mischief Music)\CD1\UFO - Live Throughout The Years CD1.wav

Peak level 98.8 %
Extraction speed 6.4 X
Range quality 100.0 %
Test CRC BBCE75E9
Copy CRC BBCE75E9
Copy OK

No errors occurred


AccurateRip summary

Track 1 not present in database
Track 2 not present in database
Track 3 not present in database
Track 4 not present in database
Track 5 not present in database
Track 6 not present in database
Track 7 not present in database
Track 8 not present in database
Track 9 not present in database
Track 10 not present in database
Track 11 not present in database
Track 12 not present in database
Track 13 not present in database

None of the tracks are present in the AccurateRip database

End of status report

==== Log checksum E2998B62FF0764191632BE67624DC0C2DE5F0F85939B072D8EF6CA7968B7D89D ====


[CUETools log; Date: 15.11.2018 17:39:12; Version: 2.1.4]
[AccurateRip ID: 0020f415-0151fe28-be11d10d] found.
Track [ CRC | V2 ] Status
01 [c466eb67|caa16315] (0+0/2) No match
02 [fa7b8558|efec0571] (0+0/2) No match
03 [517e2836|26a79f52] (0+0/2) No match
04 [9ee8fe24|db880a83] (0+0/2) No match
05 [c5d7741b|1f4e3188] (0+0/2) No match
06 [09e6434e|b6a7c8e6] (0+0/2) No match
07 [53078ecb|953538a5] (0+0/2) No match
08 [079487c4|9b1657ea] (0+0/2) No match
09 [1505c12d|d46fc23a] (0+0/2) No match
10 [fa375721|b087bb6e] (0+0/2) No match
11 [1957a6fd|da2955e0] (0+0/2) No match
12 [29daf3eb|2c31a45f] (0+0/2) No match
13 [fea607ed|48218dcf] (0+1/5) Accurately ripped
Offsetted by 6:
01 [a0b26df1] (2/2) Accurately ripped
02 [7e168e9d] (2/2) Accurately ripped
03 [10a39ca9] (2/2) Accurately ripped
04 [1a71359d] (2/2) Accurately ripped
05 [806d0059] (2/2) Accurately ripped
06 [4e70b494] (2/2) Accurately ripped
07 [4b7274bb] (2/2) Accurately ripped
08 [fa63f0ee] (2/2) Accurately ripped
09 [8c9fef5f] (2/2) Accurately ripped
10 [368f4466] (2/2) Accurately ripped
11 [d060b6b9] (2/2) Accurately ripped
12 [1da5da3f] (2/2) Accurately ripped
13 [19a07c77] (1/5) Accurately ripped
Offsetted by 18:
01 [b31c06cd] (0/2) No match
02 [88dfefb4] (0/2) No match
03 [1b7f27db] (0/2) No match
04 [31c47fb1] (0/2) No match
05 [a7d7676e] (0/2) No match
06 [7fb3e678] (0/2) No match
07 [2b4d9538] (0/2) No match
08 [2f65f038] (0/2) No match
09 [8c77f615] (0/2) No match
10 [ede17a4b] (0/2) No match
11 [7005367d] (0/2) No match
12 [55d0479b] (0/2) No match
13 [4f95658b] (1/5) Accurately ripped

Track Peak [ CRC32 ] [W/O NULL] [ LOG ]
– 98,8 [BBCE75E9] [B98B079D] CRC32
01 98,8 [E3F46B59] [486BA3FE]
02 98,8 [B752C550] [33F28B4A]
03 98,8 [9BA74364] [0340C38B]
04 98,8 [9182D911] [7B4EF638]
05 98,8 [C50D0632] [3392CC71]
06 97,6 [95545D0D] [4BDDA8F4]
07 98,8 [10B2D85B] [A78FE1E2]
08 98,8 [44157760] [3F7FE570]
09 98,6 [D66EA0C2] [F40E046E]
10 98,8 [4E184915] [44D84DB1]
11 98,8 [EB1C8FF2] [F659AAA9]
12 98,8 [5AB12BB8] [E8447CC6]
13 74,9 [0637EA99] [F5736041]


UFO - Live Throughout The Years (2011) [4CD Box Set]

Tracklist CD2 - Live At Hammersmith Odeon 1982:

01. We Belong To The Night 04:22
02. Let It Rain 03:09
03. Long Game 05:02
04. The Wild, The Willing And The Innocent 04:51
05. Only You Can Rock Me 04:20
06. No Place To Run 05:02
07. Love To Love 08:43
08. Doing It All For You 04:02
09. Makin' Moves 04:49
10. Too Hot Too Handle 06:46
11. Mystery Train 07:51

Exact Audio Copy V1.0 beta 3 from 29. August 2011

EAC extraction logfile from 9. August 2012, 9:44

UFO / Live Throughout The Years CD2

Used drive : HL-DT-STDVDRAM GSA-H60N Adapter: 2 ID: 0

Read mode : Secure
Utilize accurate stream : Yes
Defeat audio cache : Yes
Make use of C2 pointers : No

Read offset correction : 667
Overread into Lead-In and Lead-Out : No
Fill up missing offset samples with silence : Yes
Delete leading and trailing silent blocks : No
Null samples used in CRC calculations : Yes
Used interface : Native Win32 interface for Win NT & 2000

Used output format : Internal WAV Routines
Sample format : 44.100 Hz; 16 Bit; Stereo


TOC of the extracted CD

Track | Start | Length | Start sector | End sector
––––––––––––––––––––––––––––-
1 | 0:00.00 | 4:22.61 | 0 | 19710
2 | 4:22.61 | 3:09.14 | 19711 | 33899
3 | 7:32.00 | 5:02.20 | 33900 | 56569
4 | 12:34.20 | 4:51.35 | 56570 | 78429
5 | 17:25.55 | 4:20.40 | 78430 | 97969
6 | 21:46.20 | 5:02.55 | 97970 | 120674
7 | 26:49.00 | 8:43.20 | 120675 | 159919
8 | 35:32.20 | 4:02.15 | 159920 | 178084
9 | 39:34.35 | 4:49.40 | 178085 | 199799
10 | 44:24.00 | 6:46.45 | 199800 | 230294
11 | 51:10.45 | 7:51.70 | 230295 | 265689


Range status and errors

Selected range

Filename C:\Documents and Settings\Admin\Рабочий стол\Rip by ALLexxess\UFO\2011 Live Throughout The Years (4CD Box Set Mischief Music)\CD2\UFO - Live Throughout The Years CD2.wav

Peak level 98.9 %
Extraction speed 5.6 X
Range quality 100.0 %
Test CRC 57DDBE9A
Copy CRC 57DDBE9A
Copy OK

No errors occurred


AccurateRip summary

Track 1 cannot be verified as accurate (confidence 1) [4EE1A8E4], AccurateRip returned [149D289D] (AR v2)
Track 2 cannot be verified as accurate (confidence 1) [BF3E50E7], AccurateRip returned [961846BD] (AR v2)
Track 3 cannot be verified as accurate (confidence 1) [18CBBF9A], AccurateRip returned [ACB18865] (AR v2)
Track 4 cannot be verified as accurate (confidence 1) [5C1A6B57], AccurateRip returned [43777B28] (AR v2)
Track 5 cannot be verified as accurate (confidence 1) [626CC2C6], AccurateRip returned [4A2285F9] (AR v2)
Track 6 cannot be verified as accurate (confidence 1) [CB40D9B9], AccurateRip returned [63380834] (AR v2)
Track 7 cannot be verified as accurate (confidence 1) [B816E87B], AccurateRip returned [E5550FE2] (AR v2)
Track 8 cannot be verified as accurate (confidence 1) [ACED15D2], AccurateRip returned [9671A06D] (AR v2)
Track 9 cannot be verified as accurate (confidence 1) [0A7E80FC], AccurateRip returned [E8FE0F1D] (AR v2)
Track 10 cannot be verified as accurate (confidence 1) [AA309FD3], AccurateRip returned [CE32518B] (AR v2)
Track 11 cannot be verified as accurate (confidence 1) [FDC2D05A], AccurateRip returned [9E5EF9A8] (AR v2)

No tracks could be verified as accurate
You may have a different pressing from the one(s) in the database

End of status report

==== Log checksum 5F57AFC303F62FEDB1280F33E28958A79C942BC31AC59F3A47565F8898493DC4 ====


[CUETools log; Date: 15.11.2018 17:44:21; Version: 2.1.4]
[AccurateRip ID: 0015fd16-00c33794-8a0dd60b] found.
Track [ CRC | V2 ] Status
01 [dd0f49a5|4ee1a8e4] (0+1/5) Accurately ripped
02 [42d1c227|bf3e50e7] (0+0/2) No match
03 [cb5c5578|18cbbf9a] (0+0/2) No match
04 [67ed4562|5c1a6b57] (0+0/2) No match
05 [af29c052|626cc2c6] (0+0/2) No match
06 [0978979c|cb40d9b9] (0+0/2) No match
07 [b8a629ae|b816e87b] (0+0/2) No match
08 [3e26080d|aced15d2] (0+0/2) No match
09 [85bcabc8|0a7e80fc] (0+0/2) No match
10 [c75bef71|aa309fd3] (0+0/2) No match
11 [f8d2ee71|fdc2d05a] (0+0/2) No match
Offsetted by 6:
01 [149d289d] (1/5) Accurately ripped
02 [961846bd] (2/2) Accurately ripped
03 [9e6b8865] (0/2) No match (V2 was not tested)
04 [43777b28] (2/2) Accurately ripped
05 [4a2285f9] (2/2) Accurately ripped
06 [63380834] (2/2) Accurately ripped
07 [e5550fe2] (2/2) Accurately ripped
08 [9671a06d] (2/2) Accurately ripped
09 [e8fe0f1d] (2/2) Accurately ripped
10 [ce32518b] (2/2) Accurately ripped
11 [9e5ef9a8] (2/2) Accurately ripped

Track Peak [ CRC32 ] [W/O NULL] [ LOG ]
– 98,9 [57DDBE9A] [2D233B30] CRC32
01 98,9 [516CF55B] [E7B3E7D5]
02 98,9 [75686C35] [A30630C3]
03 98,9 [EB66E87D] [60A8087D]
04 98,9 [DA4AE84E] [F2ECBA8B]
05 98,9 [094E9E57] [61F9D0F8]
06 98,9 [116EA0A1] [272603F8]
07 98,9 [A5F4D0CB] [1FDB6C47]
08 98,9 [61889E31] [4D7D37B5]
09 98,9 [8090626B] [6E3FC6A9]
10 98,9 [69617BCC] [E32D87FC]
11 98,9 [E014D8E6] [69822449]


UFO - Live Throughout The Years (2011) [4CD Box Set]

Tracklist CD3 - Live In Vienna, Austria - 1998:

01. Natural Thing 04:24
02. Mother Mary 03:47
03. A Self Made Man 06:46
04. Electric Phase 05:03
05. This Kids 04:41
06. Out In The Street 05:36
07. One More For The Rodeo 04:09
08. Venus 05:22
09. Pushed To The Limit 03:44

Exact Audio Copy V1.0 beta 3 from 29. August 2011

EAC extraction logfile from 9. August 2012, 11:49

UFO / Live Throughout The Years CD3

Used drive : HL-DT-STDVDRAM GSA-H60N Adapter: 2 ID: 0

Read mode : Secure
Utilize accurate stream : Yes
Defeat audio cache : Yes
Make use of C2 pointers : No

Read offset correction : 667
Overread into Lead-In and Lead-Out : No
Fill up missing offset samples with silence : Yes
Delete leading and trailing silent blocks : No
Null samples used in CRC calculations : Yes
Used interface : Native Win32 interface for Win NT & 2000

Used output format : Internal WAV Routines
Sample format : 44.100 Hz; 16 Bit; Stereo


TOC of the extracted CD

Track | Start | Length | Start sector | End sector
––––––––––––––––––––––––––––-
1 | 0:00.00 | 4:24.00 | 0 | 19799
2 | 4:24.00 | 3:47.20 | 19800 | 36844
3 | 8:11.20 | 6:46.55 | 36845 | 67349
4 | 14:58.00 | 5:03.00 | 67350 | 90074
5 | 20:01.00 | 4:41.00 | 90075 | 111149
6 | 24:42.00 | 5:36.00 | 111150 | 136349
7 | 30:18.00 | 4:09.50 | 136350 | 155074
8 | 34:27.50 | 5:22.55 | 155075 | 179279
9 | 39:50.30 | 3:44.57 | 179280 | 196136


Range status and errors

Selected range

Filename C:\Documents and Settings\Admin\Рабочий стол\Rip by ALLexxess\UFO\2011 Live Throughout The Years (4CD Box Set Mischief Music)\CD3\UFO - Live Throughout The Years CD3.wav

Peak level 99.6 %
Extraction speed 5.6 X
Range quality 99.9 %
Test CRC DCA26270
Copy CRC DCA26270
Copy OK

No errors occurred


AccurateRip summary

Track 1 cannot be verified as accurate (confidence 2) [269D997D], AccurateRip returned [5F5DDA14] (AR v2)
Track 2 cannot be verified as accurate (confidence 2) [C9678669], AccurateRip returned [C5A3B355] (AR v2)
Track 3 cannot be verified as accurate (confidence 2) [E1C0A84F], AccurateRip returned [864CE1E9] (AR v2)
Track 4 cannot be verified as accurate (confidence 2) [8D816E13], AccurateRip returned [5C5D0673] (AR v2)
Track 5 cannot be verified as accurate (confidence 2) [F415EBC0], AccurateRip returned [C7F2078C] (AR v2)
Track 6 cannot be verified as accurate (confidence 2) [7BE017DB], AccurateRip returned [4401074E] (AR v2)
Track 7 cannot be verified as accurate (confidence 2) [7974571B], AccurateRip returned [8458809B] (AR v2)
Track 8 cannot be verified as accurate (confidence 2) [296A2CA0], AccurateRip returned [01B01B85] (AR v2)
Track 9 cannot be verified as accurate (confidence 2) [7A27739D], AccurateRip returned [F16480C4] (AR v2)

No tracks could be verified as accurate
You may have a different pressing from the one(s) in the database

End of status report

==== Log checksum 67E1CFD0118B1271835119ACBF210ECEB0518575A54A9FF9C462B967F711CC96 ====


[CUETools log; Date: 15.11.2018 17:46:08; Version: 2.1.4]
[AccurateRip ID: 000f233e-006f7dff-6c0a3709] found.
Track [ CRC | V2 ] Status
01 [75e3bbfe|269d997d] (0+0/6) No match
02 [72fba6da|c9678669] (0+0/6) No match
03 [3f164a75|e1c0a84f] (0+0/6) No match
04 [47741d31|8d816e13] (0+0/6) No match
05 [24d3b132|f415ebc0] (0+0/6) No match
06 [1184e310|7be017db] (0+0/6) No match
07 [9e2f9f03|7974571b] (0+0/6) No match
08 [f7a422ec|296a2ca0] (0+0/7) No match
09 [01bf4353|7a27739d] (0+0/6) No match
Offsetted by 6:
01 [7c6deede] (2/6) Accurately ripped
02 [fd1b74b7] (2/6) Accurately ripped
03 [e2480b81] (2/6) Accurately ripped
04 [e69590d4] (2/6) Accurately ripped
05 [f717d569] (2/6) Accurately ripped
06 [62d2d484] (2/6) Accurately ripped
07 [618c0c8a] (2/6) Accurately ripped
08 [c124fa10] (2/7) Accurately ripped
09 [7de55569] (2/6) Accurately ripped
Offsetted by 18:
01 [5f5dda14] (2/6) Accurately ripped
02 [c5a3b355] (2/6) Accurately ripped
03 [864ce1e9] (2/6) Accurately ripped
04 [5c5d0673] (2/6) Accurately ripped
05 [c7f2078c] (2/6) Accurately ripped
06 [4401074e] (2/6) Accurately ripped
07 [8458809b] (2/6) Accurately ripped
08 [01b01b85] (2/7) Accurately ripped
09 [f16480c4] (2/6) Accurately ripped

Track Peak [ CRC32 ] [W/O NULL] [ LOG ]
– 99,6 [DCA26270] [6670E888] CRC32
01 99,6 [B4FF0CD8] [B52C7342]
02 99,6 [BB994658] [379EF9F2]
03 99,6 [F8EAD4F3] [F57A848F]
04 99,6 [0607C14A] [DE50A718]
05 99,6 [8D72A353] [81121551]
06 99,6 [D244DFA2] [C007878B]
07 99,6 [8E2CD7B1] [A659AA0A]
08 99,6 [B228FD80] [A4D7BFAE]
09 99,6 [C4A159D4] [A122DB2F]


UFO - Live Throughout The Years (2011) [4CD Box Set]

Tracklist CD4 - Live In Vienna, Austria - 1998:

01. Love To Love 09:08
02. Too Hot To Handle 04:34
03. Only You Can Rock Me 04:38
04. Lights Out 05:38
05. Doctor Doctor 06:02
06. Rock Bottom 12:58
07. Shoot Shoot 04:12

Exact Audio Copy V1.0 beta 3 from 29. August 2011

EAC extraction logfile from 9. August 2012, 12:57

UFO / Live Throughout The Years CD4

Used drive : HL-DT-STDVDRAM GSA-H60N Adapter: 2 ID: 0

Read mode : Secure
Utilize accurate stream : Yes
Defeat audio cache : Yes
Make use of C2 pointers : No

Read offset correction : 667
Overread into Lead-In and Lead-Out : No
Fill up missing offset samples with silence : Yes
Delete leading and trailing silent blocks : No
Null samples used in CRC calculations : Yes
Used interface : Native Win32 interface for Win NT & 2000

Used output format : Internal WAV Routines
Sample format : 44.100 Hz; 16 Bit; Stereo


TOC of the extracted CD

Track | Start | Length | Start sector | End sector
––––––––––––––––––––––––––––-
1 | 0:00.00 | 9:08.00 | 0 | 41099
2 | 9:08.00 | 4:34.00 | 41100 | 61649
3 | 13:42.00 | 4:38.00 | 61650 | 82499
4 | 18:20.00 | 5:38.00 | 82500 | 107849
5 | 23:58.00 | 6:02.00 | 107850 | 134999
6 | 30:00.00 | 12:58.05 | 135000 | 193354
7 | 42:58.05 | 4:12.72 | 193355 | 212326


Range status and errors

Selected range

Filename C:\Documents and Settings\Admin\Рабочий стол\Rip by ALLexxess\UFO\2011 Live Throughout The Years (4CD Box Set Mischief Music)\CD4\UFO - Live Throughout The Years CD4.wav

Peak level 99.6 %
Extraction speed 5.3 X
Range quality 100.0 %
Test CRC B4EEBE26
Copy CRC B4EEBE26
Copy OK

No errors occurred


AccurateRip summary

Track 1 cannot be verified as accurate (confidence 2) [329BD322], AccurateRip returned [8B8C5B53] (AR v2)
Track 2 cannot be verified as accurate (confidence 2) [EE0575A6], AccurateRip returned [0C4D3F0B] (AR v2)
Track 3 cannot be verified as accurate (confidence 2) [AEDAD819], AccurateRip returned [2FD499C7] (AR v2)
Track 4 cannot be verified as accurate (confidence 2) [D91865F9], AccurateRip returned [AD73751B] (AR v2)
Track 5 cannot be verified as accurate (confidence 2) [E16901F0], AccurateRip returned [779C1176] (AR v2)
Track 6 cannot be verified as accurate (confidence 2) [2F075E14], AccurateRip returned [31A011D5] (AR v2)
Track 7 cannot be verified as accurate (confidence 2) [B9512699], AccurateRip returned [97D728DC] (AR v2)

No tracks could be verified as accurate
You may have a different pressing from the one(s) in the database

End of status report

==== Log checksum 5AC1AA9AC8ECF7F2325D686C46349B63118C2620291212B2EEB41DB02AC81C25 ====


[CUETools log; Date: 15.11.2018 17:48:04; Version: 2.1.4]
[AccurateRip ID: 000cb8f6-004c4566-410b0f07] found.
Track [ CRC | V2 ] Status
01 [78e60c3d|329bd322] (0+0/7) No match
02 [b21ea59b|ee0575a6] (0+0/7) No match
03 [4d55f796|aedad819] (0+0/7) No match
04 [1ccd593b|d91865f9] (0+0/7) No match
05 [03fbc36e|e16901f0] (0+0/7) No match
06 [4352c8d7|2f075e14] (0+0/7) No match
07 [3a4c4232|b9512699] (0+0/7) No match
Offsetted by 6:
01 [ccb10d1d] (0/7) No match (V2 was not tested)
02 [3a78533c] (2/7) Accurately ripped
03 [e30df66f] (0/7) No match (V2 was not tested)
04 [608aa390] (2/7) Accurately ripped
05 [fd2ad020] (2/7) Accurately ripped
06 [bd2cc3ab] (0/7) No match (V2 was not tested)
07 [0236adfe] (0/7) No match (V2 was not tested)
Offsetted by 18:
01 [c2b6208e] (0/7) No match (V2 was not tested)
02 [0c4d3f0b] (2/7) Accurately ripped
03 [2cf499c7] (0/7) No match (V2 was not tested)
04 [ad73751b] (2/7) Accurately ripped
05 [779c1176] (2/7) Accurately ripped
06 [a4f570c2] (0/7) No match (V2 was not tested)
07 [16f76833] (0/7) No match (V2 was not tested)

Track Peak [ CRC32 ] [W/O NULL] [ LOG ]
– 99,6 [B4EEBE26] [62CC2B11] CRC32
01 99,6 [78783BF0] [8645443E]
02 99,6 [4BD4BEDE] [A709B7E7]
03 99,6 [5F544EB5] [08C6AEAD]
04 99,6 [B23FB434] [764FFAA9]
05 99,6 [BF9ACFE8] [C98301E9]
06 99,6 [FD24C06F] [C195C9C8]
07 99,6 [0676E9CB] [747131D7]


UFO - Live Throughout The Years (2011) [4CD Box Set]

All thanks go to ALLexxess

UFO in my Blog

Download UFO - Live Throughout The Years (2011):