Subcategories
Tags
Language
Tags

United Future Organization - United Future Organization (1993)

Posted By: gribovar
United Future Organization - United Future Organization (1993)

United Future Organization - United Future Organization (1993)
EAC Rip | FLAC (image+.cue+log) - 278 MB | Covers - 33 MB
Genre: Acid Jazz, Nu Jazz, Trip Hop | RAR 3% Rec. | Label: Talkin' Loud/Brownswood Records (518 166-2)

Despite its promising arc in the early '90s, the term "acid jazz" became a pejorative all too quickly. By the mid '90s, in order to stake claim to ears, minds and asses, deejays and producers were fleeing for the (then) perceived higher ground of the nascent drum & bass and jungle scenes, genres which themselves had woefully short lifespans. Into this mad dash entered United Future Organization's stunning self titled debut, like a groovy Robert De Niro airlifting himself IN to Saigon just as everyone else was leaving. And the results are remarkable from beginning to end, save perhaps for a palpable drop in energy in the album's last few tracks. But it is rare for any group to string together six consecutive tracks of such high quality and diverse sound to begin any record in their catalogue, let alone their official debut.
Tracklist:
01. The Sixth Sense
02. On Est Ensemble Sans Se Parler - L.O.V.E.
03. Vinyl Junkie
04. Upa Neguinho
05. I'll Bet You Thought I'd Never Find You
06. Poetry And All That Jazz
07. Be Here Now
08. My Foolish Dream
09. Off Road

Total time: 47:34

Exact Audio Copy V1.5 from 20. February 2020

EAC extraction logfile from 24. October 2020, 11:26

United Future Organization / United Future Organization

Used drive : TSSTcorpCDDVDW SN-208BB Adapter: 1 ID: 0

Read mode : Secure
Utilize accurate stream : Yes
Defeat audio cache : Yes
Make use of C2 pointers : No

Read offset correction : 6
Overread into Lead-In and Lead-Out : No
Fill up missing offset samples with silence : Yes
Delete leading and trailing silent blocks : No
Null samples used in CRC calculations : Yes
Used interface : Native Win32 interface for Win NT & 2000

Used output format : User Defined Encoder
Selected bitrate : 128 kBit/s
Quality : High
Add ID3 tag : No
Command line compressor : C:\Program Files (x86)\Exact Audio Copy\Flac\flac.exe
Additional command line options : -V -8 -T "Date=%year%" -T "Genre=%genre%" %source%


TOC of the extracted CD

Track | Start | Length | Start sector | End sector
––––––––––––––––––––––––––––-
1 | 0:00.00 | 7:08.00 | 0 | 32099
2 | 7:08.00 | 5:01.40 | 32100 | 54714
3 | 12:09.40 | 5:39.60 | 54715 | 80199
4 | 17:49.25 | 4:22.22 | 80200 | 99871
5 | 22:11.47 | 7:50.63 | 99872 | 135184
6 | 30:02.35 | 5:36.70 | 135185 | 160454
7 | 35:39.30 | 3:02.35 | 160455 | 174139
8 | 38:41.65 | 6:01.20 | 174140 | 201234
9 | 44:43.10 | 2:51.07 | 201235 | 214066


Range status and errors

Selected range

Filename E:\E-Moe\United Future Organization ‎- 1993 - United Future Organization\United Future Organization - United Future Organization.wav

Peak level 100.0 %
Extraction speed 2.7 X
Range quality 99.9 %
Test CRC 18ED4903
Copy CRC 18ED4903
Copy OK

No errors occurred


AccurateRip summary

Track 1 accurately ripped (confidence 23) [2CA1D759] (AR v2)
Track 2 accurately ripped (confidence 23) [FE19356A] (AR v2)
Track 3 accurately ripped (confidence 23) [CA6D1119] (AR v2)
Track 4 accurately ripped (confidence 23) [BE895737] (AR v2)
Track 5 accurately ripped (confidence 22) [6A1721AE] (AR v2)
Track 6 accurately ripped (confidence 23) [B53453D8] (AR v2)
Track 7 accurately ripped (confidence 23) [30D81582] (AR v2)
Track 8 accurately ripped (confidence 24) [193271DE] (AR v2)
Track 9 accurately ripped (confidence 23) [C32D8F82] (AR v2)

All tracks accurately ripped

End of status report

==== Log checksum 2B42A01556928708987AB8F26B1555E4A36E23107C4947303AC4E6D1F2D7CE7D ====

[CUETools log; Date: 11.04.2021 20:13:00; Version: 2.1.4]
[CTDB TOCID: d8tHFsUdL5Djl18_3Rc8MLR6e7M-] found.
Track | CTDB Status
1 | (104/104) Accurately ripped
2 | (104/104) Accurately ripped
3 | (104/104) Accurately ripped
4 | (103/104) Accurately ripped
5 | (102/104) Accurately ripped
6 | (102/104) Accurately ripped
7 | (104/104) Accurately ripped
8 | (102/104) Accurately ripped
9 | (102/104) Accurately ripped
[AccurateRip ID: 001193e1-007f121a-5b0b2609] found.
Track [ CRC | V2 ] Status
01 [0a26897a|2ca1d759] (29+26/61) Accurately ripped
02 [b7327f07|fe19356a] (28+26/60) Accurately ripped
03 [2d84d099|ca6d1119] (28+26/60) Accurately ripped
04 [faa68a83|be895737] (29+26/61) Accurately ripped
05 [8e6f6905|6a1721ae] (29+25/60) Accurately ripped
06 [d8f6acfd|b53453d8] (29+26/61) Accurately ripped
07 [2fe580e1|30d81582] (28+26/60) Accurately ripped
08 [c5f4a102|193271de] (28+27/61) Accurately ripped
09 [30c65936|c32d8f82] (27+26/59) Accurately ripped
Offsetted by -669:
01 [b9bfd2ea] (06/61) Accurately ripped
02 [a43b4609] (06/60) Accurately ripped
03 [face7b34] (06/60) Accurately ripped
04 [1b4071fc] (06/61) Accurately ripped
05 [2c44b991] (06/60) Accurately ripped
06 [899568a6] (06/61) Accurately ripped
07 [72264824] (06/60) Accurately ripped
08 [cd33dc86] (06/61) Accurately ripped
09 [ece62a53] (06/59) Accurately ripped

Track Peak [ CRC32 ] [W/O NULL] [ LOG ]
– 100,0 [18ED4903] [F136BB96] CRC32
01 95,5 [EC99A66C] [56D23112]
02 87,0 [DDE127F2] [86BC4394]
03 75,1 [95DB8C34] [3266C3F4]
04 92,0 [A5404CB0] [7EAA159E]
05 98,8 [CB9E6901] [C5DE3B46]
06 74,5 [4812D7A7] [36C91594]
07 56,1 [904C070F] [5F18657F]
08 86,4 [F742FC11] [0170A7DA]
09 100,0 [E61BFED5] [9692F650]

Thanks to glueleg

See also:
United Future Organization - No Sound Is Too Taboo (1994)