Tags
Language
Tags

VA - 100 Hits: The Best Disco Album (5CD, 2018)

Posted By: ciklon5
VA - 100 Hits: The Best Disco Album (5CD, 2018)

VA - 100 Hits: The Best Disco Album (5CD, 2018)
FLAC (tracks+cue+log+covers) / MP3 320 kbps | 6:06:46 | 843 Mb / 2,5 Gb
Genre: Disco, Dance, Pop / Label: 100 Hits

Das marktführende 100 Hits-Label wird auch im November wieder 5 brandneue 100 Hits- Compilations im stylischen Digipack veröffentlichen. 100 Hits - Das beste Disco-Album enthält die besten Disco-Klassiker aller Zeiten! Vertreten sind Künstler wie Earth, Wind & Fire, McFadden & Whitehead, Heatwave, Village People, Emotions, Harold Melvin & The Blue Notes, The Three Degrees, Odyssey und viele andere mehr.

Track List:
CD1:
[04:45] 01. Earth, Wind & Fire With The Emotions - Boogie Wonderland
[03:35] 02. McFadden & Whitehead - Ain't No Stoppin' Us Now
[03:36] 03. Heatwave - Boogie Nights
[03:27] 04. Dan Hartman - Instant Replay
[04:06] 05. Vicki Sue Robinson - Turn The Beat Around
[03:07] 06. The Hues Corporation - Rock The Boat
[02:59] 07. The O'Jays - Love Train
[03:33] 08. Harold Melvin & Blue Notes - The Love I Lost
[03:23] 09. Average White Band - Let's Go Round Again
[03:27] 10. Boney M. - Daddy Cool
[04:31] 11. Baccara - Yes Sir, I Can Boogie
[03:37] 12. Frantique - Strut Your Funky Stuff
[03:53] 13. The Three Degrees - Givin' Up Givin' In
[03:27] 14. Odyssey - Native New Yorker
[03:46] 15. Cheryl Lynn - Got To Be Real
[03:18] 16. The Nolans - I'm In The Mood For Dancing
[03:04] 17. Tina Charles - I Love To Love
[02:51] 18. Leo Sayer - You Make Me Feel Like Dancing
[04:27] 19. Disco Tex & His Sex-O-Lettes - Get Dancin'
[02:46] 20. First Choice - Armed And Extremely Dangerous

CD2:
[03:42] 01. Village People - YMCA
[04:31] 02. The Communards - Don't Leave Me This Way
[03:31] 03. The Weather Girls - It's Raining Men
[03:59] 04. The Pointer Sisters - Jump (For My Love)
[03:17] 05. Leif Garrett - I Was Made For Dancin'
[03:09] 06. Andrea True Connection - More, More, More
[03:49] 07. Patrick Juvet - I Love America
[04:02] 08. Cerrone - Supernature
[03:06] 09. Eruption - I Can't Stand The Rain
[04:09] 10. Dee D. Jackson - Automatic Lover
[04:19] 11. Sarah Brightman And Hot Gossip - I Lost My Heart To A Starship Trooper
[02:38] 12. 5000 Volts - I'm On Fire
[03:18] 13. Donna Summer - Romeo
[05:45] 14. Dr. Buzzard's Original Savannah Band - Cherchez La Femme
[03:32] 15. Johnny Mathis - Gone, Gone, Gone
[03:11] 16. Gladys Knight & The Pips - Baby, Don't Change Your Mind
[02:58] 17. Evelyn 'Champagne' King - Shame
[03:58] 18. Herbie Hancock - You Bet Your Love
[03:14] 19. The Isley Brothers - That Lady Pt.1
[03:23] 20. The Tymes - Ms. Grace

CD3:
[03:55] 01. LaBelle - Lady Marmalade
[03:04] 02. Wild Cherry - Play That Funky Music
[04:21] 03. Karen Young - Hot Shot
[03:54] 04. G.Q. - Disco Nights (Rock Freak)
[03:00] 05. Sly & The Family Stone - Dance To The Music
[05:12] 06. Aretha Franklin - What A Fool Believes
[03:30] 07. Gary's Gang - Keep On Dancin'
[03:30] 08. Gene Chandler - Get Down
[03:30] 09. Billy Ocean - Red Light Spells Danger
[02:50] 10. New York City - I'm Doin' Fine Now
[03:16] 11. The Drifters - You're More Than A Number In My Little Red Book
[04:14] 12. Heatwave - The Groove Line
[02:49] 13. The Tymes - You Little Trustmaker
[04:34] 14. Raydio - Jack And Jill
[04:27] 15. Lou Rawls - You'll Never Find Another Love Like Mine
[03:44] 16. MFSB - TSOP (The Sound Of Philadelphia)
[03:44] 17. Biddu Orchestra - Summer Of '42
[03:13] 18. Rodney Franklin - The Groove
[03:19] 19. Tom Browne - Funkin' For Jamaica
[03:58] 20. Average White Band - Pick Up The Pieces

CD4:
[03:43] 01. Dan Hartman - Relight My Fire
[04:10] 02. KC & The Sunshine Band - Give It Up
[03:42] 03. Donna Summer - Love Is In Control (Finger On The Trigger)
[04:17] 04. Deniece Williams - Let's Hear It For The Boy
[03:37] 05. Evelyn 'Champagne' King - Love Come Down
[03:25] 06. Odyssey - Going Back To My Roots
[04:47] 07. The Pointer Sisters - Automatic
[03:39] 08. Herbie Hancock - Rockit
[03:44] 09. Jean Carn - Was That All It Was
[03:43] 10. The Jones Girls - Night Over Egypt
[04:12] 11. Bill Withers - Lovely Day
[02:42] 12. Dee Clark - Ride A Wild Horse
[03:50] 13. Linda Carr - High Wire
[03:07] 14. Tina Charles - Dance Little Lady Dance
[03:11] 15. Esther Phillips - What A Diff'rence A Day Makes
[05:42] 16. Cheryl Lynn - Shake It Up Tonight
[04:25] 17. Johnnie Taylor - Disco Lady
[05:04] 18. Disco Tex & His Sex-O-Lettes - I Wanna Dance Wit' Choo (Doo Dat Dance)
[03:08] 19. Archie Bell & The Drells - The Soul City Walk
[02:52] 20. Jim Gilstrap - Swing Your Daddy

CD5:
[03:39] 01. The Emotions - Best Of My Love
[03:35] 02. Earth, Wind & Fire - September
[04:12] 03. The Isley Brothers - It's A Disco Night (Rock Don't Stop)
[03:35] 04. The O'Jays - I Love Music
[03:30] 05. Melba Moore - This Is It
[03:24] 06. Gladys Knight & The Pips - Come Back And Finish What You Started
[03:36] 07. Eruption - One Way Ticket
[03:58] 08. Boney M. - Sunny
[03:07] 09. 5000 Volts - Doctor Kiss Kiss
[04:02] 10. Sarah Brightman - Adventures Of The Love Crusader
[03:37] 11. Baccara - Sorry, I'm A Lady
[03:17] 12. Andrea True Connection - What's Your Name, What's Your Number
[04:20] 13. The Three Degrees - The Runner
[03:37] 14. The Dooleys - Wanted
[03:25] 15. Clout - Substitute
[02:38] 16. First Choice - Smarty Pants
[03:35] 17. Leo Sayer - Thunder In My Heart
[03:02] 18. The Drifters - There Goes My First Love
[03:45] 19. The Trammps - Hold Back The Night
[03:52] 20. Harold Melvin & The Blue Notes - Don't Leave Me This Way

Exact Audio Copy V1.3 from 2. September 2016

EAC extraction logfile from 29. November 2018, 12:24

Various / 100 Hits - The Best - Disco Album - CD1

Used drive : ATAPI iHAS124 Y Adapter: 1 ID: 0

Read mode : Secure
Utilize accurate stream : Yes
Defeat audio cache : No
Make use of C2 pointers : Yes

Read offset correction : 48
Overread into Lead-In and Lead-Out : No
Fill up missing offset samples with silence : Yes
Delete leading and trailing silent blocks : No
Null samples used in CRC calculations : Yes
Used interface : Native Win32 interface for Win NT & 2000
Gap handling : Not detected, thus appended to previous track

Used output format : User Defined Encoder
Selected bitrate : 896 kBit/s
Quality : High
Add ID3 tag : No
Command line compressor : C:\Program Files (x86)\Exact Audio Copy\FLAC\FLAC.EXE
Additional command line options : -6 -V -T "ARTIST=%artist%" -T "TITLE=%title%" -T "ALBUM=%albumtitle%" -T "DATE=%year%" -T "TRACKNUMBER=%tracknr%" -T "GENRE=%genre%" -T "COMMENT=%comment%" -T "BAND=%albuminterpret%" -T "ALBUMARTIST=%albuminterpret%" -T "COMPOSER=%composer%" %haslyrics%–tag-from-file=LYRICS="%lyricsfile%"%haslyrics% -T "DISCNUMBER=%cdnumber%" -T "TOTALDISCS=%totalcds%" -T "TOTALTRACKS=%numtracks%" %hascover%–picture="%coverfile%"%hascover% %source% -o %dest%


TOC of the extracted CD

Track | Start | Length | Start sector | End sector
––––––––––––––––––––––––––––-
1 | 0:00.00 | 4:45.58 | 0 | 21432
2 | 4:45.58 | 3:35.06 | 21433 | 37563
3 | 8:20.64 | 3:36.72 | 37564 | 53835
4 | 11:57.61 | 3:27.21 | 53836 | 69381
5 | 15:25.07 | 4:06.52 | 69382 | 87883
6 | 19:31.59 | 3:07.64 | 87884 | 101972
7 | 22:39.48 | 2:59.50 | 101973 | 115447
8 | 25:39.23 | 3:33.16 | 115448 | 131438
9 | 29:12.39 | 3:23.32 | 131439 | 146695
10 | 32:35.71 | 3:27.74 | 146696 | 162294
11 | 36:03.70 | 4:31.51 | 162295 | 182670
12 | 40:35.46 | 3:37.47 | 182671 | 198992
13 | 44:13.18 | 3:53.40 | 198993 | 216507
14 | 48:06.58 | 3:27.52 | 216508 | 232084
15 | 51:34.35 | 3:46.05 | 232085 | 249039
16 | 55:20.40 | 3:18.56 | 249040 | 263945
17 | 58:39.21 | 3:04.27 | 263946 | 277772
18 | 61:43.48 | 2:51.31 | 277773 | 290628
19 | 64:35.04 | 4:27.25 | 290629 | 310678
20 | 69:02.29 | 2:46.53 | 310679 | 323181


Track 1

Filename A:\PsPBuRnOuT's MUSIC\100 HITS\- 100 HITS - THE BEST -\100 HITS - THE BEST - DISCO ALBUM\100 HITS - THE BEST - DISCO ALBUM - CD1\01.Earth, Wind & Fire With The Emotions - Boogie Wonderland.wav

Peak level 94.3 %
Extraction speed 15.4 X
Track quality 100.0 %
Copy CRC A11DC47E
Track not present in AccurateRip database
Copy OK

Track 2

Filename A:\PsPBuRnOuT's MUSIC\100 HITS\- 100 HITS - THE BEST -\100 HITS - THE BEST - DISCO ALBUM\100 HITS - THE BEST - DISCO ALBUM - CD1\02.McFadden & Whitehead - Ain't No Stoppin' Us Now.wav

Peak level 89.1 %
Extraction speed 18.3 X
Track quality 99.9 %
Copy CRC 79556145
Track not present in AccurateRip database
Copy OK

Track 3

Filename A:\PsPBuRnOuT's MUSIC\100 HITS\- 100 HITS - THE BEST -\100 HITS - THE BEST - DISCO ALBUM\100 HITS - THE BEST - DISCO ALBUM - CD1\03.Heatwave - Boogie Nights.wav

Peak level 94.3 %
Extraction speed 17.4 X
Track quality 100.0 %
Copy CRC FF495E3B
Track not present in AccurateRip database
Copy OK

Track 4

Filename A:\PsPBuRnOuT's MUSIC\100 HITS\- 100 HITS - THE BEST -\100 HITS - THE BEST - DISCO ALBUM\100 HITS - THE BEST - DISCO ALBUM - CD1\04.Dan Hartman - Instant Replay.wav

Peak level 94.3 %
Extraction speed 24.4 X
Track quality 100.0 %
Copy CRC 652A4F30
Track not present in AccurateRip database
Copy OK

Track 5

Filename A:\PsPBuRnOuT's MUSIC\100 HITS\- 100 HITS - THE BEST -\100 HITS - THE BEST - DISCO ALBUM\100 HITS - THE BEST - DISCO ALBUM - CD1\05.Vicki Sue Robinson - Turn The Beat Around.wav

Peak level 94.3 %
Extraction speed 26.0 X
Track quality 100.0 %
Copy CRC C879883B
Track not present in AccurateRip database
Copy OK

Track 6

Filename A:\PsPBuRnOuT's MUSIC\100 HITS\- 100 HITS - THE BEST -\100 HITS - THE BEST - DISCO ALBUM\100 HITS - THE BEST - DISCO ALBUM - CD1\06.The Hues Corporation - Rock The Boat.wav

Peak level 85.1 %
Extraction speed 25.7 X
Track quality 100.0 %
Copy CRC 720A56BC
Track not present in AccurateRip database
Copy OK

Track 7

Filename A:\PsPBuRnOuT's MUSIC\100 HITS\- 100 HITS - THE BEST -\100 HITS - THE BEST - DISCO ALBUM\100 HITS - THE BEST - DISCO ALBUM - CD1\07.The O'Jays - Love Train.wav

Peak level 94.3 %
Extraction speed 26.9 X
Track quality 100.0 %
Copy CRC 902D244E
Track not present in AccurateRip database
Copy OK

Track 8

Filename A:\PsPBuRnOuT's MUSIC\100 HITS\- 100 HITS - THE BEST -\100 HITS - THE BEST - DISCO ALBUM\100 HITS - THE BEST - DISCO ALBUM - CD1\08.Harold Melvin & Blue Notes - The Love I Lost.wav

Peak level 89.9 %
Extraction speed 29.6 X
Track quality 100.0 %
Copy CRC ADA5E85B
Track not present in AccurateRip database
Copy OK

Track 9

Filename A:\PsPBuRnOuT's MUSIC\100 HITS\- 100 HITS - THE BEST -\100 HITS - THE BEST - DISCO ALBUM\100 HITS - THE BEST - DISCO ALBUM - CD1\09.Average White Band - Let's Go Round Again.wav

Peak level 91.1 %
Extraction speed 30.7 X
Track quality 100.0 %
Copy CRC 4BB7DDEA
Track not present in AccurateRip database
Copy OK

Track 10

Filename A:\PsPBuRnOuT's MUSIC\100 HITS\- 100 HITS - THE BEST -\100 HITS - THE BEST - DISCO ALBUM\100 HITS - THE BEST - DISCO ALBUM - CD1\10.Boney M. - Daddy Cool.wav

Peak level 64.5 %
Extraction speed 30.3 X
Track quality 100.0 %
Copy CRC 728A6FB8
Track not present in AccurateRip database
Copy OK

Track 11

Filename A:\PsPBuRnOuT's MUSIC\100 HITS\- 100 HITS - THE BEST -\100 HITS - THE BEST - DISCO ALBUM\100 HITS - THE BEST - DISCO ALBUM - CD1\11.Baccara - Yes Sir, I Can Boogie.wav

Peak level 69.1 %
Extraction speed 31.6 X
Track quality 100.0 %
Copy CRC 2C2268F2
Track not present in AccurateRip database
Copy OK

Track 12

Filename A:\PsPBuRnOuT's MUSIC\100 HITS\- 100 HITS - THE BEST -\100 HITS - THE BEST - DISCO ALBUM\100 HITS - THE BEST - DISCO ALBUM - CD1\12.Frantique - Strut Your Funky Stuff.wav

Peak level 82.2 %
Extraction speed 16.9 X
Track quality 99.9 %
Copy CRC 71F9CAF3
Track not present in AccurateRip database
Copy OK

Track 13

Filename A:\PsPBuRnOuT's MUSIC\100 HITS\- 100 HITS - THE BEST -\100 HITS - THE BEST - DISCO ALBUM\100 HITS - THE BEST - DISCO ALBUM - CD1\13.The Three Degrees - Givin' Up Givin' In.wav

Peak level 79.4 %
Extraction speed 20.3 X
Track quality 99.8 %
Copy CRC F974D098
Track not present in AccurateRip database
Copy OK

Track 14

Filename A:\PsPBuRnOuT's MUSIC\100 HITS\- 100 HITS - THE BEST -\100 HITS - THE BEST - DISCO ALBUM\100 HITS - THE BEST - DISCO ALBUM - CD1\14.Odyssey - Native New Yorker.wav

Peak level 85.1 %
Extraction speed 26.6 X
Track quality 100.0 %
Copy CRC 435D4A52
Track not present in AccurateRip database
Copy OK

Track 15

Filename A:\PsPBuRnOuT's MUSIC\100 HITS\- 100 HITS - THE BEST -\100 HITS - THE BEST - DISCO ALBUM\100 HITS - THE BEST - DISCO ALBUM - CD1\15.Cheryl Lynn - Got To Be Real.wav

Peak level 85.1 %
Extraction speed 37.0 X
Track quality 100.0 %
Copy CRC 439BE532
Track not present in AccurateRip database
Copy OK

Track 16

Filename A:\PsPBuRnOuT's MUSIC\100 HITS\- 100 HITS - THE BEST -\100 HITS - THE BEST - DISCO ALBUM\100 HITS - THE BEST - DISCO ALBUM - CD1\16.The Nolans - I'm In The Mood For Dancing.wav

Peak level 94.3 %
Extraction speed 35.5 X
Track quality 100.0 %
Copy CRC 9FB10BBA
Track not present in AccurateRip database
Copy OK

Track 17

Filename A:\PsPBuRnOuT's MUSIC\100 HITS\- 100 HITS - THE BEST -\100 HITS - THE BEST - DISCO ALBUM\100 HITS - THE BEST - DISCO ALBUM - CD1\17.Tina Charles - I Love To Love.wav

Peak level 85.1 %
Extraction speed 36.4 X
Track quality 100.0 %
Copy CRC 3DA19C06
Track not present in AccurateRip database
Copy OK

Track 18

Filename A:\PsPBuRnOuT's MUSIC\100 HITS\- 100 HITS - THE BEST -\100 HITS - THE BEST - DISCO ALBUM\100 HITS - THE BEST - DISCO ALBUM - CD1\18.Leo Sayer - You Make Me Feel Like Dancing.wav

Peak level 79.4 %
Extraction speed 36.3 X
Track quality 100.0 %
Copy CRC EF0016E3
Track not present in AccurateRip database
Copy OK

Track 19

Filename A:\PsPBuRnOuT's MUSIC\100 HITS\- 100 HITS - THE BEST -\100 HITS - THE BEST - DISCO ALBUM\100 HITS - THE BEST - DISCO ALBUM - CD1\19.Disco Tex & His Sex-O-Lettes - Get Dancin'.wav

Peak level 76.7 %
Extraction speed 37.9 X
Track quality 100.0 %
Copy CRC 191AD1A4
Track not present in AccurateRip database
Copy OK

Track 20

Filename A:\PsPBuRnOuT's MUSIC\100 HITS\- 100 HITS - THE BEST -\100 HITS - THE BEST - DISCO ALBUM\100 HITS - THE BEST - DISCO ALBUM - CD1\20.First Choice - Armed And Extremely Dangerous.wav

Peak level 85.9 %
Extraction speed 19.4 X
Track quality 99.8 %
Copy CRC 7901AD45
Track not present in AccurateRip database
Copy OK


None of the tracks are present in the AccurateRip database

No errors occurred

End of status report

–– CUETools DB Plugin V2.1.6

[CTDB TOCID: Qw2V7pM_o344WYG7m2svDrs86KY-] found
Submit result: Qw2V7pM_o344WYG7m2svDrs86KY- has been confirmed
Track | CTDB Status
1 | (3/3) Accurately ripped
2 | (3/3) Accurately ripped
3 | (3/3) Accurately ripped
4 | (3/3) Accurately ripped
5 | (3/3) Accurately ripped
6 | (3/3) Accurately ripped
7 | (3/3) Accurately ripped
8 | (3/3) Accurately ripped
9 | (3/3) Accurately ripped
10 | (3/3) Accurately ripped
11 | (3/3) Accurately ripped
12 | (3/3) Accurately ripped
13 | (3/3) Accurately ripped
14 | (3/3) Accurately ripped
15 | (3/3) Accurately ripped
16 | (3/3) Accurately ripped
17 | (3/3) Accurately ripped
18 | (3/3) Accurately ripped
19 | (3/3) Accurately ripped
20 | (3/3) Accurately ripped

Exact Audio Copy V1.3 from 2. September 2016

EAC extraction logfile from 29. November 2018, 13:08

Various / 100 Hits - The Best - Disco Album - CD2

Used drive : ATAPI iHAS124 Y Adapter: 1 ID: 0

Read mode : Secure
Utilize accurate stream : Yes
Defeat audio cache : No
Make use of C2 pointers : Yes

Read offset correction : 48
Overread into Lead-In and Lead-Out : No
Fill up missing offset samples with silence : Yes
Delete leading and trailing silent blocks : No
Null samples used in CRC calculations : Yes
Used interface : Native Win32 interface for Win NT & 2000
Gap handling : Not detected, thus appended to previous track

Used output format : User Defined Encoder
Selected bitrate : 896 kBit/s
Quality : High
Add ID3 tag : No
Command line compressor : C:\Program Files (x86)\Exact Audio Copy\FLAC\FLAC.EXE
Additional command line options : -6 -V -T "ARTIST=%artist%" -T "TITLE=%title%" -T "ALBUM=%albumtitle%" -T "DATE=%year%" -T "TRACKNUMBER=%tracknr%" -T "GENRE=%genre%" -T "COMMENT=%comment%" -T "BAND=%albuminterpret%" -T "ALBUMARTIST=%albuminterpret%" -T "COMPOSER=%composer%" %haslyrics%–tag-from-file=LYRICS="%lyricsfile%"%haslyrics% -T "DISCNUMBER=%cdnumber%" -T "TOTALDISCS=%totalcds%" -T "TOTALTRACKS=%numtracks%" %hascover%–picture="%coverfile%"%hascover% %source% -o %dest%


TOC of the extracted CD

Track | Start | Length | Start sector | End sector
––––––––––––––––––––––––––––-
1 | 0:00.00 | 3:42.69 | 0 | 16718
2 | 3:42.69 | 4:31.30 | 16719 | 37073
3 | 8:14.24 | 3:31.12 | 37074 | 52910
4 | 11:45.36 | 3:59.17 | 52911 | 70852
5 | 15:44.53 | 3:17.30 | 70853 | 85657
6 | 19:02.08 | 3:09.51 | 85658 | 99883
7 | 22:11.59 | 3:49.57 | 99884 | 117115
8 | 26:01.41 | 4:02.09 | 117116 | 135274
9 | 30:03.50 | 3:06.28 | 135275 | 149252
10 | 33:10.03 | 4:09.57 | 149253 | 167984
11 | 37:19.60 | 4:19.28 | 167985 | 187437
12 | 41:39.13 | 2:38.54 | 187438 | 199341
13 | 44:17.67 | 3:18.00 | 199342 | 214191
14 | 47:35.67 | 5:45.40 | 214192 | 240106
15 | 53:21.32 | 3:32.71 | 240107 | 256077
16 | 56:54.28 | 3:11.17 | 256078 | 270419
17 | 60:05.45 | 2:58.23 | 270420 | 283792
18 | 63:03.68 | 3:58.05 | 283793 | 301647
19 | 67:01.73 | 3:14.40 | 301648 | 316237
20 | 70:16.38 | 3:23.15 | 316238 | 331477


Track 1

Filename A:\PsPBuRnOuT's MUSIC\100 HITS\- 100 HITS - THE BEST -\100 HITS - THE BEST - DISCO ALBUM\100 HITS - THE BEST - DISCO ALBUM - CD2\01.Village People - YMCA.wav

Peak level 94.3 %
Extraction speed 9.1 X
Track quality 100.0 %
Copy CRC 10934E81
Track not present in AccurateRip database
Copy OK

Track 2

Filename A:\PsPBuRnOuT's MUSIC\100 HITS\- 100 HITS - THE BEST -\100 HITS - THE BEST - DISCO ALBUM\100 HITS - THE BEST - DISCO ALBUM - CD2\02.The Communards - Don't Leave Me This Way.wav

Peak level 79.4 %
Extraction speed 10.6 X
Track quality 100.0 %
Copy CRC C081026A
Track not present in AccurateRip database
Copy OK

Track 3

Filename A:\PsPBuRnOuT's MUSIC\100 HITS\- 100 HITS - THE BEST -\100 HITS - THE BEST - DISCO ALBUM\100 HITS - THE BEST - DISCO ALBUM - CD2\03.The Weather Girls - It's Raining Men.wav

Peak level 85.1 %
Extraction speed 11.4 X
Track quality 100.0 %
Copy CRC 053C02FB
Track not present in AccurateRip database
Copy OK

Track 4

Filename A:\PsPBuRnOuT's MUSIC\100 HITS\- 100 HITS - THE BEST -\100 HITS - THE BEST - DISCO ALBUM\100 HITS - THE BEST - DISCO ALBUM - CD2\04.The Pointer Sisters - Jump (For My Love).wav

Peak level 94.3 %
Extraction speed 12.2 X
Track quality 100.0 %
Copy CRC 8CBDF396
Track not present in AccurateRip database
Copy OK

Track 5

Filename A:\PsPBuRnOuT's MUSIC\100 HITS\- 100 HITS - THE BEST -\100 HITS - THE BEST - DISCO ALBUM\100 HITS - THE BEST - DISCO ALBUM - CD2\05.Leif Garrett - I Was Made For Dancin'.wav

Peak level 94.3 %
Extraction speed 13.5 X
Track quality 100.0 %
Copy CRC B1C138FA
Track not present in AccurateRip database
Copy OK

Track 6

Filename A:\PsPBuRnOuT's MUSIC\100 HITS\- 100 HITS - THE BEST -\100 HITS - THE BEST - DISCO ALBUM\100 HITS - THE BEST - DISCO ALBUM - CD2\06.Andrea True Connection - More, More, More.wav

Peak level 86.0 %
Extraction speed 14.1 X
Track quality 100.0 %
Copy CRC 1FDC223D
Track not present in AccurateRip database
Copy OK

Track 7

Filename A:\PsPBuRnOuT's MUSIC\100 HITS\- 100 HITS - THE BEST -\100 HITS - THE BEST - DISCO ALBUM\100 HITS - THE BEST - DISCO ALBUM - CD2\07.Patrick Juvet - I Love America.wav

Peak level 77.6 %
Extraction speed 14.0 X
Track quality 99.9 %
Copy CRC 6F4F4CED
Track not present in AccurateRip database
Copy OK

Track 8

Filename A:\PsPBuRnOuT's MUSIC\100 HITS\- 100 HITS - THE BEST -\100 HITS - THE BEST - DISCO ALBUM\100 HITS - THE BEST - DISCO ALBUM - CD2\08.Cerrone - Supernature.wav

Peak level 94.3 %
Extraction speed 14.8 X
Track quality 100.0 %
Copy CRC AD4A6F76
Track not present in AccurateRip database
Copy OK

Track 9

Filename A:\PsPBuRnOuT's MUSIC\100 HITS\- 100 HITS - THE BEST -\100 HITS - THE BEST - DISCO ALBUM\100 HITS - THE BEST - DISCO ALBUM - CD2\09.Eruption - I Can't Stand The Rain.wav

Peak level 83.1 %
Extraction speed 15.3 X
Track quality 100.0 %
Copy CRC 99B27F71
Track not present in AccurateRip database
Copy OK

Track 10

Filename A:\PsPBuRnOuT's MUSIC\100 HITS\- 100 HITS - THE BEST -\100 HITS - THE BEST - DISCO ALBUM\100 HITS - THE BEST - DISCO ALBUM - CD2\10.Dee D. Jackson - Automatic Lover.wav

Peak level 94.3 %
Extraction speed 15.9 X
Track quality 100.0 %
Copy CRC EC6537AD
Track not present in AccurateRip database
Copy OK

Track 11

Filename A:\PsPBuRnOuT's MUSIC\100 HITS\- 100 HITS - THE BEST -\100 HITS - THE BEST - DISCO ALBUM\100 HITS - THE BEST - DISCO ALBUM - CD2\11.Sarah Brightman And Hot Gossip - I Lost My Heart To A Starship Trooper.wav

Peak level 91.1 %
Extraction speed 16.4 X
Track quality 99.9 %
Copy CRC 4BAF52AD
Track not present in AccurateRip database
Copy OK

Track 12

Filename A:\PsPBuRnOuT's MUSIC\100 HITS\- 100 HITS - THE BEST -\100 HITS - THE BEST - DISCO ALBUM\100 HITS - THE BEST - DISCO ALBUM - CD2\12.5000 Volts - I'm On Fire.wav

Peak level 100.0 %
Extraction speed 16.7 X
Track quality 99.8 %
Copy CRC EADD3D86
Track not present in AccurateRip database
Copy OK

Track 13

Filename A:\PsPBuRnOuT's MUSIC\100 HITS\- 100 HITS - THE BEST -\100 HITS - THE BEST - DISCO ALBUM\100 HITS - THE BEST - DISCO ALBUM - CD2\13.Donna Summer - Romeo.wav

Peak level 94.3 %
Extraction speed 18.2 X
Track quality 100.0 %
Copy CRC B1368845
Track not present in AccurateRip database
Copy OK

Track 14

Filename A:\PsPBuRnOuT's MUSIC\100 HITS\- 100 HITS - THE BEST -\100 HITS - THE BEST - DISCO ALBUM\100 HITS - THE BEST - DISCO ALBUM - CD2\14.Dr. Buzzard's Original Savannah Band - Cherchez La Femme.wav

Peak level 94.3 %
Extraction speed 18.6 X
Track quality 100.0 %
Copy CRC 311BAF72
Track not present in AccurateRip database
Copy OK

Track 15

Filename A:\PsPBuRnOuT's MUSIC\100 HITS\- 100 HITS - THE BEST -\100 HITS - THE BEST - DISCO ALBUM\100 HITS - THE BEST - DISCO ALBUM - CD2\15.Johnny Mathis - Gone, Gone, Gone.wav

Peak level 94.3 %
Extraction speed 19.5 X
Track quality 100.0 %
Copy CRC E87AE031
Track not present in AccurateRip database
Copy OK

Track 16

Filename A:\PsPBuRnOuT's MUSIC\100 HITS\- 100 HITS - THE BEST -\100 HITS - THE BEST - DISCO ALBUM\100 HITS - THE BEST - DISCO ALBUM - CD2\16.Gladys Knight & The Pips - Baby, Don't Change Your Mind.wav

Peak level 94.3 %
Extraction speed 19.9 X
Track quality 100.0 %
Copy CRC 6F85B10A
Track not present in AccurateRip database
Copy OK

Track 17

Filename A:\PsPBuRnOuT's MUSIC\100 HITS\- 100 HITS - THE BEST -\100 HITS - THE BEST - DISCO ALBUM\100 HITS - THE BEST - DISCO ALBUM - CD2\17.Evelyn 'Champagne' King - Shame.wav

Peak level 94.3 %
Extraction speed 19.5 X
Track quality 100.0 %
Copy CRC 3AB41D88
Track not present in AccurateRip database
Copy OK

Track 18

Filename A:\PsPBuRnOuT's MUSIC\100 HITS\- 100 HITS - THE BEST -\100 HITS - THE BEST - DISCO ALBUM\100 HITS - THE BEST - DISCO ALBUM - CD2\18.Herbie Hancock - You Bet Your Love.wav

Peak level 94.3 %
Extraction speed 19.9 X
Track quality 100.0 %
Copy CRC D6F8F9E4
Track not present in AccurateRip database
Copy OK

Track 19

Filename A:\PsPBuRnOuT's MUSIC\100 HITS\- 100 HITS - THE BEST -\100 HITS - THE BEST - DISCO ALBUM\100 HITS - THE BEST - DISCO ALBUM - CD2\19.The Isley Brothers - That Lady Pt.1.wav

Peak level 94.3 %
Extraction speed 20.7 X
Track quality 100.0 %
Copy CRC F03DD53A
Track not present in AccurateRip database
Copy OK

Track 20

Filename A:\PsPBuRnOuT's MUSIC\100 HITS\- 100 HITS - THE BEST -\100 HITS - THE BEST - DISCO ALBUM\100 HITS - THE BEST - DISCO ALBUM - CD2\20.The Tymes - Ms. Grace.wav

Peak level 94.3 %
Extraction speed 20.7 X
Track quality 100.0 %
Copy CRC CF6C744C
Track not present in AccurateRip database
Copy OK


None of the tracks are present in the AccurateRip database

No errors occurred

End of status report

–– CUETools DB Plugin V2.1.6

[CTDB TOCID: VsMs7G3I4Yuqxwt1X8Qkl1fpOUo-] found
Submit result: VsMs7G3I4Yuqxwt1X8Qkl1fpOUo- has been confirmed
Track | CTDB Status
1 | (2/2) Accurately ripped
2 | (2/2) Accurately ripped
3 | (2/2) Accurately ripped
4 | (2/2) Accurately ripped
5 | (2/2) Accurately ripped
6 | (2/2) Accurately ripped
7 | (2/2) Accurately ripped
8 | (2/2) Accurately ripped
9 | (2/2) Accurately ripped
10 | (2/2) Accurately ripped
11 | (2/2) Accurately ripped
12 | (2/2) Accurately ripped
13 | (2/2) Accurately ripped
14 | (2/2) Accurately ripped
15 | (2/2) Accurately ripped
16 | (2/2) Accurately ripped
17 | (2/2) Accurately ripped
18 | (2/2) Accurately ripped
19 | (2/2) Accurately ripped
20 | (2/2) Accurately ripped

Exact Audio Copy V1.3 from 2. September 2016

EAC extraction logfile from 29. November 2018, 13:43

Various / 100 Hits - The Best - Disco Album - CD3

Used drive : ATAPI iHAS124 Y Adapter: 1 ID: 0

Read mode : Secure
Utilize accurate stream : Yes
Defeat audio cache : No
Make use of C2 pointers : Yes

Read offset correction : 48
Overread into Lead-In and Lead-Out : No
Fill up missing offset samples with silence : Yes
Delete leading and trailing silent blocks : No
Null samples used in CRC calculations : Yes
Used interface : Native Win32 interface for Win NT & 2000
Gap handling : Not detected, thus appended to previous track

Used output format : User Defined Encoder
Selected bitrate : 896 kBit/s
Quality : High
Add ID3 tag : No
Command line compressor : C:\Program Files (x86)\Exact Audio Copy\FLAC\FLAC.EXE
Additional command line options : -6 -V -T "ARTIST=%artist%" -T "TITLE=%title%" -T "ALBUM=%albumtitle%" -T "DATE=%year%" -T "TRACKNUMBER=%tracknr%" -T "GENRE=%genre%" -T "COMMENT=%comment%" -T "BAND=%albuminterpret%" -T "ALBUMARTIST=%albuminterpret%" -T "COMPOSER=%composer%" %haslyrics%–tag-from-file=LYRICS="%lyricsfile%"%haslyrics% -T "DISCNUMBER=%cdnumber%" -T "TOTALDISCS=%totalcds%" -T "TOTALTRACKS=%numtracks%" %hascover%–picture="%coverfile%"%hascover% %source% -o %dest%


TOC of the extracted CD

Track | Start | Length | Start sector | End sector
––––––––––––––––––––––––––––-
1 | 0:00.00 | 3:55.17 | 0 | 17641
2 | 3:55.17 | 3:04.21 | 17642 | 31462
3 | 6:59.38 | 4:21.66 | 31463 | 51103
4 | 11:21.29 | 3:54.03 | 51104 | 68656
5 | 15:15.32 | 3:00.04 | 68657 | 82160
6 | 18:15.36 | 5:12.58 | 82161 | 105618
7 | 23:28.19 | 3:30.28 | 105619 | 121396
8 | 26:58.47 | 3:30.54 | 121397 | 137200
9 | 30:29.26 | 3:30.42 | 137201 | 152992
10 | 33:59.68 | 2:50.33 | 152993 | 165775
11 | 36:50.26 | 3:16.05 | 165776 | 180480
12 | 40:06.31 | 4:14.21 | 180481 | 199551
13 | 44:20.52 | 2:49.35 | 199552 | 212261
14 | 47:10.12 | 4:34.70 | 212262 | 232881
15 | 51:45.07 | 4:27.04 | 232882 | 252910
16 | 56:12.11 | 3:44.67 | 252911 | 269777
17 | 59:57.03 | 3:44.46 | 269778 | 286623
18 | 63:41.49 | 3:13.36 | 286624 | 301134
19 | 66:55.10 | 3:19.00 | 301135 | 316059
20 | 70:14.10 | 3:58.20 | 316060 | 333929


Track 1

Filename A:\PsPBuRnOuT's MUSIC\100 HITS\- 100 HITS - THE BEST -\100 HITS - THE BEST - DISCO ALBUM\100 HITS - THE BEST - DISCO ALBUM - CD3\01.LaBelle - Lady Marmalade.wav

Peak level 77.6 %
Extraction speed 15.1 X
Track quality 100.0 %
Copy CRC 119257A9
Track not present in AccurateRip database
Copy OK

Track 2

Filename A:\PsPBuRnOuT's MUSIC\100 HITS\- 100 HITS - THE BEST -\100 HITS - THE BEST - DISCO ALBUM\100 HITS - THE BEST - DISCO ALBUM - CD3\02.Wild Cherry - Play That Funky Music.wav

Peak level 88.8 %
Extraction speed 21.3 X
Track quality 100.0 %
Copy CRC F5898B47
Track not present in AccurateRip database
Copy OK

Track 3

Filename A:\PsPBuRnOuT's MUSIC\100 HITS\- 100 HITS - THE BEST -\100 HITS - THE BEST - DISCO ALBUM\100 HITS - THE BEST - DISCO ALBUM - CD3\03.Karen Young - Hot Shot.wav

Peak level 94.4 %
Extraction speed 21.7 X
Track quality 100.0 %
Copy CRC D312232F
Track not present in AccurateRip database
Copy OK

Track 4

Filename A:\PsPBuRnOuT's MUSIC\100 HITS\- 100 HITS - THE BEST -\100 HITS - THE BEST - DISCO ALBUM\100 HITS - THE BEST - DISCO ALBUM - CD3\04.G.Q. - Disco Nights (Rock Freak).wav

Peak level 94.4 %
Extraction speed 24.4 X
Track quality 100.0 %
Copy CRC FD8C9C71
Track not present in AccurateRip database
Copy OK

Track 5

Filename A:\PsPBuRnOuT's MUSIC\100 HITS\- 100 HITS - THE BEST -\100 HITS - THE BEST - DISCO ALBUM\100 HITS - THE BEST - DISCO ALBUM - CD3\05.Sly & The Family Stone - Dance To The Music.wav

Peak level 94.4 %
Extraction speed 20.5 X
Track quality 99.8 %
Copy CRC 42594ECA
Track not present in AccurateRip database
Copy OK

Track 6

Filename A:\PsPBuRnOuT's MUSIC\100 HITS\- 100 HITS - THE BEST -\100 HITS - THE BEST - DISCO ALBUM\100 HITS - THE BEST - DISCO ALBUM - CD3\06.Aretha Franklin - What A Fool Believes.wav

Peak level 100.0 %
Extraction speed 21.7 X
Track quality 100.0 %
Copy CRC 7672E2A0
Track not present in AccurateRip database
Copy OK

Track 7

Filename A:\PsPBuRnOuT's MUSIC\100 HITS\- 100 HITS - THE BEST -\100 HITS - THE BEST - DISCO ALBUM\100 HITS - THE BEST - DISCO ALBUM - CD3\07.Gary's Gang - Keep On Dancin'.wav

Peak level 94.4 %
Extraction speed 28.7 X
Track quality 100.0 %
Copy CRC B0BC5C83
Track not present in AccurateRip database
Copy OK

Track 8

Filename A:\PsPBuRnOuT's MUSIC\100 HITS\- 100 HITS - THE BEST -\100 HITS - THE BEST - DISCO ALBUM\100 HITS - THE BEST - DISCO ALBUM - CD3\08.Gene Chandler - Get Down.wav

Peak level 100.0 %
Extraction speed 29.6 X
Track quality 100.0 %
Copy CRC 3F963AAF
Track not present in AccurateRip database
Copy OK

Track 9

Filename A:\PsPBuRnOuT's MUSIC\100 HITS\- 100 HITS - THE BEST -\100 HITS - THE BEST - DISCO ALBUM\100 HITS - THE BEST - DISCO ALBUM - CD3\09.Billy Ocean - Red Light Spells Danger.wav

Peak level 79.4 %
Extraction speed 29.2 X
Track quality 100.0 %
Copy CRC 4729E4B8
Track not present in AccurateRip database
Copy OK

Track 10

Filename A:\PsPBuRnOuT's MUSIC\100 HITS\- 100 HITS - THE BEST -\100 HITS - THE BEST - DISCO ALBUM\100 HITS - THE BEST - DISCO ALBUM - CD3\10.New York City - I'm Doin' Fine Now.wav

Peak level 91.2 %
Extraction speed 29.8 X
Track quality 100.0 %
Copy CRC 2C8F53AC
Track not present in AccurateRip database
Copy OK

Track 11

Filename A:\PsPBuRnOuT's MUSIC\100 HITS\- 100 HITS - THE BEST -\100 HITS - THE BEST - DISCO ALBUM\100 HITS - THE BEST - DISCO ALBUM - CD3\11.The Drifters - You're More Than A Number In My Little Red Book.wav

Peak level 94.4 %
Extraction speed 23.8 X
Track quality 100.0 %
Copy CRC 421435C2
Track not present in AccurateRip database
Copy OK

Track 12

Filename A:\PsPBuRnOuT's MUSIC\100 HITS\- 100 HITS - THE BEST -\100 HITS - THE BEST - DISCO ALBUM\100 HITS - THE BEST - DISCO ALBUM - CD3\12.Heatwave - The Groove Line.wav

Peak level 94.4 %
Extraction speed 21.9 X
Track quality 99.9 %
Copy CRC A80CB121
Track not present in AccurateRip database
Copy OK

Track 13

Filename A:\PsPBuRnOuT's MUSIC\100 HITS\- 100 HITS - THE BEST -\100 HITS - THE BEST - DISCO ALBUM\100 HITS - THE BEST - DISCO ALBUM - CD3\13.The Tymes - You Little Trustmaker.wav

Peak level 94.4 %
Extraction speed 24.1 X
Track quality 100.0 %
Copy CRC 4DE8EB8E
Track not present in AccurateRip database
Copy OK

Track 14

Filename A:\PsPBuRnOuT's MUSIC\100 HITS\- 100 HITS - THE BEST -\100 HITS - THE BEST - DISCO ALBUM\100 HITS - THE BEST - DISCO ALBUM - CD3\14.Raydio - Jack And Jill.wav

Peak level 89.4 %
Extraction speed 33.0 X
Track quality 100.0 %
Copy CRC EC8DCD18
Track not present in AccurateRip database
Copy OK

Track 15

Filename A:\PsPBuRnOuT's MUSIC\100 HITS\- 100 HITS - THE BEST -\100 HITS - THE BEST - DISCO ALBUM\100 HITS - THE BEST - DISCO ALBUM - CD3\15.Lou Rawls - You'll Never Find Another Love Like Mine.wav

Peak level 94.4 %
Extraction speed 29.3 X
Track quality 99.9 %
Copy CRC C3721547
Track not present in AccurateRip database
Copy OK

Track 16

Filename A:\PsPBuRnOuT's MUSIC\100 HITS\- 100 HITS - THE BEST -\100 HITS - THE BEST - DISCO ALBUM\100 HITS - THE BEST - DISCO ALBUM - CD3\16.MFSB - TSOP (The Sound Of Philadelphia.wav

Peak level 94.4 %
Extraction speed 25.5 X
Track quality 100.0 %
Copy CRC AD407002
Track not present in AccurateRip database
Copy OK

Track 17

Filename A:\PsPBuRnOuT's MUSIC\100 HITS\- 100 HITS - THE BEST -\100 HITS - THE BEST - DISCO ALBUM\100 HITS - THE BEST - DISCO ALBUM - CD3\17.Biddu Orchestra - Summer Of '42.wav

Peak level 85.1 %
Extraction speed 36.4 X
Track quality 100.0 %
Copy CRC 272A0220
Track not present in AccurateRip database
Copy OK

Track 18

Filename A:\PsPBuRnOuT's MUSIC\100 HITS\- 100 HITS - THE BEST -\100 HITS - THE BEST - DISCO ALBUM\100 HITS - THE BEST - DISCO ALBUM - CD3\18.Rodney Franklin - The Groove.wav

Peak level 82.2 %
Extraction speed 39.4 X
Track quality 100.0 %
Copy CRC 853ED64E
Track not present in AccurateRip database
Copy OK

Track 19

Filename A:\PsPBuRnOuT's MUSIC\100 HITS\- 100 HITS - THE BEST -\100 HITS - THE BEST - DISCO ALBUM\100 HITS - THE BEST - DISCO ALBUM - CD3\19.Tom Browne - Funkin' For Jamaica.wav

Peak level 94.4 %
Extraction speed 38.2 X
Track quality 100.0 %
Copy CRC FF02145B
Track not present in AccurateRip database
Copy OK

Track 20

Filename A:\PsPBuRnOuT's MUSIC\100 HITS\- 100 HITS - THE BEST -\100 HITS - THE BEST - DISCO ALBUM\100 HITS - THE BEST - DISCO ALBUM - CD3\20.Average White Band - Pick Up The Pieces.wav

Peak level 89.1 %
Extraction speed 39.5 X
Track quality 100.0 %
Copy CRC D209FBB1
Track not present in AccurateRip database
Copy OK


None of the tracks are present in the AccurateRip database

No errors occurred

End of status report

–– CUETools DB Plugin V2.1.6

[CTDB TOCID: DpSjietxvi2cYF09vMUCLkKAARE-] found
Submit result: DpSjietxvi2cYF09vMUCLkKAARE- has been confirmed
Track | CTDB Status
1 | (2/2) Accurately ripped
2 | (2/2) Accurately ripped
3 | (2/2) Accurately ripped
4 | (2/2) Accurately ripped
5 | (2/2) Accurately ripped
6 | (2/2) Accurately ripped
7 | (2/2) Accurately ripped
8 | (2/2) Accurately ripped
9 | (2/2) Accurately ripped
10 | (2/2) Accurately ripped
11 | (2/2) Accurately ripped
12 | (2/2) Accurately ripped
13 | (2/2) Accurately ripped
14 | (2/2) Accurately ripped
15 | (2/2) Accurately ripped
16 | (2/2) Accurately ripped
17 | (2/2) Accurately ripped
18 | (2/2) Accurately ripped
19 | (2/2) Accurately ripped
20 | (2/2) Accurately ripped

Exact Audio Copy V1.3 from 2. September 2016

EAC extraction logfile from 29. November 2018, 17:52

Various / 100 Hits - The Best - Disco Album - CD4

Used drive : ATAPI iHAS124 Y Adapter: 1 ID: 0

Read mode : Secure
Utilize accurate stream : Yes
Defeat audio cache : No
Make use of C2 pointers : Yes

Read offset correction : 48
Overread into Lead-In and Lead-Out : No
Fill up missing offset samples with silence : Yes
Delete leading and trailing silent blocks : No
Null samples used in CRC calculations : Yes
Used interface : Native Win32 interface for Win NT & 2000
Gap handling : Not detected, thus appended to previous track

Used output format : User Defined Encoder
Selected bitrate : 896 kBit/s
Quality : High
Add ID3 tag : No
Command line compressor : C:\Program Files (x86)\Exact Audio Copy\FLAC\FLAC.EXE
Additional command line options : -6 -V -T "ARTIST=%artist%" -T "TITLE=%title%" -T "ALBUM=%albumtitle%" -T "DATE=%year%" -T "TRACKNUMBER=%tracknr%" -T "GENRE=%genre%" -T "COMMENT=%comment%" -T "BAND=%albuminterpret%" -T "ALBUMARTIST=%albuminterpret%" -T "COMPOSER=%composer%" %haslyrics%–tag-from-file=LYRICS="%lyricsfile%"%haslyrics% -T "DISCNUMBER=%cdnumber%" -T "TOTALDISCS=%totalcds%" -T "TOTALTRACKS=%numtracks%" %hascover%–picture="%coverfile%"%hascover% %source% -o %dest%


TOC of the extracted CD

Track | Start | Length | Start sector | End sector
––––––––––––––––––––––––––––-
1 | 0:00.00 | 3:43.69 | 0 | 16793
2 | 3:43.69 | 4:10.40 | 16794 | 35583
3 | 7:54.34 | 3:42.65 | 35584 | 52298
4 | 11:37.24 | 4:17.16 | 52299 | 71589
5 | 15:54.40 | 3:37.67 | 71590 | 87931
6 | 19:32.32 | 3:25.58 | 87932 | 103364
7 | 22:58.15 | 4:47.69 | 103365 | 124958
8 | 27:46.09 | 3:39.73 | 124959 | 141456
9 | 31:26.07 | 3:44.02 | 141457 | 158258
10 | 35:10.09 | 3:43.68 | 158259 | 175051
11 | 38:54.02 | 4:12.17 | 175052 | 193968
12 | 43:06.19 | 2:42.43 | 193969 | 206161
13 | 45:48.62 | 3:50.31 | 206162 | 223442
14 | 49:39.18 | 3:07.50 | 223443 | 237517
15 | 52:46.68 | 3:11.28 | 237518 | 251870
16 | 55:58.21 | 5:42.74 | 251871 | 277594
17 | 61:41.20 | 4:25.50 | 277595 | 297519
18 | 66:06.70 | 5:04.13 | 297520 | 320332
19 | 71:11.08 | 3:08.42 | 320333 | 334474
20 | 74:19.50 | 2:52.03 | 334475 | 347377


Track 1

Filename A:\PsPBuRnOuT's MUSIC\100 HITS\- 100 HITS - THE BEST -\100 HITS - THE BEST - DISCO ALBUM\100 HITS - THE BEST - DISCO ALBUM - CD4\01.Dan Hartman - Relight My Fire.wav

Peak level 88.9 %
Extraction speed 9.2 X
Track quality 100.0 %
Copy CRC 7432F0A5
Track not present in AccurateRip database
Copy OK

Track 2

Filename A:\PsPBuRnOuT's MUSIC\100 HITS\- 100 HITS - THE BEST -\100 HITS - THE BEST - DISCO ALBUM\100 HITS - THE BEST - DISCO ALBUM - CD4\02.KC & The Sunshine Band - Give It Up.wav

Peak level 90.1 %
Extraction speed 10.9 X
Track quality 100.0 %
Copy CRC 227F144D
Track not present in AccurateRip database
Copy OK

Track 3

Filename A:\PsPBuRnOuT's MUSIC\100 HITS\- 100 HITS - THE BEST -\100 HITS - THE BEST - DISCO ALBUM\100 HITS - THE BEST - DISCO ALBUM - CD4\03.Donna Summer - Love Is In Control (Finger On The Trigger).wav

Peak level 87.0 %
Extraction speed 11.8 X
Track quality 100.0 %
Copy CRC 43CD6C29
Track not present in AccurateRip database
Copy OK

Track 4

Filename A:\PsPBuRnOuT's MUSIC\100 HITS\- 100 HITS - THE BEST -\100 HITS - THE BEST - DISCO ALBUM\100 HITS - THE BEST - DISCO ALBUM - CD4\04.Deniece Williams - Let's Hear It For The Boy.wav

Peak level 89.1 %
Extraction speed 12.2 X
Track quality 100.0 %
Copy CRC 768870EA
Track not present in AccurateRip database
Copy OK

Track 5

Filename A:\PsPBuRnOuT's MUSIC\100 HITS\- 100 HITS - THE BEST -\100 HITS - THE BEST - DISCO ALBUM\100 HITS - THE BEST - DISCO ALBUM - CD4\05.Evelyn 'Champagne' King - Love Come Down.wav

Peak level 85.1 %
Extraction speed 12.8 X
Track quality 100.0 %
Copy CRC A9366408
Track not present in AccurateRip database
Copy OK

Track 6

Filename A:\PsPBuRnOuT's MUSIC\100 HITS\- 100 HITS - THE BEST -\100 HITS - THE BEST - DISCO ALBUM\100 HITS - THE BEST - DISCO ALBUM - CD4\06.Odyssey - Going Back To My Roots.wav

Peak level 94.3 %
Extraction speed 13.5 X
Track quality 100.0 %
Copy CRC B5037D0B
Track not present in AccurateRip database
Copy OK

Track 7

Filename A:\PsPBuRnOuT's MUSIC\100 HITS\- 100 HITS - THE BEST -\100 HITS - THE BEST - DISCO ALBUM\100 HITS - THE BEST - DISCO ALBUM - CD4\07.The Pointer Sisters - Automatic.wav

Peak level 94.3 %
Extraction speed 14.2 X
Track quality 100.0 %
Copy CRC 1988DE53
Track not present in AccurateRip database
Copy OK

Track 8

Filename A:\PsPBuRnOuT's MUSIC\100 HITS\- 100 HITS - THE BEST -\100 HITS - THE BEST - DISCO ALBUM\100 HITS - THE BEST - DISCO ALBUM - CD4\08.Herbie Hancock - Rockit.wav

Peak level 94.3 %
Extraction speed 15.5 X
Track quality 100.0 %
Copy CRC 55E8E1CC
Track not present in AccurateRip database
Copy OK

Track 9

Filename A:\PsPBuRnOuT's MUSIC\100 HITS\- 100 HITS - THE BEST -\100 HITS - THE BEST - DISCO ALBUM\100 HITS - THE BEST - DISCO ALBUM - CD4\09.Jean Carn - Was That All It Was.wav

Peak level 94.3 %
Extraction speed 15.4 X
Track quality 99.9 %
Copy CRC E24D23E3
Track not present in AccurateRip database
Copy OK

Track 10

Filename A:\PsPBuRnOuT's MUSIC\100 HITS\- 100 HITS - THE BEST -\100 HITS - THE BEST - DISCO ALBUM\100 HITS - THE BEST - DISCO ALBUM - CD4\10.The Jones Girls - Night Over Egypt.wav

Peak level 91.1 %
Extraction speed 15.9 X
Track quality 100.0 %
Copy CRC E1E376DC
Track not present in AccurateRip database
Copy OK

Track 11

Filename A:\PsPBuRnOuT's MUSIC\100 HITS\- 100 HITS - THE BEST -\100 HITS - THE BEST - DISCO ALBUM\100 HITS - THE BEST - DISCO ALBUM - CD4\11.Bill Withers - Lovely Day.wav

Peak level 94.3 %
Extraction speed 16.5 X
Track quality 100.0 %
Copy CRC F8A6625F
Track not present in AccurateRip database
Copy OK

Track 12

Filename A:\PsPBuRnOuT's MUSIC\100 HITS\- 100 HITS - THE BEST -\100 HITS - THE BEST - DISCO ALBUM\100 HITS - THE BEST - DISCO ALBUM - CD4\12.Dee Clark - Ride A Wild Horse.wav

Peak level 89.7 %
Extraction speed 18.0 X
Track quality 100.0 %
Copy CRC 074FC600
Track not present in AccurateRip database
Copy OK

Track 13

Filename A:\PsPBuRnOuT's MUSIC\100 HITS\- 100 HITS - THE BEST -\100 HITS - THE BEST - DISCO ALBUM\100 HITS - THE BEST - DISCO ALBUM - CD4\13.Linda Carr - High Wire.wav

Peak level 94.3 %
Extraction speed 18.2 X
Track quality 100.0 %
Copy CRC 8AC8AB94
Track not present in AccurateRip database
Copy OK

Track 14

Filename A:\PsPBuRnOuT's MUSIC\100 HITS\- 100 HITS - THE BEST -\100 HITS - THE BEST - DISCO ALBUM\100 HITS - THE BEST - DISCO ALBUM - CD4\14.Tina Charles - Dance Little Lady Dance.wav

Peak level 94.3 %
Extraction speed 17.6 X
Track quality 99.8 %
Copy CRC 8A6FE160
Track not present in AccurateRip database
Copy OK

Track 15

Filename A:\PsPBuRnOuT's MUSIC\100 HITS\- 100 HITS - THE BEST -\100 HITS - THE BEST - DISCO ALBUM\100 HITS - THE BEST - DISCO ALBUM - CD4\15.Esther Phillips - What A Diff'rence A Day Makes.wav

Peak level 94.3 %
Extraction speed 18.4 X
Track quality 100.0 %
Copy CRC 03679A2C
Track not present in AccurateRip database
Copy OK

Track 16

Filename A:\PsPBuRnOuT's MUSIC\100 HITS\- 100 HITS - THE BEST -\100 HITS - THE BEST - DISCO ALBUM\100 HITS - THE BEST - DISCO ALBUM - CD4\16.Cheryl Lynn - Shake It Up Tonight.wav

Peak level 94.3 %
Extraction speed 19.3 X
Track quality 100.0 %
Copy CRC 16DD6204
Track not present in AccurateRip database
Copy OK

Track 17

Filename A:\PsPBuRnOuT's MUSIC\100 HITS\- 100 HITS - THE BEST -\100 HITS - THE BEST - DISCO ALBUM\100 HITS - THE BEST - DISCO ALBUM - CD4\17.Johnnie Taylor - Disco Lady.wav

Peak level 94.3 %
Extraction speed 16.5 X
Track quality 99.8 %
Copy CRC E40A2B7A
Track not present in AccurateRip database
Copy OK

Track 18

Filename A:\PsPBuRnOuT's MUSIC\100 HITS\- 100 HITS - THE BEST -\100 HITS - THE BEST - DISCO ALBUM\100 HITS - THE BEST - DISCO ALBUM - CD4\18.Disco Tex & His Sex-O-Lettes - I Wanna Dance Wit' Choo (Doo Dat Dance).wav

Peak level 90.1 %
Extraction speed 13.6 X
Track quality 99.7 %
Copy CRC 0002BC31
Track not present in AccurateRip database
Copy OK

Track 19

Filename A:\PsPBuRnOuT's MUSIC\100 HITS\- 100 HITS - THE BEST -\100 HITS - THE BEST - DISCO ALBUM\100 HITS - THE BEST - DISCO ALBUM - CD4\19.Archie Bell & The Drells - The Soul City Walk.wav

Peak level 88.0 %
Extraction speed 20.4 X
Track quality 100.0 %
Copy CRC C861CFBB
Track not present in AccurateRip database
Copy OK

Track 20

Filename A:\PsPBuRnOuT's MUSIC\100 HITS\- 100 HITS - THE BEST -\100 HITS - THE BEST - DISCO ALBUM\100 HITS - THE BEST - DISCO ALBUM - CD4\20.Jim Gilstrap - Swing Your Daddy.wav

Peak level 87.1 %
Extraction speed 20.2 X
Track quality 100.0 %
Copy CRC 17FE46A9
Track not present in AccurateRip database
Copy OK


None of the tracks are present in the AccurateRip database

No errors occurred

End of status report

–– CUETools DB Plugin V2.1.6

[CTDB TOCID: UXQoVib9.QmIXlrdDilB9ONPFMs-] found
Submit result: UXQoVib9.QmIXlrdDilB9ONPFMs- has been confirmed
Track | CTDB Status
1 | (2/2) Accurately ripped
2 | (2/2) Accurately ripped
3 | (2/2) Accurately ripped
4 | (2/2) Accurately ripped
5 | (2/2) Accurately ripped
6 | (2/2) Accurately ripped
7 | (2/2) Accurately ripped
8 | (2/2) Accurately ripped
9 | (2/2) Accurately ripped
10 | (2/2) Accurately ripped
11 | (2/2) Accurately ripped
12 | (2/2) Accurately ripped
13 | (2/2) Accurately ripped
14 | (2/2) Accurately ripped
15 | (2/2) Accurately ripped
16 | (2/2) Accurately ripped
17 | (2/2) Accurately ripped
18 | (2/2) Accurately ripped
19 | (2/2) Accurately ripped
20 | (2/2) Accurately ripped

Exact Audio Copy V1.3 from 2. September 2016

EAC extraction logfile from 29. November 2018, 18:32

Various / 100 Hits - The Best - Disco Album - CD5

Used drive : ATAPI iHAS124 Y Adapter: 1 ID: 0

Read mode : Secure
Utilize accurate stream : Yes
Defeat audio cache : No
Make use of C2 pointers : Yes

Read offset correction : 48
Overread into Lead-In and Lead-Out : No
Fill up missing offset samples with silence : Yes
Delete leading and trailing silent blocks : No
Null samples used in CRC calculations : Yes
Used interface : Native Win32 interface for Win NT & 2000
Gap handling : Not detected, thus appended to previous track

Used output format : User Defined Encoder
Selected bitrate : 896 kBit/s
Quality : High
Add ID3 tag : No
Command line compressor : C:\Program Files (x86)\Exact Audio Copy\FLAC\FLAC.EXE
Additional command line options : -6 -V -T "ARTIST=%artist%" -T "TITLE=%title%" -T "ALBUM=%albumtitle%" -T "DATE=%year%" -T "TRACKNUMBER=%tracknr%" -T "GENRE=%genre%" -T "COMMENT=%comment%" -T "BAND=%albuminterpret%" -T "ALBUMARTIST=%albuminterpret%" -T "COMPOSER=%composer%" %haslyrics%–tag-from-file=LYRICS="%lyricsfile%"%haslyrics% -T "DISCNUMBER=%cdnumber%" -T "TOTALDISCS=%totalcds%" -T "TOTALTRACKS=%numtracks%" %hascover%–picture="%coverfile%"%hascover% %source% -o %dest%


TOC of the extracted CD

Track | Start | Length | Start sector | End sector
––––––––––––––––––––––––––––-
1 | 0:00.00 | 3:39.17 | 0 | 16441
2 | 3:39.17 | 3:35.33 | 16442 | 32599
3 | 7:14.50 | 4:12.09 | 32600 | 51508
4 | 11:26.59 | 3:35.21 | 51509 | 67654
5 | 15:02.05 | 3:30.22 | 67655 | 83426
6 | 18:32.27 | 3:24.00 | 83427 | 98726
7 | 21:56.27 | 3:36.08 | 98727 | 114934
8 | 25:32.35 | 3:58.46 | 114935 | 132830
9 | 29:31.06 | 3:07.44 | 132831 | 146899
10 | 32:38.50 | 4:02.20 | 146900 | 165069
11 | 36:40.70 | 3:37.68 | 165070 | 181412
12 | 40:18.63 | 3:17.73 | 181413 | 196260
13 | 43:36.61 | 4:20.29 | 196261 | 215789
14 | 47:57.15 | 3:37.29 | 215790 | 232093
15 | 51:34.44 | 3:25.05 | 232094 | 247473
16 | 54:59.49 | 2:38.14 | 247474 | 259337
17 | 57:37.63 | 3:35.32 | 259338 | 275494
18 | 61:13.20 | 3:02.58 | 275495 | 289202
19 | 64:16.03 | 3:45.47 | 289203 | 306124
20 | 68:01.50 | 3:52.33 | 306125 | 323557


Track 1

Filename A:\PsPBuRnOuT's MUSIC\100 HITS\- 100 HITS - THE BEST -\100 HITS - THE BEST - DISCO ALBUM\100 HITS - THE BEST - DISCO ALBUM - CD5\01.The Emotions - Best Of My Love.wav

Peak level 94.3 %
Extraction speed 9.1 X
Track quality 99.9 %
Copy CRC 7AF4439E
Track not present in AccurateRip database
Copy OK

Track 2

Filename A:\PsPBuRnOuT's MUSIC\100 HITS\- 100 HITS - THE BEST -\100 HITS - THE BEST - DISCO ALBUM\100 HITS - THE BEST - DISCO ALBUM - CD5\02.Earth, Wind & Fire - September.wav

Peak level 94.3 %
Extraction speed 10.4 X
Track quality 99.9 %
Copy CRC 66DAC3E6
Track not present in AccurateRip database
Copy OK

Track 3

Filename A:\PsPBuRnOuT's MUSIC\100 HITS\- 100 HITS - THE BEST -\100 HITS - THE BEST - DISCO ALBUM\100 HITS - THE BEST - DISCO ALBUM - CD5\03.The Isley Brothers - It's A Disco Night (Rock Don't Stop).wav

Peak level 88.0 %
Extraction speed 11.7 X
Track quality 100.0 %
Copy CRC B8B5B062
Track not present in AccurateRip database
Copy OK

Track 4

Filename A:\PsPBuRnOuT's MUSIC\100 HITS\- 100 HITS - THE BEST -\100 HITS - THE BEST - DISCO ALBUM\100 HITS - THE BEST - DISCO ALBUM - CD5\04.The O'Jays - I Love Music.wav

Peak level 94.3 %
Extraction speed 12.2 X
Track quality 100.0 %
Copy CRC 204D8FB6
Track not present in AccurateRip database
Copy OK

Track 5

Filename A:\PsPBuRnOuT's MUSIC\100 HITS\- 100 HITS - THE BEST -\100 HITS - THE BEST - DISCO ALBUM\100 HITS - THE BEST - DISCO ALBUM - CD5\05.Melba Moore - This Is It.wav

Peak level 91.1 %
Extraction speed 12.7 X
Track quality 100.0 %
Copy CRC BD138CE8
Track not present in AccurateRip database
Copy OK

Track 6

Filename A:\PsPBuRnOuT's MUSIC\100 HITS\- 100 HITS - THE BEST -\100 HITS - THE BEST - DISCO ALBUM\100 HITS - THE BEST - DISCO ALBUM - CD5\06.Gladys Knight & The Pips - Come Back And Finish What You Started.wav

Peak level 94.3 %
Extraction speed 14.0 X
Track quality 100.0 %
Copy CRC 298B973E
Track not present in AccurateRip database
Copy OK

Track 7

Filename A:\PsPBuRnOuT's MUSIC\100 HITS\- 100 HITS - THE BEST -\100 HITS - THE BEST - DISCO ALBUM\100 HITS - THE BEST - DISCO ALBUM - CD5\07.Eruption - One Way Ticket.wav

Peak level 94.3 %
Extraction speed 14.6 X
Track quality 100.0 %
Copy CRC 463D3E9B
Track not present in AccurateRip database
Copy OK

Track 8

Filename A:\PsPBuRnOuT's MUSIC\100 HITS\- 100 HITS - THE BEST -\100 HITS - THE BEST - DISCO ALBUM\100 HITS - THE BEST - DISCO ALBUM - CD5\08.Boney M. - Sunny.wav

Peak level 94.3 %
Extraction speed 14.7 X
Track quality 100.0 %
Copy CRC 8730DEEE
Track not present in AccurateRip database
Copy OK

Track 9

Filename A:\PsPBuRnOuT's MUSIC\100 HITS\- 100 HITS - THE BEST -\100 HITS - THE BEST - DISCO ALBUM\100 HITS - THE BEST - DISCO ALBUM - CD5\09.5000 Volts - Doctor Kiss Kiss.wav

Peak level 94.3 %
Extraction speed 15.2 X
Track quality 100.0 %
Copy CRC 474C17B5
Track not present in AccurateRip database
Copy OK

Track 10

Filename A:\PsPBuRnOuT's MUSIC\100 HITS\- 100 HITS - THE BEST -\100 HITS - THE BEST - DISCO ALBUM\100 HITS - THE BEST - DISCO ALBUM - CD5\10.Sarah Brightman - Adventures Of The Love Crusader.wav

Peak level 89.1 %
Extraction speed 16.4 X
Track quality 100.0 %
Copy CRC 475908A9
Track not present in AccurateRip database
Copy OK

Track 11

Filename A:\PsPBuRnOuT's MUSIC\100 HITS\- 100 HITS - THE BEST -\100 HITS - THE BEST - DISCO ALBUM\100 HITS - THE BEST - DISCO ALBUM - CD5\11.Baccara - Sorry, I'm A Lady.wav

Peak level 94.3 %
Extraction speed 16.3 X
Track quality 100.0 %
Copy CRC F0118667
Track not present in AccurateRip database
Copy OK

Track 12

Filename A:\PsPBuRnOuT's MUSIC\100 HITS\- 100 HITS - THE BEST -\100 HITS - THE BEST - DISCO ALBUM\100 HITS - THE BEST - DISCO ALBUM - CD5\12.Andrea True Connection - What's Your Name, What's Your Number.wav

Peak level 94.3 %
Extraction speed 17.6 X
Track quality 100.0 %
Copy CRC A3CA45BF
Track not present in AccurateRip database
Copy OK

Track 13

Filename A:\PsPBuRnOuT's MUSIC\100 HITS\- 100 HITS - THE BEST -\100 HITS - THE BEST - DISCO ALBUM\100 HITS - THE BEST - DISCO ALBUM - CD5\13.The Three Degrees - The Runner.wav

Peak level 91.1 %
Extraction speed 18.0 X
Track quality 100.0 %
Copy CRC A5F319D8
Track not present in AccurateRip database
Copy OK

Track 14

Filename A:\PsPBuRnOuT's MUSIC\100 HITS\- 100 HITS - THE BEST -\100 HITS - THE BEST - DISCO ALBUM\100 HITS - THE BEST - DISCO ALBUM - CD5\14.The Dooleys - Wanted.wav

Peak level 94.3 %
Extraction speed 18.7 X
Track quality 100.0 %
Copy CRC 81FE5F3B
Track not present in AccurateRip database
Copy OK

Track 15

Filename A:\PsPBuRnOuT's MUSIC\100 HITS\- 100 HITS - THE BEST -\100 HITS - THE BEST - DISCO ALBUM\100 HITS - THE BEST - DISCO ALBUM - CD5\15.Clout - Substitute.wav

Peak level 94.3 %
Extraction speed 18.4 X
Track quality 100.0 %
Copy CRC 48FCD143
Track not present in AccurateRip database
Copy OK

Track 16

Filename A:\PsPBuRnOuT's MUSIC\100 HITS\- 100 HITS - THE BEST -\100 HITS - THE BEST - DISCO ALBUM\100 HITS - THE BEST - DISCO ALBUM - CD5\16.First Choice - Smarty Pants.wav

Peak level 85.1 %
Extraction speed 19.5 X
Track quality 100.0 %
Copy CRC 085B80C2
Track not present in AccurateRip database
Copy OK

Track 17

Filename A:\PsPBuRnOuT's MUSIC\100 HITS\- 100 HITS - THE BEST -\100 HITS - THE BEST - DISCO ALBUM\100 HITS - THE BEST - DISCO ALBUM - CD5\17.Leo Sayer - Thunder In My Heart.wav

Peak level 86.8 %
Extraction speed 18.7 X
Track quality 99.9 %
Copy CRC 1FF66BA9
Track not present in AccurateRip database
Copy OK

Track 18

Filename A:\PsPBuRnOuT's MUSIC\100 HITS\- 100 HITS - THE BEST -\100 HITS - THE BEST - DISCO ALBUM\100 HITS - THE BEST - DISCO ALBUM - CD5\18.The Drifters - There Goes My First Love.wav

Peak level 94.3 %
Extraction speed 18.1 X
Track quality 99.8 %
Copy CRC 3E9FEADE
Track not present in AccurateRip database
Copy OK

Track 19

Filename A:\PsPBuRnOuT's MUSIC\100 HITS\- 100 HITS - THE BEST -\100 HITS - THE BEST - DISCO ALBUM\100 HITS - THE BEST - DISCO ALBUM - CD5\19.The Trammps - Hold Back The Night.wav

Peak level 84.1 %
Extraction speed 19.0 X
Track quality 99.9 %
Copy CRC 96982CF3
Track not present in AccurateRip database
Copy OK

Track 20

Filename A:\PsPBuRnOuT's MUSIC\100 HITS\- 100 HITS - THE BEST -\100 HITS - THE BEST - DISCO ALBUM\100 HITS - THE BEST - DISCO ALBUM - CD5\20.Harold Melvin & The Blue Notes - Don't Leave Me This Way.wav

Peak level 94.3 %
Extraction speed 21.3 X
Track quality 100.0 %
Copy CRC F6E62E9A
Track not present in AccurateRip database
Copy OK


None of the tracks are present in the AccurateRip database

No errors occurred

End of status report

–– CUETools DB Plugin V2.1.6

[CTDB TOCID: Fq2r3x0ro.MzW3_f636fz1OoxJM-] found
Submit result: Fq2r3x0ro.MzW3_f636fz1OoxJM- has been confirmed
Track | CTDB Status
1 | (2/2) Accurately ripped
2 | (2/2) Accurately ripped
3 | (2/2) Accurately ripped
4 | (2/2) Accurately ripped
5 | (2/2) Accurately ripped
6 | (2/2) Accurately ripped
7 | (2/2) Accurately ripped
8 | (2/2) Accurately ripped
9 | (2/2) Accurately ripped
10 | (2/2) Accurately ripped
11 | (2/2) Accurately ripped
12 | (2/2) Accurately ripped
13 | (2/2) Accurately ripped
14 | (2/2) Accurately ripped
15 | (2/2) Accurately ripped
16 | (2/2) Accurately ripped
17 | (2/2) Accurately ripped
18 | (2/2) Accurately ripped
19 | (2/2) Accurately ripped
20 | (2/2) Accurately ripped