Subcategories

VA - Groovy Jazz Organ: Cool & Timeless Organ Classics (2014) 3CD Box Set

Posted By: Designol
VA - Groovy Jazz Organ: Cool & Timeless Organ Classics (2014) 3CD Box Set

VA - Groovy Jazz Organ: Cool & Timeless Organ Classics (2014) 3CD Box Set
EAC | FLAC | Image (Cue&Log) ~ 1.05 Gb (incl 5%) | Scans ~ 87 Mb | Time: 02:48:41
Hammond Organ, Jazz, Rhythm & Blues, Funk, Soul | Label: Not Now Music | # NOT3CD180

The organ can often take a back seat in the pecking order of great Jazz instruments but underappreciate it at your peril. The likes of Jimmy Smith, Jack McDuff, Booker T and Ray Charles, to name but a few, made the instrument their own while crafting jazz cuts of dazzling brilliance.

This 36 track set is dedicated to the jazz sound of the organ and what an eclectic set it is. The Hammond organ in particular has been associated with jazz since the 1930s. The recordings cover the period 1952 to 1962.

Many of the best remembered musicians of the jazz organ are included…

Bill Doggett (1916–1996) was a jazz and rhythm and blues pianist and organist. He is best known for his compositions "Honky Tonk" and "Hippy Dippy", and variously working with the Ink Spots, Johnny Otis, Wynonie Harris, Ella Fitzgerald, and Louis Jordan.

Ed Lincoln (1932–2012) was a Brazilian musician, composer and arranger known for a wide variety of styles. As a bassist, he was present at the earliest moments of bossa nova and as a Hammond organ player, he was foundational in establishing the sound of Brazilian jazz and space age pop.

James Oscar "Jimmy" Smith (1925–2005) was a jazz musician who achieved the rare distinction of releasing a series of instrumental jazz albums that often charted on Billboard. Smith helped popularize the Hammond B-3 electric organ, creating an indelible link between sixties soul and jazz improvisation.

Shirley Scott (1934–2002) was a hard bop and soul-jazz organist. She was best known for working with her husband, Stanley Turrentine, and with Eddie "Lockjaw" Davis, both saxophonists. She was known as "Queen of the Organ".

The sound transfers are excellent throughout. The art work includes 9 small images of artistes featured along with a larger on eon the front cover. The liner notes are by Colin Salter.

Review by C. Fuller, Amazon.co.uk

VA - Groovy Jazz Organ: Cool & Timeless Organ Classics (2014) 3CD Box Set


Tracklist:

CD1:

01. Jimmy McGriff - All About My Girl (03:57)
02. Baby Face Willette - Face ot Face (06:51)
03. Milt Bucknor - The Beast (02:29)
04. Freddie Roach - De Bug (06:41)
05. Larry Young - Minor Dream (05:03)
06. Mel Rhyne - Shoo Shoo Baby (08:43)
07. Fred Jackson ft Earl van Dyke - Southern Exposure (06:55)
08. Lou Donaldson ft Big John Patton - Spaceman Twist (05:37)
09. Phil Upchurch Combo - You Can't Sit Down (04:15)
10. Johnny 'Hammond' Smith - Neckbones (06:12)
11. Bill Doggett - King Bee (02:41)
12. Booker T and the MG's - Green Onions (02:53)

CD2:

01. Jimmy Smith - Walk On The Wild Side (05:57)
02. Brother Jack McDuff - Whap! (04:24)
03. Freddie Jackson - Hootin' 'n Tootin' (04:31)
04. Richard 'Groove' Holmes - This Here (04:08)
05. Jimmy McGriff - I've Got A Woman (Part 1) (02:34)
06. Ed Lincoln - Carioca (02:15)
07. Jackie Davis - What's The Trouble? (05:19)
08. Shirley Scott - Hip Twist (05:18)
09. 'Wild' Bill Davis - Lullaby Of Birdland (03:18)
10. Phil Upchurch Combo - Organ Boogie (01:46)
11. Jimmy Smith - The Champ (08:30)
12. Esquivel - The 3rd Man Theme (02:26)

CD3:

01. Jack McDuff - The HoneyDripper (08:14)
02. Shirley Scott - It Could Happen To You (04:33)
03. Lou Bennett et son Orchestre - Hit The Road Jack (01:34)
04. Richard 'Groove' Holmes - Sweatin' (04:36)
05. Dave 'Baby' Cortez - Summertime (02:58)
06. Johnny 'Hammond' Smith - Rip Tide (04:48)
07. Milt Buckner - D.T.'s (03:31)
08. Lou Donaldson - Nice 'N' Greasy (05:26)
09. Larry Young - Talkin' About J.C. (05:57)
10. Freddie Roach - Ahm Miz (05:49)
11. Bill Doggett - Deed I Do (02:53)
12. Baby Face Willette - Jumpin' Jupiter (05:17)


Exact Audio Copy V1.1 from 23. June 2015

Отчёт EAC об извлечении, выполненном 30. ноября 2016, 19:46

Various Artists / Groovy Jazz Organ CD 1

Дисковод: ASUS DRW-24B3ST Adapter: 0 ID: 0

Режим чтения : Достоверность
Использование точного потока : Да
Отключение кэша аудио : Да
Использование указателей C2 : Нет

Коррекция смещения при чтении : 6
Способность читать области Lead-in и Lead-out : Нет
Заполнение пропущенных сэмплов тишиной : Да
Удаление блоков с тишиной в начале и конце : Нет
При вычислениях CRC использовались нулевые сэмплы : Да
Интерфейс : Установленный внешний ASPI-интерфейс

Выходной формат : Пользовательский кодировщик
Выбранный битрейт : 1024 kBit/s
Качество : Высокий
Добавление ID3-тега : Нет
Утилита сжатия : C:\Program Files (x86)\Exact Audio Copy\FLAC\FLAC.EXE
Дополнительные параметры : -6 -V -T "ARTIST=%artist%" -T "TITLE=%title%" -T "ALBUM=%albumtitle%" -T "DATE=%year%" -T "TRACKNUMBER=%tracknr%" -T "GENRE=%genre%" -T "COMMENT=%comment%" -T "BAND=%albuminterpret%" -T "ALBUMARTIST=%albuminterpret%" -T "COMPOSER=%composer%" %haslyrics%–tag-from-file=LYRICS="%lyricsfile%"%haslyrics% -T "DISCNUMBER=%cdnumber%" -T "TOTALDISCS=%totalcds%" -T "TOTALTRACKS=%numtracks%" %hascover%–picture="%coverfile%"%hascover% %source% -o %dest%


TOC извлечённого CD

Трек | Старт | Длительность | Начальный сектор | Конечный сектор
––––––––––––––––––––––––––––––––––-
1 | 0:00.00 | 3:57.17 | 0 | 17791
2 | 3:57.17 | 6:51.60 | 17792 | 48676
3 | 10:49.02 | 2:29.16 | 48677 | 59867
4 | 13:18.18 | 6:41.37 | 59868 | 89979
5 | 19:59.55 | 5:03.72 | 89980 | 112776
6 | 25:03.52 | 8:43.48 | 112777 | 152049
7 | 33:47.25 | 6:55.05 | 152050 | 183179
8 | 40:42.30 | 5:37.49 | 183180 | 208503
9 | 46:20.04 | 4:15.28 | 208504 | 227656
10 | 50:35.32 | 6:12.38 | 227657 | 255594
11 | 56:47.70 | 2:41.33 | 255595 | 267702
12 | 59:29.28 | 2:53.71 | 267703 | 280748


Характеристики диапазона извлечения и сообщения об ошибках

Выбранный диапазон

Имя файла C:\Torrents - my\Various Artists - 2014 - Groovy Jazz Organ\CD 1\Various Artists - Groovy Jazz Organ CD 1.wav

Пиковый уровень 98.7 %
Скорость извлечения 9.1 X
Качество диапазона 99.9 %
CRC теста 998423DE
CRC копии 998423DE
Копирование… OK

Ошибок не произошло


AccurateRip: сводка

Трек 1 : извлечено точно (доверие 7) [BBEB0847] (AR v2)
Трек 2 : извлечено точно (доверие 7) [964EE1A6] (AR v2)
Трек 3 : извлечено точно (доверие 7) [ACB05F36] (AR v2)
Трек 4 : извлечено точно (доверие 7) [3768E069] (AR v2)
Трек 5 : извлечено точно (доверие 7) [8CDB637C] (AR v2)
Трек 6 : извлечено точно (доверие 6) [60BBCB6A] (AR v2)
Трек 7 : извлечено точно (доверие 7) [434C1C40] (AR v2)
Трек 8 : извлечено точно (доверие 7) [40AC146A] (AR v2)
Трек 9 : извлечено точно (доверие 7) [E30DA2AA] (AR v2)
Трек 10 : извлечено точно (доверие 7) [933284CF] (AR v2)
Трек 11 : извлечено точно (доверие 7) [1689D0C5] (AR v2)
Трек 12 : извлечено точно (доверие 7) [54A8B25C] (AR v2)

Все треки извлечены точно

Конец отчёта

==== Контрольная сумма отчёта F33260682C4F639B3DA1633E364211EC4481E87CA9190F04A650F5EF75FE0283 ====

foobar2000 1.2 / Dynamic Range Meter 1.1.1
log date: 2016-12-02 16:40:17

––––––––––––––––––––––––––––––––––––––––
Analyzed: Various Artists / Groovy Jazz Organ CD 1
––––––––––––––––––––––––––––––––––––––––

DR Peak RMS Duration Track
––––––––––––––––––––––––––––––––––––––––
DR9 -0.14 dB -10.89 dB 3:57 01-Jimmy McGriff - All About My Girl
DR8 -0.15 dB -10.36 dB 6:52 02-Baby Face Willette - Face ot Face
DR10 -0.11 dB -12.17 dB 2:29 03-Milt Bucknor - The Beast
DR8 -0.15 dB -9.84 dB 6:41 04-Freddie Roach - De Bug
DR7 -0.11 dB -9.98 dB 5:04 05-Larry Young - Minor Dream
DR8 -0.13 dB -11.05 dB 8:44 06-Mel Rhyne - Shoo Shoo Baby
DR9 -0.14 dB -12.16 dB 6:55 07-Fred Jackson ft Earl van Dyke - Southern Exposure
DR9 -0.14 dB -11.43 dB 5:38 08-Lou Donaldson ft Big John Patton - Spaceman Twist
DR8 -0.15 dB -9.91 dB 4:15 09-Phil Upchurch Combo - You Can't Sit Down
DR8 -0.15 dB -10.96 dB 6:13 10-Johnny 'Hammond' Smith - Neckbones
DR10 -0.14 dB -11.00 dB 2:41 11-Bill Doggett - King Bee
DR9 -0.14 dB -10.57 dB 2:54 12-Booker T and the MG's - Green Onions
––––––––––––––––––––––––––––––––––––––––

Number of tracks: 12
Official DR value: DR9

Samplerate: 44100 Hz
Channels: 2
Bits per sample: 16
Bitrate: 851 kbps
Codec: FLAC
================================================================================


Exact Audio Copy V1.1 from 23. June 2015

Отчёт EAC об извлечении, выполненном 30. ноября 2016, 20:04

Various Artists / Groovy Jazz Organ CD 2

Дисковод: ASUS DRW-24B3ST Adapter: 0 ID: 0

Режим чтения : Достоверность
Использование точного потока : Да
Отключение кэша аудио : Да
Использование указателей C2 : Нет

Коррекция смещения при чтении : 6
Способность читать области Lead-in и Lead-out : Нет
Заполнение пропущенных сэмплов тишиной : Да
Удаление блоков с тишиной в начале и конце : Нет
При вычислениях CRC использовались нулевые сэмплы : Да
Интерфейс : Установленный внешний ASPI-интерфейс

Выходной формат : Пользовательский кодировщик
Выбранный битрейт : 1024 kBit/s
Качество : Высокий
Добавление ID3-тега : Нет
Утилита сжатия : C:\Program Files (x86)\Exact Audio Copy\FLAC\FLAC.EXE
Дополнительные параметры : -6 -V -T "ARTIST=%artist%" -T "TITLE=%title%" -T "ALBUM=%albumtitle%" -T "DATE=%year%" -T "TRACKNUMBER=%tracknr%" -T "GENRE=%genre%" -T "COMMENT=%comment%" -T "BAND=%albuminterpret%" -T "ALBUMARTIST=%albuminterpret%" -T "COMPOSER=%composer%" %haslyrics%–tag-from-file=LYRICS="%lyricsfile%"%haslyrics% -T "DISCNUMBER=%cdnumber%" -T "TOTALDISCS=%totalcds%" -T "TOTALTRACKS=%numtracks%" %hascover%–picture="%coverfile%"%hascover% %source% -o %dest%


TOC извлечённого CD

Трек | Старт | Длительность | Начальный сектор | Конечный сектор
––––––––––––––––––––––––––––––––––-
1 | 0:00.00 | 5:57.23 | 0 | 26797
2 | 5:57.23 | 4:24.44 | 26798 | 46641
3 | 10:21.67 | 4:31.65 | 46642 | 67031
4 | 14:53.57 | 4:08.22 | 67032 | 85653
5 | 19:02.04 | 2:34.72 | 85654 | 97275
6 | 21:37.01 | 2:15.62 | 97276 | 107462
7 | 23:52.63 | 5:19.69 | 107463 | 131456
8 | 29:12.57 | 5:18.72 | 131457 | 155378
9 | 34:31.54 | 3:18.54 | 155379 | 170282
10 | 37:50.33 | 1:46.68 | 170283 | 178300
11 | 39:37.26 | 8:30.32 | 178301 | 216582
12 | 48:07.58 | 2:26.18 | 216583 | 227550


Характеристики диапазона извлечения и сообщения об ошибках

Выбранный диапазон

Имя файла C:\Torrents - my\Various Artists - 2014 - Groovy Jazz Organ\CD 2\Various Artists - Groovy Jazz Organ CD 2.wav

Пиковый уровень 98.5 %
Скорость извлечения 8.7 X
Качество диапазона 100.0 %
CRC теста 5E07A3C9
CRC копии 5E07A3C9
Копирование… OK

Ошибок не произошло


AccurateRip: сводка

Трек 1 : извлечено точно (доверие 3) [8AEEE1B4] (AR v2)
Трек 2 : извлечено точно (доверие 3) [8CDA151E] (AR v2)
Трек 3 : извлечено точно (доверие 3) [E3E6F956] (AR v2)
Трек 4 : извлечено точно (доверие 3) [9D7D561F] (AR v2)
Трек 5 : извлечено точно (доверие 3) [7361EE39] (AR v2)
Трек 6 : извлечено точно (доверие 3) [BF5846F7] (AR v2)
Трек 7 : извлечено точно (доверие 3) [618FDFD5] (AR v2)
Трек 8 : извлечено точно (доверие 3) [2D2418C4] (AR v2)
Трек 9 : извлечено точно (доверие 3) [9E131D24] (AR v2)
Трек 10 : извлечено точно (доверие 3) [B6E4F4C6] (AR v2)
Трек 11 : извлечено точно (доверие 3) [B3663BD0] (AR v2)
Трек 12 : извлечено точно (доверие 3) [51E8192F] (AR v2)

Все треки извлечены точно

Конец отчёта

==== Контрольная сумма отчёта 29944387094631CC332FDEA13C38D08F5CBE99F8ED4AA67985F518A7759A9099 ====

foobar2000 1.2 / Dynamic Range Meter 1.1.1
log date: 2016-12-02 16:40:21

––––––––––––––––––––––––––––––––––––––––
Analyzed: Brother Jack McDuff / Groovy Jazz Organ CD 2 (1)
Ed Lincoln / Groovy Jazz Organ CD 2 (2)
Esquivel / Groovy Jazz Organ CD 2 (3)
––––––––––––––––––––––––––––––––––––––––

DR Peak RMS Duration Track
––––––––––––––––––––––––––––––––––––––––
DR7 -0.15 dB -9.10 dB 4:25 02-Whap!
DR9 -0.15 dB -10.99 dB 2:16 06-Carioca
DR8 -0.14 dB -12.31 dB 2:26 12-The 3rd Man Theme
––––––––––––––––––––––––––––––––––––––––

Number of tracks: 3
Official DR value: DR8

Samplerate: 44100 Hz
Channels: 2
Bits per sample: 16
Bitrate: 806 kbps
Codec: FLAC
================================================================================

––––––––––––––––––––––––––––––––––––––––
Analyzed: Freddie Jackson / Groovy Jazz Organ CD 2 (1)
Jackie Davis / Groovy Jazz Organ CD 2 (2)
––––––––––––––––––––––––––––––––––––––––

DR Peak RMS Duration Track
––––––––––––––––––––––––––––––––––––––––
DR8 -0.13 dB -10.51 dB 4:32 03-Hootin' 'n Tootin'
DR10 -0.14 dB -12.24 dB 5:20 07-What's The Trouble?
––––––––––––––––––––––––––––––––––––––––

Number of tracks: 2
Official DR value: DR9

Samplerate: 44100 Hz
Channels: 2
Bits per sample: 16
Bitrate: 806 kbps
Codec: FLAC
================================================================================

––––––––––––––––––––––––––––––––––––––––
Statistics for: 05-I've Got A Woman (Part 1)
Number of samples: 6833736
Duration: 2:35
––––––––––––––––––––––––––––––––––––––––

Left Right

Peak Value: -0.15 dB –- -0.15 dB
Avg RMS: -8.71 dB –- -12.88 dB
DR channel: 7.31 dB –- 11.01 dB
––––––––––––––––––––––––––––––––––––––––

Official DR Value: DR9

Samplerate: 44100 Hz
Channels: 2
Bits per sample: 16
Bitrate: 806 kbps
Codec: FLAC
================================================================================
––––––––––––––––––––––––––––––––––––––––
Analyzed: Jimmy Smith / Groovy Jazz Organ CD 2
––––––––––––––––––––––––––––––––––––––––

DR Peak RMS Duration Track
––––––––––––––––––––––––––––––––––––––––
DR7 -0.15 dB -10.52 dB 5:57 01-Walk On The Wild Side
DR8 -0.14 dB -10.66 dB 8:30 11-The Champ
––––––––––––––––––––––––––––––––––––––––

Number of tracks: 2
Official DR value: DR7

Samplerate: 44100 Hz
Channels: 2
Bits per sample: 16
Bitrate: 806 kbps
Codec: FLAC
================================================================================

––––––––––––––––––––––––––––––––––––––––
Statistics for: 10-Organ Boogie
Number of samples: 4714584
Duration: 1:47
––––––––––––––––––––––––––––––––––––––––

Left Right

Peak Value: -0.14 dB –- -0.14 dB
Avg RMS: -11.02 dB –- -11.02 dB
DR channel: 9.56 dB –- 9.56 dB
––––––––––––––––––––––––––––––––––––––––

Official DR Value: DR10

Samplerate: 44100 Hz
Channels: 2
Bits per sample: 16
Bitrate: 806 kbps
Codec: FLAC
================================================================================
––––––––––––––––––––––––––––––––––––––––
Analyzed: Richard 'Groove' Holmes / Groovy Jazz Organ CD 2 (1)
Shirley Scott / Groovy Jazz Organ CD 2 (2)
'Wild' Bill Davis / Groovy Jazz Organ CD 2 (3)
––––––––––––––––––––––––––––––––––––––––

DR Peak RMS Duration Track
––––––––––––––––––––––––––––––––––––––––
DR9 -0.15 dB -11.18 dB 4:08 04-This Here
DR11 -0.14 dB -13.11 dB 5:19 08-Hip Twist
DR9 -0.14 dB -10.54 dB 3:19 09-Lullaby Of Birdland
––––––––––––––––––––––––––––––––––––––––

Number of tracks: 3
Official DR value: DR10

Samplerate: 44100 Hz
Channels: 2
Bits per sample: 16
Bitrate: 806 kbps
Codec: FLAC
================================================================================


Exact Audio Copy V1.1 from 23. June 2015

Отчёт EAC об извлечении, выполненном 30. ноября 2016, 20:19

Various Artists / Groovy Jazz Organ CD 3

Дисковод: ASUS DRW-24B3ST Adapter: 0 ID: 0

Режим чтения : Достоверность
Использование точного потока : Да
Отключение кэша аудио : Да
Использование указателей C2 : Нет

Коррекция смещения при чтении : 6
Способность читать области Lead-in и Lead-out : Нет
Заполнение пропущенных сэмплов тишиной : Да
Удаление блоков с тишиной в начале и конце : Нет
При вычислениях CRC использовались нулевые сэмплы : Да
Интерфейс : Установленный внешний ASPI-интерфейс

Выходной формат : Пользовательский кодировщик
Выбранный битрейт : 1024 kBit/s
Качество : Высокий
Добавление ID3-тега : Нет
Утилита сжатия : C:\Program Files (x86)\Exact Audio Copy\FLAC\FLAC.EXE
Дополнительные параметры : -6 -V -T "ARTIST=%artist%" -T "TITLE=%title%" -T "ALBUM=%albumtitle%" -T "DATE=%year%" -T "TRACKNUMBER=%tracknr%" -T "GENRE=%genre%" -T "COMMENT=%comment%" -T "BAND=%albuminterpret%" -T "ALBUMARTIST=%albuminterpret%" -T "COMPOSER=%composer%" %haslyrics%–tag-from-file=LYRICS="%lyricsfile%"%haslyrics% -T "DISCNUMBER=%cdnumber%" -T "TOTALDISCS=%totalcds%" -T "TOTALTRACKS=%numtracks%" %hascover%–picture="%coverfile%"%hascover% %source% -o %dest%


TOC извлечённого CD

Трек | Старт | Длительность | Начальный сектор | Конечный сектор
––––––––––––––––––––––––––––––––––-
1 | 0:00.00 | 8:14.62 | 0 | 37111
2 | 8:14.62 | 4:33.51 | 37112 | 57637
3 | 12:48.38 | 1:34.55 | 57638 | 64742
4 | 14:23.18 | 4:36.22 | 64743 | 85464
5 | 18:59.40 | 2:58.69 | 85465 | 98883
6 | 21:58.34 | 4:48.44 | 98884 | 120527
7 | 26:47.03 | 3:31.42 | 120528 | 136394
8 | 30:18.45 | 5:26.10 | 136395 | 160854
9 | 35:44.55 | 5:57.57 | 160855 | 187686
10 | 41:42.37 | 5:49.25 | 187687 | 213886
11 | 47:31.62 | 2:53.68 | 213887 | 226929
12 | 50:25.55 | 5:17.59 | 226930 | 250763


Характеристики диапазона извлечения и сообщения об ошибках

Выбранный диапазон

Имя файла C:\Torrents - my\Various Artists - 2014 - Groovy Jazz Organ\CD 3\Various Artists - Groovy Jazz Organ CD 3.wav

Пиковый уровень 98.8 %
Скорость извлечения 8.8 X
Качество диапазона 100.0 %
CRC теста 5EDF44FA
CRC копии 5EDF44FA
Копирование… OK

Ошибок не произошло


AccurateRip: сводка

Трек 1 : извлечено точно (доверие 6) [F2CC1ACA] (AR v2)
Трек 2 : извлечено точно (доверие 7) [82F4EB95] (AR v2)
Трек 3 : извлечено точно (доверие 7) [DF80B21B] (AR v2)
Трек 4 : извлечено точно (доверие 7) [C3DE2C8A] (AR v2)
Трек 5 : извлечено точно (доверие 7) [DC98BC07] (AR v2)
Трек 6 : извлечено точно (доверие 7) [CD27E716] (AR v2)
Трек 7 : извлечено точно (доверие 7) [7471DF7E] (AR v2)
Трек 8 : извлечено точно (доверие 7) [6B8C88D7] (AR v2)
Трек 9 : извлечено точно (доверие 7) [3353FB52] (AR v2)
Трек 10 : извлечено точно (доверие 7) [07657592] (AR v2)
Трек 11 : извлечено точно (доверие 7) [DD5A50AB] (AR v2)
Трек 12 : извлечено точно (доверие 7) [D50DB036] (AR v2)

Все треки извлечены точно

Конец отчёта

==== Контрольная сумма отчёта 30A12E528484D09AB44470239F5A857231C0F173C1BF5D6A219448E133E5E615 ====

foobar2000 1.2 / Dynamic Range Meter 1.1.1
log date: 2016-12-02 16:41:41

––––––––––––––––––––––––––––––––––––––––
Analyzed: Various Artists / Groovy Jazz Organ CD 3
––––––––––––––––––––––––––––––––––––––––

DR Peak RMS Duration Track
––––––––––––––––––––––––––––––––––––––––
DR8 -0.15 dB -10.61 dB 8:15 01-Jack McDuff - The HoneyDripper
DR11 -0.10 dB -12.34 dB 4:34 02-Shirley Scott - It Could Happen To You
DR9 -0.14 dB -10.83 dB 1:35 03-Lou Bennett et son Orchestre - Hit The Road Jack
DR9 -0.14 dB -10.76 dB 4:36 04-Richard 'Groove' Holmes - Sweatin'
DR10 -0.14 dB -12.27 dB 2:59 05-Dave 'Baby' Cortez - Summertime
DR10 -0.10 dB -11.39 dB 4:49 06-Johnny 'Hammond' Smith - Rip Tide
DR8 -0.14 dB -9.97 dB 3:32 07-Milt Buckner - D.T.'s
DR10 -0.10 dB -11.65 dB 5:26 08-Lou Donaldson - Nice 'N' Greasy
DR10 -0.15 dB -12.22 dB 5:58 09-Larry Young - Talkin' About J.C.
DR8 -0.14 dB -10.23 dB 5:49 10-Freddie Roach - Ahm Miz
DR9 -0.10 dB -9.77 dB 2:54 11-Bill Doggett - Deed I Do
DR7 -0.14 dB -9.33 dB 5:18 12-Baby Face Willette - Jumpin' Jupiter
––––––––––––––––––––––––––––––––––––––––

Number of tracks: 12
Official DR value: DR9

Samplerate: 44100 Hz
Channels: 2
Bits per sample: 16
Bitrate: 894 kbps
Codec: FLAC
================================================================================

VA - Groovy Jazz Organ: Cool & Timeless Organ Classics (2014) 3CD Box Set

All thanks to original releaser - Копысов

More interesting music in My Blog