Tags
Language
Tags

VA - I Get A Kick Out Of You: The Cole Porter Songbook, Volume II (1991)

Posted By: Designol
VA - I Get A Kick Out Of You: The Cole Porter Songbook, Volume II (1991)

VA - I Get A Kick Out Of You: The Cole Porter Songbook, Volume II (1991)
EAC | FLAC | Tracks (Cue&Log) ~ 277 Mb | Mp3 (CBR320) ~ 130 Mb | Scans ~ 58 Mb | 00:56:29
Vocal Jazz, Vocal Pop, Standarts | Label: Verve/Polygram | # 511 070-2

Terrific versions of classic Cole Porter songs recorded by jazz's greatest vocalists… Louis Armstrong, Anita O'Day, Ella Fitzgerald, Helen Merrill, Dinah Washington, Mel Torme, Sarah Vaughan, Shirley Horn, Billie Holiday, Fred Astaire, Blossom Dearie, Morgana King, and Betty Carter.

I Get A Kick Out Of You: Cole Porter Songbook Vol. 2 has another seventeen wonderful hits and tunes by the great Cole Porter. The sound quality is wonderful; and the artwork is very nicely done.

Louis Armstrong starts things off right with a sublime rendition of "I Get A Kick Out Of You;" this somewhat jazzy arrangement shines like silver and gold–and how's about that piano arrangement? Anita O'Day follows with a great interpretation of "My Heart Belongs To Daddy." "My Heart Belongs To Daddy" is one of my favorite classic pop vocals and Anita O'Day performs this very well. Ella Fitzgerald, the First Lady Of Song, also turns in a great number as she sings "I've Got You Under My Skin." Ella gets to show off some of the fantastic qualities of her singularly beautiful voice and it all holds its own very well.

Mel Torme sings "Too Darn Hot" with panache; this arrangement features Mel playing with the tempo and key modulations somewhat to place his own stamp on this ballad. "It's Too Darn Hot" has a jazzy arrangement that works well even though I'm not too used to hearing this song performed this way. Sarah Vaughan's "Just One Of Those Things" really swings brightly and Sarah never sings a superfluous note! Sarah Vaughan never sounded better and she belts this out like the pro she always was!

Billie Holiday performs "Love For Sale" with a melancholy tone in her voice; Billie performs this with great sensitivity and she makes this number very special. Anita O'Day returns to do a sublime rendition of "From This Moment On;" Anita sings this with panache and I'm very impressed. Fred Astaire also sings "Night And Day" with heart and soul; Fred knew how to deliver this timeless love song in such a way that it's always a major highlight of any album.

"Miss Otis Regrets (She's Unable To Lunch Today)" by Ella Fitzgerald sounds sweet and the melancholy ballad never sounded finer! The strings are used to great advantage and Ella sings this with so much feeling that it truly amazes me. Louis Armstrong also returns to sing that awesome Cole Porter tune, "You're The Top." "You're The Top" gets a regal treatment from Louis Armstrong who delivers this with lots of positive energy. Great!

Betty Carter's "Most Gentlemen Don't Like Love" ends the album with quite a jazzy flourish; and Betty's voice is as clear as a bell. "Most Gentlemen Don't Like Love" is an excellent way to end this album.

Cole Porter fans will want this album; and people who love classic pop vocals will enjoy this CD for quite some while to come.

Review by Matthew G. Sherwin, Amazon "HALL OF FAME"

VA - I Get A Kick Out Of You: The Cole Porter Songbook, Volume II (1991)



Tracklist:

01. Louis Armstrong - I Get A Kick Out Of You (4:21)
02. Anita O'Day - My Heart Belongs To Daddy (2:54)
03. Ella Fitzgerald - I've Got You Under My Skin (3:15)
04. Helen Merrill - After You, Who (3:06)
05. Dinah Washington - So In Love (4:27)
06. Mel Torme - Too Darn Hot (2:47)
07. Sarah Vaughan - Just One Of Those Things (2:32)
08. Shirley Horn - Get Out Of Town (2:54)
09. Billie Holiday - Love For Sale (2:59)
10. Anita O'Day - From This Moment On (3:12)
11. Fred Astaire - Night And Day (4:59)
12. Blossom Dearie - Give Him The Ooh-La-La (2:41)
13. Morgana King - Ev'rything I Love (3:18)
14. Ella Fitzgerald - Miss Otis Regrets (She's Unable To Lunch Today) (3:56)
15. Helen Merrill - All Of You (3:32)
16. Louis Armstrong - You're The Top (2:31)
17. Betty Carter - Most Gentlemen Don't Like Love (3:05)


Exact Audio Copy V1.0 beta 4 from 7. December 2014

EAC extraction logfile from 9. April 2018, 13:55

Various Artists / I Get A Kick Out Of You (The Cole Porter Songbook Vol. II)

Used drive : TSSTcorpCDDVDW SH-224DB Adapter: 1 ID: 0

Read mode : Secure
Utilize accurate stream : Yes
Defeat audio cache : Yes
Make use of C2 pointers : No

Read offset correction : 6
Overread into Lead-In and Lead-Out : No
Fill up missing offset samples with silence : Yes
Delete leading and trailing silent blocks : No
Null samples used in CRC calculations : Yes
Used interface : Native Win32 interface for Win NT & 2000
Gap handling : Appended to previous track

Used output format : User Defined Encoder
Selected bitrate : 896 kBit/s
Quality : High
Add ID3 tag : No
Command line compressor : C:\Program Files\Exact Audio Copy\Flac\flac.exe
Additional command line options : -5 -V -T "ARTIST=%artist%" -T "TITLE=%title%" -T "ALBUM=%albumtitle%" -T "DATE=%year%" -T "TRACKNUMBER=%tracknr%" -T "GENRE=%genre%" -T "COMMENT=%comment%" %source% -o %dest%


TOC of the extracted CD

Track | Start | Length | Start sector | End sector
––––––––––––––––––––––––––––-
1 | 0:00.32 | 4:21.25 | 32 | 19631
2 | 4:21.57 | 2:53.63 | 19632 | 32669
3 | 7:15.45 | 3:14.50 | 32670 | 47269
4 | 10:30.20 | 3:06.25 | 47270 | 61244
5 | 13:36.45 | 4:27.12 | 61245 | 81281
6 | 18:03.57 | 2:47.25 | 81282 | 93831
7 | 20:51.07 | 2:31.63 | 93832 | 105219
8 | 23:22.70 | 2:53.50 | 105220 | 118244
9 | 26:16.45 | 2:58.62 | 118245 | 131656
10 | 29:15.32 | 3:12.13 | 131657 | 146069
11 | 32:27.45 | 4:59.37 | 146070 | 168531
12 | 37:27.07 | 2:40.38 | 168532 | 180569
13 | 40:07.45 | 3:17.50 | 180570 | 195394
14 | 43:25.20 | 3:56.25 | 195395 | 213119
15 | 47:21.45 | 3:32.00 | 213120 | 229019
16 | 50:53.45 | 2:31.00 | 229020 | 240344
17 | 53:24.45 | 3:05.00 | 240345 | 254219


Track 1

Filename C:\New Folder\01 - Louis Armstrong - I Get A Kick Out Of You.wav

Pre-gap length 0:00:02.32

Peak level 97.5 %
Extraction speed 2.0 X
Track quality 100.0 %
Test CRC C1684F13
Copy CRC C1684F13
Accurately ripped (confidence 2) [71A72266] (AR v2)
Copy OK

Track 2

Filename C:\New Folder\02 - Anita O'Day - My Heart Belongs To Daddy.wav

Pre-gap length 0:00:04.00

Peak level 99.3 %
Extraction speed 1.9 X
Track quality 100.0 %
Test CRC 24969D32
Copy CRC 24969D32
Accurately ripped (confidence 2) [4E29B4B2] (AR v2)
Copy OK

Track 3

Filename C:\New Folder\03 - Ella Fitzgerald - I've Got You Under My Skin.wav

Pre-gap length 0:00:01.63

Peak level 99.9 %
Extraction speed 1.9 X
Track quality 100.0 %
Test CRC A2FAE85D
Copy CRC A2FAE85D
Accurately ripped (confidence 2) [09C26A83] (AR v2)
Copy OK

Track 4

Filename C:\New Folder\04 - Helen Merrill - After You, Who.wav

Pre-gap length 0:00:02.00

Peak level 84.3 %
Extraction speed 1.9 X
Track quality 100.0 %
Test CRC 8C920426
Copy CRC 8C920426
Accurately ripped (confidence 2) [7F47FD48] (AR v2)
Copy OK

Track 5

Filename C:\New Folder\05 - Dinah Washington - So In Love.wav

Pre-gap length 0:00:02.63

Peak level 100.0 %
Extraction speed 2.1 X
Track quality 100.0 %
Test CRC C4EFAD09
Copy CRC C4EFAD09
Accurately ripped (confidence 2) [AABF733E] (AR v2)
Copy OK

Track 6

Filename C:\New Folder\06 - Mel Torme - Too Darn Hot.wav

Pre-gap length 0:00:02.50

Peak level 100.0 %
Extraction speed 1.6 X
Track quality 99.9 %
Test CRC 8AB4276C
Copy CRC 8AB4276C
Accurately ripped (confidence 2) [965999DA] (AR v2)
Copy OK

Track 7

Filename C:\New Folder\07 - Sarah Vaughan - Just One Of Those Things.wav

Pre-gap length 0:00:01.62

Peak level 100.0 %
Extraction speed 1.9 X
Track quality 100.0 %
Test CRC 17904FE1
Copy CRC 17904FE1
Accurately ripped (confidence 2) [93F75540] (AR v2)
Copy OK

Track 8

Filename C:\New Folder\08 - Shirley Horn - Get Out Of Town.wav

Pre-gap length 0:00:02.00

Peak level 100.0 %
Extraction speed 1.9 X
Track quality 100.0 %
Test CRC 9A7CB6A6
Copy CRC 9A7CB6A6
Accurately ripped (confidence 2) [793F07AF] (AR v2)
Copy OK

Track 9

Filename C:\New Folder\09 - Billie Holiday - Love For Sale.wav

Pre-gap length 0:00:03.38

Peak level 88.1 %
Extraction speed 2.0 X
Track quality 100.0 %
Test CRC D67E922F
Copy CRC D67E922F
Accurately ripped (confidence 2) [02CFC7ED] (AR v2)
Copy OK

Track 10

Filename C:\New Folder\10 - Anita O'Day - From This Moment On.wav

Pre-gap length 0:00:02.12

Peak level 100.0 %
Extraction speed 2.0 X
Track quality 100.0 %
Test CRC C59C8C63
Copy CRC C59C8C63
Accurately ripped (confidence 2) [526D978A] (AR v2)
Copy OK

Track 11

Filename C:\New Folder\11 - Fred Astaire - Night And Day.wav

Pre-gap length 0:00:01.38

Peak level 94.0 %
Extraction speed 2.1 X
Track quality 100.0 %
Test CRC E741908C
Copy CRC E741908C
Accurately ripped (confidence 2) [E08D53EE] (AR v2)
Copy OK

Track 12

Filename C:\New Folder\12 - Blossom Dearie - Give Him The Ooh-La-La.wav

Pre-gap length 0:00:01.50

Peak level 87.2 %
Extraction speed 1.9 X
Track quality 100.0 %
Test CRC DD4DE594
Copy CRC DD4DE594
Accurately ripped (confidence 2) [06C278AF] (AR v2)
Copy OK

Track 13

Filename C:\New Folder\13 - Morgana King - Ev'rything I Love.wav

Pre-gap length 0:00:02.13

Peak level 83.7 %
Extraction speed 2.0 X
Track quality 100.0 %
Test CRC CDF3F856
Copy CRC CDF3F856
Accurately ripped (confidence 2) [73F8637C] (AR v2)
Copy OK

Track 14

Filename C:\New Folder\14 - Ella Fitzgerald - Miss Otis Regrets (She's Unable To Lunch Today).wav

Pre-gap length 0:00:02.13

Peak level 81.4 %
Extraction speed 2.1 X
Track quality 100.0 %
Test CRC 80D87D16
Copy CRC 80D87D16
Accurately ripped (confidence 2) [A411C836] (AR v2)
Copy OK

Track 15

Filename C:\New Folder\15 - Helen Merrill - All Of You.wav

Pre-gap length 0:00:02.25

Peak level 79.9 %
Extraction speed 2.0 X
Track quality 100.0 %
Test CRC E00CA161
Copy CRC E00CA161
Accurately ripped (confidence 2) [216AA22C] (AR v2)
Copy OK

Track 16

Filename C:\New Folder\16 - Louis Armstrong - You're The Top.wav

Pre-gap length 0:00:01.25

Peak level 100.0 %
Extraction speed 1.9 X
Track quality 100.0 %
Test CRC 285F3F49
Copy CRC 285F3F49
Accurately ripped (confidence 2) [F28917BF] (AR v2)
Copy OK

Track 17

Filename C:\New Folder\17 - Betty Carter - Most Gentlemen Don't Like Love.wav

Pre-gap length 0:00:00.50

Peak level 100.0 %
Extraction speed 2.0 X
Track quality 100.0 %
Test CRC 0C18CA3F
Copy CRC 0C18CA3F
Accurately ripped (confidence 2) [4FB4134B] (AR v2)
Copy OK


All tracks accurately ripped

No errors occurred

End of status report

–– CUETools DB Plugin V2.1.4

[CTDB TOCID: 1wDF2.eqrvrDbxk4fGzA_Fr1Qos-] found
Submit result: 1wDF2.eqrvrDbxk4fGzA_Fr1Qos- has been confirmed
Track | CTDB Status
1 | (33/33) Accurately ripped
2 | (33/33) Accurately ripped
3 | (32/33) Accurately ripped
4 | (33/33) Accurately ripped
5 | (33/33) Accurately ripped
6 | (32/33) Accurately ripped
7 | (33/33) Accurately ripped
8 | (33/33) Accurately ripped
9 | (33/33) Accurately ripped
10 | (31/33) Accurately ripped
11 | (33/33) Accurately ripped
12 | (33/33) Accurately ripped
13 | (33/33) Accurately ripped
14 | (33/33) Accurately ripped
15 | (33/33) Accurately ripped
16 | (33/33) Accurately ripped
17 | (33/33) Accurately ripped


==== Log checksum A54594EDAED4DF2A5BB194437CF7FF026A1FC19F6E0F43DEA35EAD3360431E84 ====

foobar2000 1.2 / Dynamic Range Meter 1.1.1
log date: 2018-04-16 04:06:35

––––––––––––––––––––––––––––––––––––––––
Analyzed: Anita O'Day / I Get A Kick Out Of You (The Cole Porter Songbook Vol. II) (1-2)
Betty Carter / I Get A Kick Out Of You (The Cole Porter Songbook Vol. II) (3)
Billie Holiday / I Get A Kick Out Of You (The Cole Porter Songbook Vol. II) (4)
Blossom Dearie / I Get A Kick Out Of You (The Cole Porter Songbook Vol. II) (5)
Dinah Washington / I Get A Kick Out Of You (The Cole Porter Songbook Vol. II) (6)
Ella Fitzgerald / I Get A Kick Out Of You (The Cole Porter Songbook Vol. II) (7-8)
Fred Astaire / I Get A Kick Out Of You (The Cole Porter Songbook Vol. II) (9)
Helen Merrill / I Get A Kick Out Of You (The Cole Porter Songbook Vol. II) (10-11)
Louis Armstrong / I Get A Kick Out Of You (The Cole Porter Songbook Vol. II) (12-13)
Mel Torme / I Get A Kick Out Of You (The Cole Porter Songbook Vol. II) (14)
Morgana King / I Get A Kick Out Of You (The Cole Porter Songbook Vol. II) (15)
Sarah Vaughan / I Get A Kick Out Of You (The Cole Porter Songbook Vol. II) (16)
Shirley Horn / I Get A Kick Out Of You (The Cole Porter Songbook Vol. II) (17)
––––––––––––––––––––––––––––––––––––––––

DR Peak RMS Duration Track
––––––––––––––––––––––––––––––––––––––––
DR10 -0.05 dB -13.13 dB 2:54 02-My Heart Belongs To Daddy
DR10 0.00 dB -12.42 dB 3:12 10-From This Moment On
DR11 0.00 dB -13.77 dB 3:05 17-Most Gentlemen Don't Like Love
DR12 -1.09 dB -17.73 dB 2:59 09-Love For Sale
DR12 -1.18 dB -14.60 dB 2:41 12-Give Him The Ooh-La-La
DR11 0.00 dB -14.78 dB 4:27 05-So In Love
DR13 -0.01 dB -16.17 dB 3:15 03-I've Got You Under My Skin
DR10 -1.78 dB -14.56 dB 3:56 14-Miss Otis Regrets (She's Unable To Lunch Today)
DR14 -0.54 dB -18.05 dB 4:59 11-Night And Day
DR10 -1.48 dB -14.53 dB 3:06 04-After You, Who
DR9 -1.94 dB -12.96 dB 3:32 15-All Of You
DR13 -0.22 dB -15.89 dB 4:21 01-I Get A Kick Out Of You
DR11 0.00 dB -12.22 dB 2:31 16-You're The Top
DR12 0.00 dB -13.79 dB 2:47 06-Too Darn Hot
DR8 -1.54 dB -12.57 dB 3:18 13-Ev'rything I Love
DR11 0.00 dB -12.10 dB 2:32 07-Just One Of Those Things
DR13 0.00 dB -15.89 dB 2:54 08-Get Out Of Town
––––––––––––––––––––––––––––––––––––––––

Number of tracks: 17
Official DR value: DR11

Samplerate: 44100 Hz
Channels: 2
Bits per sample: 16
Bitrate: 904 kbps
Codec: FLAC
================================================================================

VA - I Get A Kick Out Of You: The Cole Porter Songbook, Volume II (1991)

VA - I Get A Kick Out Of You: The Cole Porter Songbook, Volume II (1991)