Tags
Language
Tags

VA - Jazz A Cinecitta (2004) [Musica Jazz Magazine 10/2004]

Posted By: Designol
VA -  Jazz A Cinecitta (2004) [Musica Jazz Magazine 10/2004]

Various Artists - Jazz A Cinecittà (2004)
EAC | FLAC | Tracks (Cue&Log) ~ 548 Mb | Mp3 (CBR320) ~ 196 Mb | Scans included
Label: Musica Jazz | # MJCD 1160 (MJ Magazine 10/2004) | Time: 01:15:53
Big Band, Bop, Hard Bop, Cool, Mainstream Jazz, Orchestral Jazz, Soundtracks

Jazz music from great italian movies composed by the famous film composers Piero Umiliani, Piero Piccioni Armando Trovaioli, Ennio Morricone, Nino Rota, Michel Legrand, Manuel De Sica, Benedetto Ghiglia and Goffredo Petrassi as well as pioneering musicians such as Giorgio Gaslini, Chet Baker, here are some of the earliest jazz soundtracks that emerged from the golden age of 'Commedia All'Italiana' through to cult experimental cinema.

Tracklist:

01. Kenny Clarke - Sette Uomini D'Oro (4:07) Composed By Armando Trovaioli
02. Enrico Pieranunzi - Incontro (7:03) Composed By Ennio Morricone
03. Armando Trovaioli - Il Vedovo (2:52) Composed By Armando Trovaioli
04. Salvatore Bonafede - Quadriglia (5:25) Composed By Nino Rota
05. Chet Baker - I Soliti Ignoti (4:58) Composed By Piero Umiliani
06. Piero Piccioni - L'Assassino (2:47) Composed By Piero Piccioni
07. Enrico Pieranunzi - Amarcord (6:45) Composed By Nino Rota
08. Art Farmer - Watch What Happens (8:24) Composed By Michel Legrand
09. Benedetto Ghiglia - Baleari Operazione Oro (2:12) Composed By Benedetto Ghiglia
10. Giovanni Tommaso - Lo Chiameremo Andrea (4:52) Composed By Manuel De Sica
11. Nunzio Rotondo - Autoradio (2:02) Composed By Piero Piccioni
12. Enrico Rava & Giovanni Tommaso - Cronaca Familiare (4:36) Composed By Goffredo Petrassi
13. Chet Baker - Hollywood Tonight (4:28) Composed By Piero Umiliani
14. Enrico Pieranunzi - Il Clan Dei Siciliani (4:51) Composed By Ennio Morricone
15. Giorgio Gaslini - Blues All'Alba (5:47) Composed By Giorgio Gaslini
16. Giorgio Gaslini - Lettura Della Lettera (3:37) Composed By Giorgio Gaslini
17. Giorgio Gaslini - Finale (1:08) Composed By Giorgio Gaslini


Exact Audio Copy V1.3 from 2. September 2016

Отчёт EAC об извлечении, выполненном 9. марта 2018, 16:33

Various Artists / Jazz a Cinecittà

Дисковод: PLEXTOR DVDR PX-L890SA Adapter: 1 ID: 0

Режим чтения : Достоверность
Использование точного потока : Да
Отключение кэша аудио : Да
Использование указателей C2 : Нет

Коррекция смещения при чтении : 6
Способность читать области Lead-in и Lead-out : Нет
Заполнение пропущенных сэмплов тишиной : Да
Удаление блоков с тишиной в начале и конце : Нет
При вычислениях CRC использовались нулевые сэмплы : Да
Интерфейс : Встроенный Win32-интерфейс для Win NT/2000
Обработка зазоров : Добавлено к предыдущему треку

Выходной формат : Пользовательский кодировщик
Выбранный битрейт : 896 kBit/s
Качество : Высокий
Добавление ID3-тега : Нет
Утилита сжатия : C:\Program Files\Exact Audio Copy\Flac\flac.exe
Дополнительные параметры : -V -8 -T "Genre=%genre%" -T "Artist=%artist%" -T "Title=%title%" -T "Album=%albumtitle%" -T "Date=%year%" -T "Tracknumber=%tracknr%" -T "Comment=%comment%" %source%


TOC извлечённого CD

Трек | Старт | Длительность | Начальный сектор | Конечный сектор
––––––––––––––––––––––––––––––––––-
1 | 0:00.00 | 4:06.42 | 0 | 18491
2 | 4:06.42 | 7:02.45 | 18492 | 50186
3 | 11:09.12 | 2:52.10 | 50187 | 63096
4 | 14:01.22 | 5:25.10 | 63097 | 87481
5 | 19:26.32 | 4:57.45 | 87482 | 109801
6 | 24:24.02 | 2:46.52 | 109802 | 122303
7 | 27:10.54 | 6:45.01 | 122304 | 152679
8 | 33:55.55 | 8:23.47 | 152680 | 190451
9 | 42:19.27 | 2:12.15 | 190452 | 200366
10 | 44:31.42 | 4:51.73 | 200367 | 222264
11 | 49:23.40 | 2:02.12 | 222265 | 231426
12 | 51:25.52 | 4:36.35 | 231427 | 252161
13 | 56:02.12 | 4:28.20 | 252162 | 272281
14 | 60:30.32 | 4:50.63 | 272282 | 294094
15 | 65:21.20 | 5:46.55 | 294095 | 320099
16 | 71:08.00 | 3:37.12 | 320100 | 336386
17 | 74:45.12 | 1:07.57 | 336387 | 341468


Трек 1

Имя файла H:\Зарубежный джаз\VA - Jazz A Cinecitta 2004\01 Kenny Clarke - Sette Uomini D'Oro.wav

Длина предзазора 0:00:02.00

Пиковый уровень 99.9 %
Скорость извлечения 5.0 X
Качество трека 100.0 %
CRC теста 034216BF
CRC копии 034216BF
Точное извлечение (достоверность 3) [42084DA9] (AR v2)
Копирование… OK

Трек 2

Имя файла H:\Зарубежный джаз\VA - Jazz A Cinecitta 2004\02 Enrico Pieranunzi - Incontro.wav

Пиковый уровень 99.9 %
Скорость извлечения 5.0 X
Качество трека 99.9 %
CRC теста F041766D
CRC копии F041766D
Точное извлечение (достоверность 3) [6D999A6F] (AR v2)
Копирование… OK

Трек 3

Имя файла H:\Зарубежный джаз\VA - Jazz A Cinecitta 2004\03 Armando Trovaioli - Il Vedovo.wav

Пиковый уровень 99.9 %
Скорость извлечения 4.9 X
Качество трека 100.0 %
CRC теста 9238F3BC
CRC копии 9238F3BC
Точное извлечение (достоверность 3) [3553A1F7] (AR v2)
Копирование… OK

Трек 4

Имя файла H:\Зарубежный джаз\VA - Jazz A Cinecitta 2004\04 Salvatore Bonafede - Quadriglia.wav

Пиковый уровень 99.9 %
Скорость извлечения 5.4 X
Качество трека 100.0 %
CRC теста F8FFDCBA
CRC копии F8FFDCBA
Точное извлечение (достоверность 3) [18EA4A49] (AR v2)
Копирование… OK

Трек 5

Имя файла H:\Зарубежный джаз\VA - Jazz A Cinecitta 2004\05 Chet Baker - I Soliti Ignoti.wav

Пиковый уровень 99.9 %
Скорость извлечения 5.3 X
Качество трека 100.0 %
CRC теста F7335938
CRC копии F7335938
Точное извлечение (достоверность 3) [0BB93CDB] (AR v2)
Копирование… OK

Трек 6

Имя файла H:\Зарубежный джаз\VA - Jazz A Cinecitta 2004\06 Piero Piccioni - L'Assassino.wav

Пиковый уровень 99.9 %
Скорость извлечения 4.9 X
Качество трека 100.0 %
CRC теста A4FE39EC
CRC копии A4FE39EC
Точное извлечение (достоверность 3) [C69AD2DB] (AR v2)
Копирование… OK

Трек 7

Имя файла H:\Зарубежный джаз\VA - Jazz A Cinecitta 2004\07 Enrico Pieranunzi - Amarcord.wav

Пиковый уровень 100.0 %
Скорость извлечения 5.1 X
Качество трека 99.9 %
CRC теста 51F22565
CRC копии 51F22565
Точное извлечение (достоверность 3) [5B58E6B7] (AR v2)
Копирование… OK

Трек 8

Имя файла H:\Зарубежный джаз\VA - Jazz A Cinecitta 2004\08 Art Farmer - Watch What Happens.wav

Пиковый уровень 99.9 %
Скорость извлечения 5.3 X
Качество трека 99.9 %
CRC теста C8671B54
CRC копии C8671B54
Точное извлечение (достоверность 3) [EB264A53] (AR v2)
Копирование… OK

Трек 9

Имя файла H:\Зарубежный джаз\VA - Jazz A Cinecitta 2004\09 Benedetto Ghiglia - Baleari Operazione Oro.wav

Пиковый уровень 99.9 %
Скорость извлечения 4.7 X
Качество трека 100.0 %
CRC теста 7D667262
CRC копии 7D667262
Точное извлечение (достоверность 3) [EA723C1B] (AR v2)
Копирование… OK

Трек 10

Имя файла H:\Зарубежный джаз\VA - Jazz A Cinecitta 2004\10 Giovanni Tommaso - Lo Chiameremo Andrea.wav

Пиковый уровень 99.9 %
Скорость извлечения 5.3 X
Качество трека 100.0 %
CRC теста 65587043
CRC копии 65587043
Точное извлечение (достоверность 3) [024662D8] (AR v2)
Копирование… OK

Трек 11

Имя файла H:\Зарубежный джаз\VA - Jazz A Cinecitta 2004\11 Nunzio Rotondo - Autoradio.wav

Пиковый уровень 99.9 %
Скорость извлечения 3.7 X
Качество трека 99.9 %
CRC теста A8A272E2
CRC копии A8A272E2
Точное извлечение (достоверность 3) [DCA689D4] (AR v2)
Копирование… OK

Трек 12

Имя файла H:\Зарубежный джаз\VA - Jazz A Cinecitta 2004\12 Enrico Rava & Giovanni Tommaso - Cronaca Familiare.wav

Пиковый уровень 99.9 %
Скорость извлечения 5.3 X
Качество трека 100.0 %
CRC теста 69998608
CRC копии 69998608
Точное извлечение (достоверность 3) [1348BE94] (AR v2)
Копирование… OK

Трек 13

Имя файла H:\Зарубежный джаз\VA - Jazz A Cinecitta 2004\13 Chet Baker - Hollywood Tonight.wav

Пиковый уровень 99.9 %
Скорость извлечения 4.7 X
Качество трека 99.9 %
CRC теста E76D5436
CRC копии E76D5436
Точное извлечение (достоверность 3) [FB5F9E3B] (AR v2)
Копирование… OK

Трек 14

Имя файла H:\Зарубежный джаз\VA - Jazz A Cinecitta 2004\14 Enrico Pieranunzi - Il Clan Dei Siciliani.wav

Пиковый уровень 100.0 %
Скорость извлечения 4.9 X
Качество трека 99.9 %
CRC теста 647D62B8
CRC копии 647D62B8
Точное извлечение (достоверность 3) [AE236D1B] (AR v2)
Копирование… OK

Трек 15

Имя файла H:\Зарубежный джаз\VA - Jazz A Cinecitta 2004\15 Giorgio Gaslini - Blues All'Alba.wav

Пиковый уровень 99.9 %
Скорость извлечения 5.5 X
Качество трека 100.0 %
CRC теста A26ABA51
CRC копии A26ABA51
Точное извлечение (достоверность 3) [CD1DEF54] (AR v2)
Копирование… OK

Трек 16

Имя файла H:\Зарубежный джаз\VA - Jazz A Cinecitta 2004\16 Giorgio Gaslini - Lettura Della Lettera.wav

Пиковый уровень 94.4 %
Скорость извлечения 5.2 X
Качество трека 100.0 %
CRC теста 4166D145
CRC копии 4166D145
Точное извлечение (достоверность 3) [2A53F809] (AR v2)
Копирование… OK

Трек 17

Имя файла H:\Зарубежный джаз\VA - Jazz A Cinecitta 2004\17 Giorgio Gaslini - Finale.wav

Пиковый уровень 94.3 %
Скорость извлечения 3.5 X
Качество трека 100.0 %
CRC теста DC3A8766
CRC копии DC3A8766
Точное извлечение (достоверность 3) [24A4C995] (AR v2)
Копирование… OK


Все треки извлечены точно

Ошибок не произошло

Конец отчёта

–– CUETools DB Plugin V2.1.6

[CTDB TOCID: nMiDJDNDytQqAQ6RDnKs5YkiUoQ-] found
Submit result:
Track | CTDB Status
1 | (5/5) Accurately ripped
2 | (5/5) Accurately ripped
3 | (5/5) Accurately ripped
4 | (5/5) Accurately ripped
5 | (5/5) Accurately ripped
6 | (5/5) Accurately ripped
7 | (5/5) Accurately ripped
8 | (5/5) Accurately ripped
9 | (5/5) Accurately ripped
10 | (5/5) Accurately ripped
11 | (5/5) Accurately ripped
12 | (5/5) Accurately ripped
13 | (5/5) Accurately ripped
14 | (5/5) Accurately ripped
15 | (5/5) Accurately ripped
16 | (5/5) Accurately ripped
17 | (5/5) Accurately ripped


==== Контрольная сумма отчёта 6CED1B6BF1E5F8954FAE5FA5E463C3D25552C2C9B923D1F48A8C4C34F3EDCB90 ====

[CUETools log; Date: 27.12.2018 23:30:46; Version: 2.1.4]
[CTDB TOCID: nMiDJDNDytQqAQ6RDnKs5YkiUoQ-] found.
Track | CTDB Status
1 | (5/5) Accurately ripped
2 | (5/5) Accurately ripped
3 | (5/5) Accurately ripped
4 | (5/5) Accurately ripped
5 | (5/5) Accurately ripped
6 | (5/5) Accurately ripped
7 | (5/5) Accurately ripped
8 | (5/5) Accurately ripped
9 | (5/5) Accurately ripped
10 | (5/5) Accurately ripped
11 | (5/5) Accurately ripped
12 | (5/5) Accurately ripped
13 | (5/5) Accurately ripped
14 | (5/5) Accurately ripped
15 | (5/5) Accurately ripped
16 | (5/5) Accurately ripped
17 | (5/5) Accurately ripped
[AccurateRip ID: 0031d21a-02723ec1-0011c811] found.
Track [ CRC | V2 ] Status
01 [169f2dd7|42084da9] (0+5/5) Accurately ripped
02 [1e01cc22|6d999a6f] (0+5/5) Accurately ripped
03 [cb1ad30c|3553a1f7] (0+5/5) Accurately ripped
04 [76462d9a|18ea4a49] (0+5/5) Accurately ripped
05 [f55db292|0bb93cdb] (0+5/5) Accurately ripped
06 [42c0c4a1|c69ad2db] (0+5/5) Accurately ripped
07 [bb8de017|5b58e6b7] (0+5/5) Accurately ripped
08 [746ecc85|eb264a53] (0+5/5) Accurately ripped
09 [fe686e05|ea723c1b] (0+5/5) Accurately ripped
10 [559dd834|024662d8] (0+5/5) Accurately ripped
11 [e6a624c8|dca689d4] (0+5/5) Accurately ripped
12 [1264dd7b|1348be94] (0+5/5) Accurately ripped
13 [63958ff5|fb5f9e3b] (0+5/5) Accurately ripped
14 [64adc5e6|ae236d1b] (0+5/5) Accurately ripped
15 [b1e99a22|cd1def54] (0+5/5) Accurately ripped
16 [00f0f705|2a53f809] (0+5/5) Accurately ripped
17 [1def7361|24a4c995] (0+5/5) Accurately ripped

Track Peak [ CRC32 ] [W/O NULL] [ LOG ]
– 99,9 [66719451] [DAC56368]
01 99,9 [034216BF] [CAA226F0] CRC32
02 99,9 [F041766D] [6AFBF200] CRC32
03 99,9 [9238F3BC] [8BAFA93D] CRC32
04 99,9 [F8FFDCBA] [508B2363] CRC32
05 99,9 [F7335938] [D7D1C7BD] CRC32
06 99,9 [A4FE39EC] [D750BD93] CRC32
07 99,9 [51F22565] [D7CE9121] CRC32
08 99,9 [C8671B54] [42B1F8B6] CRC32
09 99,9 [7D667262] [2BDC9C76] CRC32
10 99,9 [65587043] [42E713C3] CRC32
11 99,9 [A8A272E2] [36930170] CRC32
12 99,9 [69998608] [38ADE57A] CRC32
13 99,9 [E76D5436] [3C3F7C8D] CRC32
14 99,9 [647D62B8] [42E70566] CRC32
15 99,9 [A26ABA51] [30341CCA] CRC32
16 94,4 [4166D145] [C45C8FC3] CRC32
17 94,3 [DC3A8766] [D0FA44C7] CRC32

foobar2000 1.2 / Dynamic Range Meter 1.1.1
log date: 2018-12-27 23:07:14

––––––––––––––––––––––––––––––––––––––––
Analyzed: Armando Trovaioli / Jazz a Cinecittà (1)
Art Farmer / Jazz a Cinecittà (2)
Benedetto Ghiglia / Jazz a Cinecittà (3)
Chet Baker / Jazz a Cinecittà (4-5)
Enrico Pieranunzi / Jazz a Cinecittà (6-8)
Enrico Rava & Giovanni Tommaso / Jazz a Cinecittà (9)
Giorgio Gaslini / Jazz a Cinecittà (10-12)
Giovanni Tommaso / Jazz a Cinecittà (13)
Kenny Clarke / Jazz a Cinecittà (14)
Nunzio Rotondo / Jazz a Cinecittà (15)
Piero Piccioni / Jazz a Cinecittà (16)
Salvatore Bonafede / Jazz a Cinecittà (17)
––––––––––––––––––––––––––––––––––––––––

DR Peak RMS Duration Track
––––––––––––––––––––––––––––––––––––––––
DR12 0.00 dB -16.44 dB 2:52 03-Il Vedovo
DR10 0.00 dB -12.51 dB 8:24 08-Watch What Happens
DR11 0.00 dB -12.97 dB 2:12 09-Baleari Operazione Oro
DR11 0.00 dB -14.41 dB 4:58 05-I Soliti Ignoti
DR9 0.00 dB -11.30 dB 4:28 13-Hollywood Tonight
DR11 0.00 dB -15.89 dB 7:03 02-Incontro
DR11 0.00 dB -13.77 dB 6:45 07-Amarcord
DR11 0.00 dB -12.93 dB 4:51 14-Il Clan Dei Siciliani
DR11 0.00 dB -14.69 dB 4:36 12-Cronaca Familiare
DR10 0.00 dB -13.38 dB 5:47 15-Blues All'Alba
DR10 -0.50 dB -14.02 dB 3:37 16-Lettura Della Lettera
DR9 -0.50 dB -14.23 dB 1:08 17-Finale
DR10 0.00 dB -11.55 dB 4:52 10-Lo Chiameremo Andrea
DR11 0.00 dB -12.45 dB 4:07 01-Sette Uomini D'Oro
DR11 0.00 dB -12.97 dB 2:02 11-Autoradio
DR11 0.00 dB -14.24 dB 2:47 06-L'Assassino
DR10 0.00 dB -12.73 dB 5:25 04-Quadriglia
––––––––––––––––––––––––––––––––––––––––

Number of tracks: 17
Official DR value: DR10

Samplerate: 44100 Hz
Channels: 2
Bits per sample: 16
Bitrate: 846 kbps
Codec: FLAC
================================================================================

VA -  Jazz A Cinecitta (2004) [Musica Jazz Magazine 10/2004]

VA -  Jazz A Cinecitta (2004) [Musica Jazz Magazine 10/2004]

All thanks to original releaser - Hermes1967

More interesting music in My Blog