Subcategories
Tags
Language
Tags

VA - Let The Good Times Roll: The Aladdin Story (2012) 2CDs

Posted By: Designol
VA - Let The Good Times Roll: The Aladdin Story (2012) 2CDs

VA - Let The Good Times Roll: The Aladdin Story (2012) 2CDs
EAC | FLAC | Tracks (Cue&Log) ~ 519 Mb | Mp3 (CBR320) ~ 292 Mb
Label: One Day Music | # DAY2CD180 | Time: 02:03:46 | Scans included
Genre: Rhythm & Blues, Doo Wop, Jump Blues, Rock & Roll

Aladdin Records, based in Los Angeles, was a very influential label in American music history. This is not the full story of Aladdin Records but it's a very good sampler of the label's output from 1947-1961. It's 50 tracks, 25 tracks on each of the 2CDs in the set, of very good R&B from the period. Each CD is about 60 minutes playing time. The sound is good for recordings of this era. Amos Milburn, Lightnin' Hopkins, Lowell Fulson, Louis Jordan, Charles Brown, Billie Holliday, Shirley & Lee, Gene & Eunic, Bobby Wall, Thurston Harris, The Velvetones and many more.

Coming out of post-war jump blues, jazz, and swing (Louis Jordan is here) is a collection of good time tracks running from 1947-1961. The inimitable Lightning Hopkins is in there too along with the more sophisticated Lowell Fulson holding up the Blues end which also includes the supper club Blues of Charles Brown. But mostly it's the West coast Black citified slick version of rock'n'roll with, as the compiler states, an emphasis on the the roll. And it's a whole very varied jumpin' load of fun. It's just good period pop that puts a smile on your face. Interesting to compare it to the radically different Rockabilly. Me, I find its aesthetic much more appealing.

Review by Ian Williams, Amazon.co.uk

VA - Let The Good Times Roll: The Aladdin Story (2012) 2CDs


Tracklist:

CD1:

01. Shirley & Lee - Let the Good Times Roll (02:25)
02. Gene & Eunice - Ko Ko Mo (I Love You So) (02:49)
03. Thurston Harris & the Sharps - Little Bitty Pretty One (02:23)
04. Bobby Wall - Baby It's Too Much (02:03)
05. Marvn & Johnny - Smack Smack (01:54)
06. Aggie Dukes - John John (01:48)
07. Jeanette & Decky - Crazy With You (02:32)
08. Amos Milburn - Chicken Shack Boogie (02:51)
09. The Five Keys - The Glory of Love (03:08)
10. The Chestnuts - Wiggle Wiggle (01:58)
11. Lightnin' Hopkins - Shotgun Blues (02:40)
12. The Crystals - I Love My Baby (02:17)
13. The Daybreakers - Up, Up and Away (01:56)
14. The Sharps - Our Love Is Here to Stay (02:58)
15. Flip Sloan - Little Girl in the Cabin (02:19)
16. The Lovers - Tell Me (02:40)
17. The Heart Throbs - So Glad (02:21)
18. Jesse Belvin - Let Me Dream (02:18)
19. John & Jackie - Little Girl (02:13)
20. Lowell Fulson - Don't Leave Me Baby (03:00)
21. Gene & Eunice - This Is My Story (02:17)
22. Louis Jordan - Dad Gum Ya Hide Boy (02:37)
23. The Aladsins - Remember (02:25)
24. Floyd Dixon - Sad Journey Blues (02:48)
25. The Squires - Dreamy Eyes (02:03)

CD2:

01. Thurston Harris - Hey Little Girl (01:48)
02. Sugar Pie & Pee Wee - One, Two, Let's Rock (02:12)
03. The DeVilles - Do Wop (02:06)
04. Marvin & Johnny - Yak Yak (02:34)
05. Shirley & Lee - Feel So Good (02:50)
06. Big 'T' Tyler - King Kong (02:03)
07. Charles Brown - Trouble Blues (02:22)
08. The Cookies - Don't Let Go (Hold Me, Hold Me, Hold Me) (02:33)
09. The Five Keys - Hucklebuck With Jimmy (02:22)
10. Floyd Dixon - Call Operator 210 (03:00)
11. The Four Palms - Jeanie, Joanie, Shirley, Toni (02:13)
12. Johnny Inman & the Impollos - You Never Realized (02:33)
13. Bip & Bop - Ding Dong Ding (03:02)
14. The Jivers - Ray Pearl (02:04)
15. Thurston Harris - Over and Over (02:17)
16. Lee Allen - Rockin' at Cosmo's (02:49)
17. The Shades - One Touch of Heaven (02:31)
18. Louis Jordan - Messy Bessy (02:42)
19. Ray Ellis & Orchestra - Darling, It's Wonderful (02:54)
20. Crawford Brothers - I Ain't Guilty (02:50)
21. Fatso Theus & the Flairs - Be Cool My Heart (03:02)
22. The Monitors - Candy Coated Kisses (02:29)
23. Billie Holliday - Blue Turning Grey Over You (02:01)
24. The Rockets - Loch Lomond (02:25)
25. The Velvetones - The Glory of Love (03:00)


Exact Audio Copy V1.0 beta 3 from 29. August 2011

EAC extraction logfile from 4. February 2016, 20:07

Various / The Aladdin Story Disc 1

Used drive : ASUS DRW-24F1ST a Adapter: 0 ID: 0

Read mode : Secure
Utilize accurate stream : Yes
Defeat audio cache : Yes
Make use of C2 pointers : No

Read offset correction : 6
Overread into Lead-In and Lead-Out : Yes
Fill up missing offset samples with silence : Yes
Delete leading and trailing silent blocks : No
Null samples used in CRC calculations : Yes
Used interface : Native Win32 interface for Win NT & 2000
Gap handling : Appended to previous track

Used output format : User Defined Encoder
Selected bitrate : 1024 kBit/s
Quality : High
Add ID3 tag : No
Command line compressor : C:\Program Files (x86)\Exact Audio Copy v1.0\Flac\flac.exe
Additional command line options : -V -8 -T "Date=%year%" -T "Genre=%genre%" %source%


TOC of the extracted CD

Track | Start | Length | Start sector | End sector
––––––––––––––––––––––––––––-
1 | 0:00.00 | 2:25.25 | 0 | 10899
2 | 2:25.25 | 2:49.37 | 10900 | 23611
3 | 5:14.62 | 2:23.21 | 23612 | 34357
4 | 7:38.08 | 2:03.23 | 34358 | 43605
5 | 9:41.31 | 1:54.57 | 43606 | 52212
6 | 11:36.13 | 1:48.28 | 52213 | 60340
7 | 13:24.41 | 2:32.19 | 60341 | 71759
8 | 15:56.60 | 2:51.15 | 71760 | 84599
9 | 18:48.00 | 3:08.65 | 84600 | 98764
10 | 21:56.65 | 1:58.18 | 98765 | 107632
11 | 23:55.08 | 2:40.18 | 107633 | 119650
12 | 26:35.26 | 2:17.74 | 119651 | 129999
13 | 28:53.25 | 1:56.15 | 130000 | 138714
14 | 30:49.40 | 2:58.01 | 138715 | 152065
15 | 33:47.41 | 2:19.43 | 152066 | 162533
16 | 36:07.09 | 2:40.07 | 162534 | 174540
17 | 38:47.16 | 2:21.34 | 174541 | 185149
18 | 41:08.50 | 2:18.26 | 185150 | 195525
19 | 43:27.01 | 2:13.48 | 195526 | 205548
20 | 45:40.49 | 3:00.47 | 205549 | 219095
21 | 48:41.21 | 2:17.52 | 219096 | 229422
22 | 50:58.73 | 2:37.12 | 229423 | 241209
23 | 53:36.10 | 2:25.20 | 241210 | 252104
24 | 56:01.30 | 2:48.21 | 252105 | 264725
25 | 58:49.51 | 2:03.19 | 264726 | 273969


Track 1

Filename E:\D\Torrents\VA - Let The Good Times Roll (The Aladdin Story) 2012\Disc 1\01. Shirley & Lee - Let the Good Times Roll.wav

Pre-gap length 0:00:02.00

Peak level 98.6 %
Extraction speed 4.2 X
Track quality 100.0 %
Test CRC F894579E
Copy CRC F894579E
Accurately ripped (confidence 5) [96113719] (AR v2)
Copy OK

Track 2

Filename E:\D\Torrents\VA - Let The Good Times Roll (The Aladdin Story) 2012\Disc 1\02. Gene & Eunice - Ko Ko Mo (I Love You So).wav

Pre-gap length 0:00:01.58

Peak level 98.4 %
Extraction speed 4.6 X
Track quality 100.0 %
Test CRC 51DFE698
Copy CRC 51DFE698
Accurately ripped (confidence 5) [0AB6AE19] (AR v2)
Copy OK

Track 3

Filename E:\D\Torrents\VA - Let The Good Times Roll (The Aladdin Story) 2012\Disc 1\03. Thurston Harris & the Sharps - Little Bitty Pretty One.wav

Pre-gap length 0:00:01.58

Peak level 98.8 %
Extraction speed 4.7 X
Track quality 100.0 %
Test CRC 7379D086
Copy CRC 7379D086
Accurately ripped (confidence 5) [ECC731D2] (AR v2)
Copy OK

Track 4

Filename E:\D\Torrents\VA - Let The Good Times Roll (The Aladdin Story) 2012\Disc 1\04. Bobby Wall - Baby It's Too Much.wav

Pre-gap length 0:00:01.58

Peak level 98.3 %
Extraction speed 4.8 X
Track quality 100.0 %
Test CRC ED63552E
Copy CRC ED63552E
Accurately ripped (confidence 5) [A19BDF87] (AR v2)
Copy OK

Track 5

Filename E:\D\Torrents\VA - Let The Good Times Roll (The Aladdin Story) 2012\Disc 1\05. Marvn & Johnny - Smack Smack.wav

Pre-gap length 0:00:01.58

Peak level 98.7 %
Extraction speed 4.8 X
Track quality 100.0 %
Test CRC 4AE30327
Copy CRC 4AE30327
Accurately ripped (confidence 5) [6AD1E0A6] (AR v2)
Copy OK

Track 6

Filename E:\D\Torrents\VA - Let The Good Times Roll (The Aladdin Story) 2012\Disc 1\06. Aggie Dukes - John John.wav

Pre-gap length 0:00:01.58

Peak level 98.3 %
Extraction speed 4.9 X
Track quality 100.0 %
Test CRC 575307E3
Copy CRC 575307E3
Accurately ripped (confidence 5) [7EDD8163] (AR v2)
Copy OK

Track 7

Filename E:\D\Torrents\VA - Let The Good Times Roll (The Aladdin Story) 2012\Disc 1\07. Jeanette & Decky - Crazy With You.wav

Pre-gap length 0:00:01.58

Peak level 98.3 %
Extraction speed 5.5 X
Track quality 100.0 %
Test CRC D1054D01
Copy CRC D1054D01
Accurately ripped (confidence 5) [D13AAA31] (AR v2)
Copy OK

Track 8

Filename E:\D\Torrents\VA - Let The Good Times Roll (The Aladdin Story) 2012\Disc 1\08. Amos Milburn - Chicken Shack Boogie.wav

Pre-gap length 0:00:01.58

Peak level 98.4 %
Extraction speed 5.9 X
Track quality 100.0 %
Test CRC CE759F02
Copy CRC CE759F02
Accurately ripped (confidence 5) [944C66F0] (AR v2)
Copy OK

Track 9

Filename E:\D\Torrents\VA - Let The Good Times Roll (The Aladdin Story) 2012\Disc 1\09. The Five Keys - The Glory of Love.wav

Pre-gap length 0:00:01.58

Peak level 98.4 %
Extraction speed 4.7 X
Track quality 99.9 %
Test CRC 5CACD9AB
Copy CRC 5CACD9AB
Accurately ripped (confidence 5) [5B9366DB] (AR v2)
Copy OK

Track 10

Filename E:\D\Torrents\VA - Let The Good Times Roll (The Aladdin Story) 2012\Disc 1\10. The Chestnuts - Wiggle Wiggle.wav

Pre-gap length 0:00:01.58

Peak level 98.3 %
Extraction speed 5.8 X
Track quality 100.0 %
Test CRC DE15833C
Copy CRC DE15833C
Accurately ripped (confidence 5) [25D3918D] (AR v2)
Copy OK

Track 11

Filename E:\D\Torrents\VA - Let The Good Times Roll (The Aladdin Story) 2012\Disc 1\11. Lightnin' Hopkins - Shotgun Blues.wav

Pre-gap length 0:00:01.58

Peak level 98.3 %
Extraction speed 6.3 X
Track quality 100.0 %
Test CRC 3E58D7FC
Copy CRC 3E58D7FC
Accurately ripped (confidence 5) [6E967400] (AR v2)
Copy OK

Track 12

Filename E:\D\Torrents\VA - Let The Good Times Roll (The Aladdin Story) 2012\Disc 1\12. The Crystals - I Love My Baby.wav

Pre-gap length 0:00:01.58

Peak level 98.5 %
Extraction speed 6.3 X
Track quality 100.0 %
Test CRC D30490A2
Copy CRC D30490A2
Accurately ripped (confidence 5) [54D398A5] (AR v2)
Copy OK

Track 13

Filename E:\D\Torrents\VA - Let The Good Times Roll (The Aladdin Story) 2012\Disc 1\13. The Daybreakers - Up, Up and Away.wav

Pre-gap length 0:00:01.58

Peak level 98.3 %
Extraction speed 4.1 X
Track quality 99.9 %
Test CRC BAF0C4C4
Copy CRC BAF0C4C4
Accurately ripped (confidence 5) [7202F5AE] (AR v2)
Copy OK

Track 14

Filename E:\D\Torrents\VA - Let The Good Times Roll (The Aladdin Story) 2012\Disc 1\14. The Sharps - Our Love Is Here to Stay.wav

Pre-gap length 0:00:01.58

Peak level 98.3 %
Extraction speed 7.1 X
Track quality 100.0 %
Test CRC BDA22AD2
Copy CRC BDA22AD2
Accurately ripped (confidence 5) [698456CC] (AR v2)
Copy OK

Track 15

Filename E:\D\Torrents\VA - Let The Good Times Roll (The Aladdin Story) 2012\Disc 1\15. Flip Sloan - Little Girl in the Cabin.wav

Pre-gap length 0:00:01.58

Peak level 98.6 %
Extraction speed 6.8 X
Track quality 100.0 %
Test CRC 2A99DAD9
Copy CRC 2A99DAD9
Accurately ripped (confidence 5) [3ED1DD6E] (AR v2)
Copy OK

Track 16

Filename E:\D\Torrents\VA - Let The Good Times Roll (The Aladdin Story) 2012\Disc 1\16. The Lovers - Tell Me.wav

Pre-gap length 0:00:01.58

Peak level 98.5 %
Extraction speed 7.1 X
Track quality 100.0 %
Test CRC 1C161CCB
Copy CRC 1C161CCB
Accurately ripped (confidence 5) [26B91C4D] (AR v2)
Copy OK

Track 17

Filename E:\D\Torrents\VA - Let The Good Times Roll (The Aladdin Story) 2012\Disc 1\17. The Heart Throbs - So Glad.wav

Pre-gap length 0:00:01.58

Peak level 98.0 %
Extraction speed 6.9 X
Track quality 100.0 %
Test CRC 73C5BEEA
Copy CRC 73C5BEEA
Accurately ripped (confidence 5) [084D8686] (AR v2)
Copy OK

Track 18

Filename E:\D\Torrents\VA - Let The Good Times Roll (The Aladdin Story) 2012\Disc 1\18. Jesse Belvin - Let Me Dream.wav

Pre-gap length 0:00:01.58

Peak level 98.3 %
Extraction speed 7.2 X
Track quality 100.0 %
Test CRC 3163EE29
Copy CRC 3163EE29
Accurately ripped (confidence 5) [A0AB7473] (AR v2)
Copy OK

Track 19

Filename E:\D\Torrents\VA - Let The Good Times Roll (The Aladdin Story) 2012\Disc 1\19. John & Jackie - Little Girl.wav

Pre-gap length 0:00:01.58

Peak level 98.5 %
Extraction speed 7.2 X
Track quality 100.0 %
Test CRC E72F3E35
Copy CRC E72F3E35
Accurately ripped (confidence 5) [4E6CD579] (AR v2)
Copy OK

Track 20

Filename E:\D\Torrents\VA - Let The Good Times Roll (The Aladdin Story) 2012\Disc 1\20. Lowell Fulson - Don't Leave Me Baby.wav

Pre-gap length 0:00:01.58

Peak level 98.4 %
Extraction speed 7.8 X
Track quality 100.0 %
Test CRC E60E0EBF
Copy CRC E60E0EBF
Accurately ripped (confidence 5) [F09AA5DF] (AR v2)
Copy OK

Track 21

Filename E:\D\Torrents\VA - Let The Good Times Roll (The Aladdin Story) 2012\Disc 1\21. Gene & Eunice - This Is My Story.wav

Pre-gap length 0:00:01.58

Peak level 98.4 %
Extraction speed 7.6 X
Track quality 100.0 %
Test CRC A083CC9D
Copy CRC A083CC9D
Accurately ripped (confidence 5) [8F8E17C0] (AR v2)
Copy OK

Track 22

Filename E:\D\Torrents\VA - Let The Good Times Roll (The Aladdin Story) 2012\Disc 1\22. Louis Jordan - Dad Gum Ya Hide Boy.wav

Pre-gap length 0:00:01.58

Peak level 98.3 %
Extraction speed 8.0 X
Track quality 100.0 %
Test CRC 45E96833
Copy CRC 45E96833
Accurately ripped (confidence 5) [BFAC7F2A] (AR v2)
Copy OK

Track 23

Filename E:\D\Torrents\VA - Let The Good Times Roll (The Aladdin Story) 2012\Disc 1\23. The Aladsins - Remember.wav

Pre-gap length 0:00:01.58

Peak level 98.3 %
Extraction speed 7.9 X
Track quality 100.0 %
Test CRC 33951DD5
Copy CRC 33951DD5
Accurately ripped (confidence 5) [22AAB5A0] (AR v2)
Copy OK

Track 24

Filename E:\D\Torrents\VA - Let The Good Times Roll (The Aladdin Story) 2012\Disc 1\24. Floyd Dixon - Sad Journey Blues.wav

Pre-gap length 0:00:01.58

Peak level 98.3 %
Extraction speed 6.0 X
Track quality 99.9 %
Test CRC 75EF590E
Copy CRC 75EF590E
Accurately ripped (confidence 5) [3706A103] (AR v2)
Copy OK

Track 25

Filename E:\D\Torrents\VA - Let The Good Times Roll (The Aladdin Story) 2012\Disc 1\25. The Squires - Dreamy Eyes.wav

Pre-gap length 0:00:01.58

Peak level 98.3 %
Extraction speed 10.0 X
Track quality 100.0 %
Test CRC BFBD85FD
Copy CRC BFBD85FD
Accurately ripped (confidence 5) [03DD3734] (AR v2)
Copy OK


All tracks accurately ripped

No errors occurred

End of status report

–– CUETools DB Plugin V2.1.3

[CTDB TOCID: skLfhmpEjj2d8nLLwdWU3hqTeoM-] found, Submit result: already submitted
[059ee7ea] (6/6) Accurately ripped


==== Log checksum 4A34790A9BD8722287A12C542797E62754E2026E58968C03637422022AC3CFDB ====

foobar2000 1.2 / Dynamic Range Meter 1.1.1
log date: 2016-02-28 14:49:26

––––––––––––––––––––––––––––––––––––––––
Analyzed: Aggie Dukes / The Aladdin Story Disc 1 (1)
Amos Milburn / The Aladdin Story Disc 1 (2)
Bobby Wall / The Aladdin Story Disc 1 (3)
Flip Sloan / The Aladdin Story Disc 1 (4)
Floyd Dixon / The Aladdin Story Disc 1 (5)
Gene & Eunice / The Aladdin Story Disc 1 (6-7)
Jeanette & Decky / The Aladdin Story Disc 1 (8)
Jesse Belvin / The Aladdin Story Disc 1 (9)
John & Jackie / The Aladdin Story Disc 1 (10)
Lightnin' Hopkins / The Aladdin Story Disc 1 (11)
Louis Jordan / The Aladdin Story Disc 1 (12)
Lowell Fulson / The Aladdin Story Disc 1 (13)
Marvn & Johnny / The Aladdin Story Disc 1 (14)
Shirley & Lee / The Aladdin Story Disc 1 (15)
The Aladsins / The Aladdin Story Disc 1 (16)
The Chestnuts / The Aladdin Story Disc 1 (17)
The Crystals / The Aladdin Story Disc 1 (18)
The Daybreakers / The Aladdin Story Disc 1 (19)
The Five Keys / The Aladdin Story Disc 1 (20)
The Heart Throbs / The Aladdin Story Disc 1 (21)
The Lovers / The Aladdin Story Disc 1 (22)
The Sharps / The Aladdin Story Disc 1 (23)
The Squires / The Aladdin Story Disc 1 (24)
Thurston Harris & the Sharps / The Aladdin Story Disc 1 (25)
––––––––––––––––––––––––––––––––––––––––

DR Peak RMS Duration Track
––––––––––––––––––––––––––––––––––––––––
DR9 -0.15 dB -10.88 dB 1:48 06-John John
DR8 -0.13 dB -9.21 dB 2:51 08-Chicken Shack Boogie
DR9 -0.14 dB -10.05 dB 2:03 04-Baby It's Too Much
DR9 -0.12 dB -10.44 dB 2:20 15-Little Girl in the Cabin
DR8 -0.15 dB -10.65 dB 2:48 24-Sad Journey Blues
DR10 -0.14 dB -11.62 dB 2:49 02-Ko Ko Mo (I Love You So)
DR10 -0.14 dB -12.06 dB 2:18 21-This Is My Story
DR8 -0.15 dB -9.63 dB 2:32 07-Crazy With You
DR10 -0.14 dB -11.15 dB 2:18 18-Let Me Dream
DR8 -0.13 dB -8.75 dB 2:14 19-Little Girl
DR9 -0.15 dB -12.47 dB 2:40 11-Shotgun Blues
DR11 -0.15 dB -12.16 dB 2:37 22-Dad Gum Ya Hide Boy
DR9 -0.14 dB -11.82 dB 3:01 20-Don't Leave Me Baby
DR8 -0.11 dB -9.83 dB 1:55 05-Smack Smack
DR8 -0.12 dB -10.22 dB 2:25 01-Let the Good Times Roll
DR9 -0.15 dB -11.22 dB 2:25 23-Remember
DR9 -0.15 dB -11.00 dB 1:58 10-Wiggle Wiggle
DR9 -0.13 dB -10.08 dB 2:18 12-I Love My Baby
DR8 -0.15 dB -9.33 dB 1:56 13-Up, Up and Away
DR8 -0.14 dB -9.75 dB 3:09 09-The Glory of Love
DR9 -0.17 dB -10.46 dB 2:21 17-So Glad
DR9 -0.13 dB -10.28 dB 2:40 16-Tell Me
DR9 -0.14 dB -10.69 dB 2:58 14-Our Love Is Here to Stay
DR11 -0.14 dB -12.08 dB 2:03 25-Dreamy Eyes
DR11 -0.10 dB -12.85 dB 2:23 03-Little Bitty Pretty One
––––––––––––––––––––––––––––––––––––––––

Number of tracks: 25
Official DR value: DR9

Samplerate: 44100 Hz
Channels: 2
Bits per sample: 16
Bitrate: 525 kbps
Codec: FLAC
================================================================================


Exact Audio Copy V1.0 beta 3 from 29. August 2011

EAC extraction logfile from 4. February 2016, 22:02

Various / The Aladdin Story Disc 2

Used drive : ASUS DRW-24F1ST a Adapter: 0 ID: 0

Read mode : Secure
Utilize accurate stream : Yes
Defeat audio cache : Yes
Make use of C2 pointers : No

Read offset correction : 6
Overread into Lead-In and Lead-Out : Yes
Fill up missing offset samples with silence : Yes
Delete leading and trailing silent blocks : No
Null samples used in CRC calculations : Yes
Used interface : Native Win32 interface for Win NT & 2000
Gap handling : Appended to previous track

Used output format : User Defined Encoder
Selected bitrate : 1024 kBit/s
Quality : High
Add ID3 tag : No
Command line compressor : C:\Program Files (x86)\Exact Audio Copy v1.0\Flac\flac.exe
Additional command line options : -V -8 -T "Date=%year%" -T "Genre=%genre%" %source%


TOC of the extracted CD

Track | Start | Length | Start sector | End sector
––––––––––––––––––––––––––––-
1 | 0:00.00 | 1:48.44 | 0 | 8143
2 | 1:48.44 | 2:12.51 | 8144 | 18094
3 | 4:01.20 | 2:06.33 | 18095 | 27577
4 | 6:07.53 | 2:34.69 | 27578 | 39196
5 | 8:42.47 | 2:50.64 | 39197 | 52010
6 | 11:33.36 | 2:03.63 | 52011 | 61298
7 | 13:37.24 | 2:22.69 | 61299 | 72017
8 | 16:00.18 | 2:33.14 | 72018 | 83506
9 | 18:33.32 | 2:22.12 | 83507 | 94168
10 | 20:55.44 | 3:00.11 | 94169 | 107679
11 | 23:55.55 | 2:13.29 | 107680 | 117683
12 | 26:09.09 | 2:33.23 | 117684 | 129181
13 | 28:42.32 | 3:02.48 | 129182 | 142879
14 | 31:45.05 | 2:04.36 | 142880 | 152215
15 | 33:49.41 | 2:17.35 | 152216 | 162525
16 | 36:07.01 | 2:49.55 | 162526 | 175255
17 | 38:56.56 | 2:31.29 | 175256 | 186609
18 | 41:28.10 | 2:42.03 | 186610 | 198762
19 | 44:10.13 | 2:54.45 | 198763 | 211857
20 | 47:04.58 | 2:50.08 | 211858 | 224615
21 | 49:54.66 | 3:02.38 | 224616 | 238303
22 | 52:57.29 | 2:29.24 | 238304 | 249502
23 | 55:26.53 | 2:01.09 | 249503 | 258586
24 | 57:27.62 | 2:25.42 | 258587 | 269503
25 | 59:53.29 | 3:00.35 | 269504 | 283038


Track 1

Filename E:\D\Torrents\VA - Let The Good Times Roll (The Aladdin Story) 2012\Disc 2\01. Thurston Harris - Hey Little Girl.wav

Pre-gap length 0:00:02.00

Peak level 98.6 %
Extraction speed 3.8 X
Track quality 100.0 %
Test CRC 6E571744
Copy CRC 6E571744
Accurately ripped (confidence 5) [B5EF383A] (AR v2)
Copy OK

Track 2

Filename E:\D\Torrents\VA - Let The Good Times Roll (The Aladdin Story) 2012\Disc 2\02. Sugar Pie & Pee Wee - One, Two, Let's Rock.wav

Pre-gap length 0:00:01.58

Peak level 98.3 %
Extraction speed 4.3 X
Track quality 100.0 %
Test CRC C302CFB1
Copy CRC C302CFB1
Accurately ripped (confidence 5) [D4D01142] (AR v2)
Copy OK

Track 3

Filename E:\D\Torrents\VA - Let The Good Times Roll (The Aladdin Story) 2012\Disc 2\03. The DeVilles - Do Wop.wav

Pre-gap length 0:00:01.58

Peak level 98.5 %
Extraction speed 4.5 X
Track quality 100.0 %
Test CRC 888F6528
Copy CRC 888F6528
Accurately ripped (confidence 5) [E8994B79] (AR v2)
Copy OK

Track 4

Filename E:\D\Torrents\VA - Let The Good Times Roll (The Aladdin Story) 2012\Disc 2\04. Marvin & Johnny - Yak Yak.wav

Pre-gap length 0:00:01.58

Peak level 98.5 %
Extraction speed 4.9 X
Track quality 100.0 %
Test CRC 747197A3
Copy CRC 747197A3
Accurately ripped (confidence 5) [731BADDC] (AR v2)
Copy OK

Track 5

Filename E:\D\Torrents\VA - Let The Good Times Roll (The Aladdin Story) 2012\Disc 2\05. Shirley & Lee - Feel So Good.wav

Pre-gap length 0:00:01.58

Peak level 98.8 %
Extraction speed 5.3 X
Track quality 100.0 %
Test CRC 351B2D32
Copy CRC 351B2D32
Accurately ripped (confidence 5) [93ABD66D] (AR v2)
Copy OK

Track 6

Filename E:\D\Torrents\VA - Let The Good Times Roll (The Aladdin Story) 2012\Disc 2\06. Big 'T' Tyler - King Kong.wav

Pre-gap length 0:00:01.58

Peak level 98.3 %
Extraction speed 3.5 X
Track quality 99.9 %
Test CRC 3581FD67
Copy CRC 3581FD67
Accurately ripped (confidence 5) [156BF391] (AR v2)
Copy OK

Track 7

Filename E:\D\Torrents\VA - Let The Good Times Roll (The Aladdin Story) 2012\Disc 2\07. Charles Brown - Trouble Blues.wav

Pre-gap length 0:00:01.58

Peak level 98.5 %
Extraction speed 5.4 X
Track quality 100.0 %
Test CRC 539673F7
Copy CRC 539673F7
Accurately ripped (confidence 5) [3E6F6E8F] (AR v2)
Copy OK

Track 8

Filename E:\D\Torrents\VA - Let The Good Times Roll (The Aladdin Story) 2012\Disc 2\08. The Cookies - Don't Let Go (Hold Me, Hold Me, Hold Me).wav

Pre-gap length 0:00:01.58

Peak level 98.5 %
Extraction speed 5.7 X
Track quality 100.0 %
Test CRC 8E441C0A
Copy CRC 8E441C0A
Accurately ripped (confidence 5) [8C0EA5BD] (AR v2)
Copy OK

Track 9

Filename E:\D\Torrents\VA - Let The Good Times Roll (The Aladdin Story) 2012\Disc 2\09. The Five Keys - Hucklebuck With Jimmy.wav

Pre-gap length 0:00:01.58

Peak level 98.3 %
Extraction speed 5.8 X
Track quality 100.0 %
Test CRC 28FFBDEA
Copy CRC 28FFBDEA
Accurately ripped (confidence 5) [33C4A7E8] (AR v2)
Copy OK

Track 10

Filename E:\D\Torrents\VA - Let The Good Times Roll (The Aladdin Story) 2012\Disc 2\10. Floyd Dixon - Call Operator 210.wav

Pre-gap length 0:00:01.58

Peak level 98.5 %
Extraction speed 6.3 X
Track quality 100.0 %
Test CRC 73F16CAC
Copy CRC 73F16CAC
Accurately ripped (confidence 5) [CB52BFEE] (AR v2)
Copy OK

Track 11

Filename E:\D\Torrents\VA - Let The Good Times Roll (The Aladdin Story) 2012\Disc 2\11. The Four Palms - Jeanie, Joanie, Shirley, Toni.wav

Pre-gap length 0:00:01.58

Peak level 98.4 %
Extraction speed 6.0 X
Track quality 100.0 %
Test CRC 3CC702B2
Copy CRC 3CC702B2
Accurately ripped (confidence 5) [6A8A6198] (AR v2)
Copy OK

Track 12

Filename E:\D\Torrents\VA - Let The Good Times Roll (The Aladdin Story) 2012\Disc 2\12. Johnny Inman & the Impollos - You Never Realized.wav

Pre-gap length 0:00:01.58

Peak level 98.5 %
Extraction speed 6.4 X
Track quality 100.0 %
Test CRC 2C07F9B3
Copy CRC 2C07F9B3
Accurately ripped (confidence 5) [92BC4947] (AR v2)
Copy OK

Track 13

Filename E:\D\Torrents\VA - Let The Good Times Roll (The Aladdin Story) 2012\Disc 2\13. Bip & Bop - Ding Dong Ding.wav

Pre-gap length 0:00:01.58

Peak level 98.5 %
Extraction speed 6.9 X
Track quality 100.0 %
Test CRC E93CAB56
Copy CRC E93CAB56
Accurately ripped (confidence 5) [2E1A3826] (AR v2)
Copy OK

Track 14

Filename E:\D\Torrents\VA - Let The Good Times Roll (The Aladdin Story) 2012\Disc 2\14. The Jivers - Ray Pearl.wav

Pre-gap length 0:00:01.58

Peak level 98.4 %
Extraction speed 4.4 X
Track quality 99.9 %
Test CRC 491FE81B
Copy CRC 491FE81B
Accurately ripped (confidence 5) [8B9F2B7C] (AR v2)
Copy OK

Track 15

Filename E:\D\Torrents\VA - Let The Good Times Roll (The Aladdin Story) 2012\Disc 2\15. Thurston Harris - Over and Over.wav

Pre-gap length 0:00:01.58

Peak level 98.3 %
Extraction speed 4.6 X
Track quality 99.9 %
Test CRC 52AFE093
Copy CRC 52AFE093
Accurately ripped (confidence 5) [297EB87A] (AR v2)
Copy OK

Track 16

Filename E:\D\Torrents\VA - Let The Good Times Roll (The Aladdin Story) 2012\Disc 2\16. Lee Allen - Rockin' at Cosmo's.wav

Pre-gap length 0:00:01.58

Peak level 98.4 %
Extraction speed 7.1 X
Track quality 100.0 %
Test CRC 539DA18A
Copy CRC 539DA18A
Accurately ripped (confidence 5) [BD6A9690] (AR v2)
Copy OK

Track 17

Filename E:\D\Torrents\VA - Let The Good Times Roll (The Aladdin Story) 2012\Disc 2\17. The Shades - One Touch of Heaven.wav

Pre-gap length 0:00:01.58

Peak level 98.8 %
Extraction speed 4.9 X
Track quality 99.9 %
Test CRC 8917620D
Copy CRC 8917620D
Accurately ripped (confidence 5) [E39CBE3B] (AR v2)
Copy OK

Track 18

Filename E:\D\Torrents\VA - Let The Good Times Roll (The Aladdin Story) 2012\Disc 2\18. Louis Jordan - Messy Bessy.wav

Pre-gap length 0:00:01.58

Peak level 98.4 %
Extraction speed 7.4 X
Track quality 100.0 %
Test CRC AD8A1319
Copy CRC AD8A1319
Accurately ripped (confidence 5) [A02BA441] (AR v2)
Copy OK

Track 19

Filename E:\D\Torrents\VA - Let The Good Times Roll (The Aladdin Story) 2012\Disc 2\19. Ray Ellis & Orchestra - Darling, It's Wonderful.wav

Pre-gap length 0:00:01.58

Peak level 98.3 %
Extraction speed 5.7 X
Track quality 99.9 %
Test CRC D2E8B3D6
Copy CRC D2E8B3D6
Accurately ripped (confidence 5) [AAA749CE] (AR v2)
Copy OK

Track 20

Filename E:\D\Torrents\VA - Let The Good Times Roll (The Aladdin Story) 2012\Disc 2\20. Crawford Brothers - I Ain't Guilty.wav

Pre-gap length 0:00:01.58

Peak level 98.4 %
Extraction speed 7.9 X
Track quality 100.0 %
Test CRC 25902960
Copy CRC 25902960
Accurately ripped (confidence 5) [1D628ED1] (AR v2)
Copy OK

Track 21

Filename E:\D\Torrents\VA - Let The Good Times Roll (The Aladdin Story) 2012\Disc 2\21. Fatso Theus & the Flairs - Be Cool My Heart.wav

Pre-gap length 0:00:01.58

Peak level 98.5 %
Extraction speed 8.1 X
Track quality 100.0 %
Test CRC FFE27F7E
Copy CRC FFE27F7E
Accurately ripped (confidence 5) [5530341C] (AR v2)
Copy OK

Track 22

Filename E:\D\Torrents\VA - Let The Good Times Roll (The Aladdin Story) 2012\Disc 2\22. The Monitors - Candy Coated Kisses.wav

Pre-gap length 0:00:01.58

Peak level 98.4 %
Extraction speed 8.0 X
Track quality 100.0 %
Test CRC 5121A044
Copy CRC 5121A044
Accurately ripped (confidence 5) [3EF80465] (AR v2)
Copy OK

Track 23

Filename E:\D\Torrents\VA - Let The Good Times Roll (The Aladdin Story) 2012\Disc 2\23. Billie Holliday - Blue Turning Grey Over You.wav

Pre-gap length 0:00:01.58

Peak level 98.4 %
Extraction speed 7.6 X
Track quality 100.0 %
Test CRC F274B8D9
Copy CRC F274B8D9
Accurately ripped (confidence 5) [F3398BB7] (AR v2)
Copy OK

Track 24

Filename E:\D\Torrents\VA - Let The Good Times Roll (The Aladdin Story) 2012\Disc 2\24. The Rockets - Loch Lomond.wav

Pre-gap length 0:00:01.58

Peak level 98.4 %
Extraction speed 7.9 X
Track quality 100.0 %
Test CRC 2044DAF9
Copy CRC 2044DAF9
Accurately ripped (confidence 5) [DFF46638] (AR v2)
Copy OK

Track 25

Filename E:\D\Torrents\VA - Let The Good Times Roll (The Aladdin Story) 2012\Disc 2\25. The Velvetones - The Glory of Love.wav

Pre-gap length 0:00:01.58

Peak level 98.3 %
Extraction speed 10.3 X
Track quality 100.0 %
Test CRC 15A3A922
Copy CRC 15A3A922
Accurately ripped (confidence 5) [7583A2E9] (AR v2)
Copy OK


All tracks accurately ripped

No errors occurred

End of status report

–– CUETools DB Plugin V2.1.3

[CTDB TOCID: LgYhB_7u5NOOeNe3634sCpx_eok-] found, Submit result: LgYhB_7u5NOOeNe3634sCpx_eok- has been confirmed
[e8660a20] (5/5) Accurately ripped


==== Log checksum 7A55D2DD90AF95F5AD7D6C4B233E87A6529D15BC00D16191C57C6550AA60B198 ====

foobar2000 1.2 / Dynamic Range Meter 1.1.1
log date: 2016-02-28 14:49:41

––––––––––––––––––––––––––––––––––––––––
Analyzed: Big 'T' Tyler / The Aladdin Story Disc 2 (1)
Billie Holliday / The Aladdin Story Disc 2 (2)
Bip & Bop / The Aladdin Story Disc 2 (3)
Charles Brown / The Aladdin Story Disc 2 (4)
Crawford Brothers / The Aladdin Story Disc 2 (5)
Fatso Theus & the Flairs / The Aladdin Story Disc 2 (6)
Floyd Dixon / The Aladdin Story Disc 2 (7)
Johnny Inman & the Impollos / The Aladdin Story Disc 2 (8)
Lee Allen / The Aladdin Story Disc 2 (9)
Louis Jordan / The Aladdin Story Disc 2 (10)
Marvin & Johnny / The Aladdin Story Disc 2 (11)
Ray Ellis & Orchestra / The Aladdin Story Disc 2 (12)
Shirley & Lee / The Aladdin Story Disc 2 (13)
Sugar Pie & Pee Wee / The Aladdin Story Disc 2 (14)
The Cookies / The Aladdin Story Disc 2 (15)
The DeVilles / The Aladdin Story Disc 2 (16)
The Five Keys / The Aladdin Story Disc 2 (17)
The Four Palms / The Aladdin Story Disc 2 (18)
The Jivers / The Aladdin Story Disc 2 (19)
The Monitors / The Aladdin Story Disc 2 (20)
The Rockets / The Aladdin Story Disc 2 (21)
The Shades / The Aladdin Story Disc 2 (22)
The Velvetones / The Aladdin Story Disc 2 (23)
Thurston Harris / The Aladdin Story Disc 2 (24-25)
––––––––––––––––––––––––––––––––––––––––

DR Peak RMS Duration Track
––––––––––––––––––––––––––––––––––––––––
DR10 -0.14 dB -11.92 dB 2:04 06-King Kong
DR10 -0.14 dB -12.14 dB 2:01 23-Blue Turning Grey Over You
DR10 -0.13 dB -11.37 dB 3:03 13-Ding Dong Ding
DR11 -0.13 dB -12.65 dB 2:23 07-Trouble Blues
DR9 -0.14 dB -10.27 dB 2:50 20-I Ain't Guilty
DR9 -0.13 dB -11.06 dB 3:03 21-Be Cool My Heart
DR9 -0.13 dB -11.76 dB 3:00 10-Call Operator 210
DR7 -0.13 dB -8.61 dB 2:33 12-You Never Realized
DR8 -0.14 dB -10.08 dB 2:50 16-Rockin' at Cosmo's
DR8 -0.14 dB -10.27 dB 2:42 18-Messy Bessy
DR9 -0.13 dB -10.04 dB 2:35 04-Yak Yak
DR9 -0.14 dB -10.92 dB 2:55 19-Darling, It's Wonderful
DR10 -0.10 dB -11.53 dB 2:51 05-Feel So Good
DR7 -0.15 dB -8.72 dB 2:13 02-One, Two, Let's Rock
DR6 -0.13 dB -9.00 dB 2:33 08-Don't Let Go (Hold Me, Hold Me, Hold Me)
DR7 -0.13 dB -8.58 dB 2:06 03-Do Wop
DR8 -0.15 dB -9.26 dB 2:22 09-Hucklebuck With Jimmy
DR9 -0.13 dB -10.56 dB 2:13 11-Jeanie, Joanie, Shirley, Toni
DR10 -0.14 dB -11.23 dB 2:04 14-Ray Pearl
DR10 -0.14 dB -11.37 dB 2:29 22-Candy Coated Kisses
DR7 -0.14 dB -10.25 dB 2:26 24-Loch Lomond
DR7 -0.10 dB -8.58 dB 2:31 17-One Touch of Heaven
DR9 -0.14 dB -10.14 dB 3:00 25-The Glory of Love
DR9 -0.12 dB -10.23 dB 1:49 01-Hey Little Girl
DR9 -0.14 dB -9.82 dB 2:17 15-Over and Over
––––––––––––––––––––––––––––––––––––––––

Number of tracks: 25
Official DR value: DR9

Samplerate: 44100 Hz
Channels: 2
Bits per sample: 16
Bitrate: 794 kbps
Codec: FLAC
================================================================================

VA - Let The Good Times Roll: The Aladdin Story (2012) 2CDs

VA - Let The Good Times Roll: The Aladdin Story (2012) 2CDs

All thanks to original releaser - zhconst

More interesting music in My Blog