Subcategories

VA - Muddy Waters: All Star Tribute To A Legend (2011)

Posted By: Designol
VA - Muddy Waters: All Star Tribute To A Legend (2011)

VA - Muddy Waters: All Star Tribute To A Legend (2011)
EAC | FLAC | Image (Cue&Log) ~ 322 Mb | Mp3 (CBR320) ~ 139 Mb | Scans included
Modern Electric Blues | Label: Music Avenue | # 250296 | Time: 00:59:04

Recorded on October 11, 1997 at the John F. Kennedy Center for the Performing Arts, Washington D.C., an impressive All-Star cast of Blues musicians, including Muddy's own son Bill Morganfield, turned out to pay homage to the Legendary Muddy Waters, the King of Blues. Features special guests, John Hiatt, Peter Wolf, Buddy Guy, Koko Taylor, Charlie Musslewhite, Robert Junior Lockwood, Big Bill Morganfield, Nick Gravenites, Mem Shannon and Phoebe Snow.

VA - Muddy Waters: All Star Tribute To A Legend (2011)



Tracklist:

01. Koko Taylor - I'm Ready (3:56)
02. Koko Taylor - Long Distance Call (3:00)
03. Buddy Guy - She's 19 Years Old (7:49)
04. Charlie Musslewhite - I Got A Rich Man's Woman (4:47)
05. Peter Wolf - Rollin' & Tumblin' (2:33)
06. Robert Gravenites - Forty Days & Forty Nights (3:36)
07. Mem Shannon - Gypsy Woman (3:15)
08. John Hiatt - The Same Thing (4:43)
09. Keb' Mo' - I Can't Be Satisfied (3:44)
10. Phoebe Snow - Just To be With You (4:48)
11. Robert Junior Lockwood - Mean Red Spider (4:13)
12. Big Bill Morganfield - Hoochie Coochie Man (5:01)
13. Big Bill Morganfield & VA - Got My Mojo Working (2:51)
14. Muddy Waters - Trouble No More (2:43) - Bonus Track
15. VA - Untitled (2:04) - Hidden


Exact Audio Copy V1.1 from 23. June 2015

EAC extraction logfile from 22. March 2017, 7:03

Various Artists / Muddy Waters All Star Tribute To A Legend

Used drive : Optiarc DVD RW AD-7240S Adapter: 1 ID: 0

Read mode : Secure
Utilize accurate stream : Yes
Defeat audio cache : Yes
Make use of C2 pointers : No

Read offset correction : 48
Overread into Lead-In and Lead-Out : No
Fill up missing offset samples with silence : Yes
Delete leading and trailing silent blocks : No
Null samples used in CRC calculations : Yes
Used interface : Native Win32 interface for Win NT & 2000

Used output format : User Defined Encoder
Selected bitrate : 896 kBit/s
Quality : High
Add ID3 tag : No
Command line compressor : C:\Program Files (x86)\Exact Audio Copy\Flac\flac.exe
Additional command line options : -6 -V -T "ARTIST=%artist%" -T "TITLE=%title%" -T "ALBUM=%albumtitle%" -T "DATE=%year%" -T "TRACKNUMBER=%tracknr%" -T "GENRE=%genre%" -T "COMMENT=%comment%" -T "BAND=%albuminterpret%" -T "COMPOSER=%composer%" %haslyrics%–tag-from-file=LYRICS="%lyricsfile%"%haslyrics% -T "DISCNUMBER=%cdnumber%" -T "TOTALDISCS=%totalcds%" -T "TOTALTRACKS=%numtracks%" %hascover%–picture="%coverfile%"%hascover% %source% -o %dest%


TOC of the extracted CD

Track | Start | Length | Start sector | End sector
––––––––––––––––––––––––––––-
1 | 0:00.00 | 3:56.37 | 0 | 17736
2 | 3:56.37 | 2:59.63 | 17737 | 31224
3 | 6:56.25 | 7:49.30 | 31225 | 66429
4 | 14:45.55 | 4:47.30 | 66430 | 87984
5 | 19:33.10 | 2:32.48 | 87985 | 99432
6 | 22:05.58 | 3:36.00 | 99433 | 115632
7 | 25:41.58 | 3:15.10 | 115633 | 130267
8 | 28:56.68 | 4:43.32 | 130268 | 151524
9 | 33:40.25 | 3:43.47 | 151525 | 168296
10 | 37:23.72 | 4:48.20 | 168297 | 189916
11 | 42:12.17 | 4:12.50 | 189917 | 208866
12 | 46:24.67 | 5:00.50 | 208867 | 231416
13 | 51:25.42 | 2:51.22 | 231417 | 244263
14 | 54:16.64 | 2:42.63 | 244264 | 256476
15 | 56:59.52 | 2:04.20 | 256477 | 265796


Range status and errors

Selected range

Filename D:\My Music Archive_D\__My Rips\Various Artists - Muddy Waters All Star Tribute To A Legend\Various Artists - Muddy Waters All Star Tribute To A Legend.wav

Peak level 100.0 %
Extraction speed 4.1 X
Range quality 100.0 %
Test CRC A65F008C
Copy CRC A65F008C
Copy OK

No errors occurred


AccurateRip summary

Track 1 accurately ripped (confidence 2) [87CD20D9] (AR v2)
Track 2 accurately ripped (confidence 2) [A1AC9C50] (AR v2)
Track 3 accurately ripped (confidence 2) [E94863BA] (AR v2)
Track 4 accurately ripped (confidence 2) [C7ECD140] (AR v2)
Track 5 accurately ripped (confidence 2) [18AE1171] (AR v2)
Track 6 accurately ripped (confidence 2) [CB541B30] (AR v2)
Track 7 accurately ripped (confidence 2) [59C68F00] (AR v2)
Track 8 accurately ripped (confidence 2) [56298AE6] (AR v2)
Track 9 accurately ripped (confidence 2) [227B5073] (AR v2)
Track 10 accurately ripped (confidence 2) [85DC9233] (AR v2)
Track 11 accurately ripped (confidence 2) [F819985B] (AR v2)
Track 12 accurately ripped (confidence 2) [CD54CCBA] (AR v2)
Track 13 accurately ripped (confidence 2) [665EC473] (AR v2)
Track 14 accurately ripped (confidence 2) [469DC759] (AR v2)
Track 15 accurately ripped (confidence 2) [50CF1B45] (AR v2)

All tracks accurately ripped

End of status report

==== Log checksum F6D93885F43EE32CDADFD584B40461D7C462C72FACFF41B86A1F6A9877E0ED32 ====

foobar2000 1.2 / Dynamic Range Meter 1.1.1
log date: 2017-06-24 18:50:12

––––––––––––––––––––––––––––––––––––––––
Analyzed: Guy / Muddy Waters All Star Tribute To A Legend (1)
Hiatt / Muddy Waters All Star Tribute To A Legend (2)
Junior, Lockwood / Muddy Waters All Star Tribute To A Legend (3)
––––––––––––––––––––––––––––––––––––––––

DR Peak RMS Duration Track
––––––––––––––––––––––––––––––––––––––––
DR10 0.00 dB -15.28 dB 7:49 03-She's 19 Years Old
DR10 0.00 dB -12.42 dB 4:43 08-The Same Thing
DR10 0.00 dB -11.93 dB 4:13 11-Mean Red Spider
––––––––––––––––––––––––––––––––––––––––

Number of tracks: 3
Official DR value: DR10

Samplerate: 44100 Hz
Channels: 2
Bits per sample: 16
Bitrate: 753 kbps
Codec: FLAC
================================================================================

––––––––––––––––––––––––––––––––––––––––
Analyzed: Keb Mo / Muddy Waters All Star Tribute To A Legend (1)
Morganfield / Muddy Waters All Star Tribute To A Legend (2-3)
––––––––––––––––––––––––––––––––––––––––

DR Peak RMS Duration Track
––––––––––––––––––––––––––––––––––––––––
DR10 0.00 dB -12.92 dB 3:44 09-I Can't Be Satisfied
DR9 0.00 dB -11.49 dB 5:01 12-Hoochie Coochie Man
DR9 -1.00 dB -11.10 dB 2:51 13-Got My Mojo Working
––––––––––––––––––––––––––––––––––––––––

Number of tracks: 3
Official DR value: DR9

Samplerate: 44100 Hz
Channels: 2
Bits per sample: 16
Bitrate: 753 kbps
Codec: FLAC
================================================================================

––––––––––––––––––––––––––––––––––––––––
Analyzed: Musselwhite / Muddy Waters All Star Tribute To A Legend (1)
Shannon / Muddy Waters All Star Tribute To A Legend (2)
Snow / Muddy Waters All Star Tribute To A Legend (3)
––––––––––––––––––––––––––––––––––––––––

DR Peak RMS Duration Track
––––––––––––––––––––––––––––––––––––––––
DR11 0.00 dB -13.56 dB 4:47 04-I Got A Rich Man's Woman
DR9 0.00 dB -11.04 dB 3:15 07-Gypsy Woman
DR9 0.00 dB -12.87 dB 4:48 10-Just To be With You
––––––––––––––––––––––––––––––––––––––––

Number of tracks: 3
Official DR value: DR10

Samplerate: 44100 Hz
Channels: 2
Bits per sample: 16
Bitrate: 753 kbps
Codec: FLAC
================================================================================

––––––––––––––––––––––––––––––––––––––––
Analyzed: Taylor / Muddy Waters All Star Tribute To A Legend (1-2)
Unknown Artist / Muddy Waters All Star Tribute To A Legend (3)
––––––––––––––––––––––––––––––––––––––––

DR Peak RMS Duration Track
––––––––––––––––––––––––––––––––––––––––
DR10 0.00 dB -12.63 dB 3:56 01-I'm Ready
DR10 0.00 dB -12.37 dB 3:00 02-Long Distance Call
DR11 -1.61 dB -14.69 dB 2:04 15-[Untitled}
––––––––––––––––––––––––––––––––––––––––

Number of tracks: 3
Official DR value: DR10

Samplerate: 44100 Hz
Channels: 2
Bits per sample: 16
Bitrate: 753 kbps
Codec: FLAC
================================================================================

––––––––––––––––––––––––––––––––––––––––
Statistics for: 14-Trouble No More
Number of samples: 7181244
Duration: 2:43
––––––––––––––––––––––––––––––––––––––––

Left Right

Peak Value: -0.64 dB –- -0.48 dB
Avg RMS: -12.41 dB –- -12.66 dB
DR channel: 10.07 dB –- 10.36 dB
––––––––––––––––––––––––––––––––––––––––

Official DR Value: DR10

Samplerate: 44100 Hz
Channels: 2
Bits per sample: 16
Bitrate: 753 kbps
Codec: FLAC
================================================================================
––––––––––––––––––––––––––––––––––––––––
Statistics for: 05-Rollin' & Tumblin'
Number of samples: 6731424
Duration: 2:33
––––––––––––––––––––––––––––––––––––––––

Left Right

Peak Value: 0.00 dB –- 0.00 dB
Avg RMS: -10.37 dB –- -9.50 dB
DR channel: 8.40 dB –- 7.88 dB
––––––––––––––––––––––––––––––––––––––––

Official DR Value: DR8

Samplerate: 44100 Hz
Channels: 2
Bits per sample: 16
Bitrate: 753 kbps
Codec: FLAC
================================================================================
foobar2000 1.2 / Dynamic Range Meter 1.1.1
log date: 2017-06-24 18:50:05

––––––––––––––––––––––––––––––––––––––––
Statistics for: 06-Forty Days & Forty Nights
Number of samples: 9525600
Duration: 3:36
––––––––––––––––––––––––––––––––––––––––

Left Right

Peak Value: 0.00 dB –- 0.00 dB
Avg RMS: -9.67 dB –- -10.58 dB
DR channel: 7.39 dB –- 8.50 dB
––––––––––––––––––––––––––––––––––––––––

Official DR Value: DR8

Samplerate: 44100 Hz
Channels: 2
Bits per sample: 16
Bitrate: 753 kbps
Codec: FLAC
================================================================================

VA - Muddy Waters: All Star Tribute To A Legend (2011)

VA - Muddy Waters: All Star Tribute To A Legend (2011)