Tags
Language
Tags

VA - Now 100 Hits 70s (5CD, 2020)

Posted By: ciklon5
VA - Now 100 Hits 70s (5CD, 2020)

VA - Now 100 Hits 70s (5CD, 2020)
FLAC (tracks + .cue,log) | 5:58:53 | 2,27 Gb
Genre: Pop, Rock, Dance, Disco, Funk, Soul, R&B, 70s / Label: Now Music

Enjoy this Compilation with the most successful Now 100 Hits 70s singers like Queen, Blondie, Earth, Wind & Fire, Electric Light Orchestra and many more!

Track List:
CD1
[03:01] 01. Queen - Killer Queen
[03:19] 02. The Buggles - Video Killed The Radio Star
[03:23] 03. Blondie - Heart Of Glass
[04:51] 04. Earth, Wind & Fire with The Emotions - Boogie Wonderland
[03:29] 05. The Four Seasons - December, 1963 (Oh What A Night)
[03:51] 06. Gladys Knight And The Pips - Midnight Train To Georgia
[02:04] 07. Bill Withers - Ain't No Sunshine
[04:54] 08. Ike & Tina Turner - Proud Mary
[02:46] 09. Curtis Mayfield - Move On Up
[03:33] 10. Sister Sledge - We Are Family
[02:59] 11. The O'Jays - Love Train
[02:53] 12. The Specials Feat. Rico - A Message To You Rudy
[03:32] 13. Electric Light Orchestra - Livin' Thing
[04:34] 14. Billy Joel - Piano Man
[02:59] 15. John Denver - Annie's Song
[03:52] 16. Steve Harley & Cockney Rebel - Make Me Smile (Come Up And See Me)
[03:53] 17. Marvin Gaye - What's Going On
[03:38] 18. Barry White - You're The First, The Last, My Everything
[02:55] 19. Freda Payne - Band Of Gold
[03:43] 20. 10cc - I'm Not In Love

CD2
[03:22] 01. John Lennon , The Plastic Ono Band & Yoko Ono - Instant Karma! (We All Shine On)
[02:57] 02. Bryan Ferry - Let's Stick Together
[03:56] 03. The Sugarhill Gang - Rapper's Delight
[03:55] 04. LaBelle - Lady Marmalade
[03:34] 05. McFadden & Whitehead - Ain't No Stoppin' Us Now
[03:03] 06. Tina Charles - I Love To Love
[03:35] 07. Billy Paul - Me And Mrs. Jones
[03:36] 08. Commodores - Three Times A Lady
[04:11] 09. The Three Degrees - Woman In Love
[03:00] 10. Sly & The Family Stone - Family Affair
[03:06] 11. Harry J Allstars - Liquidator
[02:14] 12. R. Dean Taylor - There's A Ghost In My House
[02:41] 13. Chairmen Of The Board - Give Me Just A Little More Time
[03:04] 14. KC & The Sunshine Band - That's The Way (I Like It)
[03:04] 15. Smokey Robinson & The Miracles - The Tears Of A Clown
[03:37] 16. Chic - Good Times
[04:04] 17. Van McCoy & The Soul City Symphony - The Hustle
[03:36] 18. Heatwave - Boogie Nights
[04:08] 19. Diana Ross - Ain't No Mountain High Enough
[03:18] 20. Minnie Riperton - Lovin' You

CD3
[04:12] 01. ABBA - Fernando
[03:11] 02. Fleetwood Mac - Don't Stop
[03:42] 03. Paul McCartney - Another Day
[03:54] 04. Chicago - If You Leave Me Now
[03:21] 05. Harry Nilsson - Without You
[03:17] 06. Barry Manilow - Mandy
[03:23] 07. Patti Smith Group - Because The Night
[04:29] 08. Kate Bush - Wuthering Heights
[04:10] 09. Meat Loaf - You Took The Words Right Out Of My Mouth (Hot Summer Night)
[03:19] 10. Foreigner - Cold As Ice
[03:48] 11. Edwin Starr - War
[04:02] 12. The Jam - Down In The Tube Station At Midnight
[05:09] 13. The Boomtown Rats - Rat Trap
[04:23] 14. Rod Stewart - Handbags & Gladrags
[03:25] 15. Terry Jacks - Seasons In The Sun
[04:07] 16. Ralph McTell - Streets Of London
[03:49] 17. Gordon Lightfoot - If You Could Read My Mind
[03:52] 18. Nazareth - Love Hurts
[03:22] 19. Gary Moore & Phil Lynott - Parisienne Walkways
[04:51] 20. Eric Carmen - All By Myself

CD4
[03:45] 01. The Cars - My Best Friend's Girl
[03:38] 02. Joe Jackson - Is She Really Going Out With Him?
[03:46] 03. Roxy Music - Dance Away
[04:55] 04. M - Pop Muzik
[02:23] 05. The Tourists - I Only Want To Be With You
[03:06] 06. Mott The Hoople - Roll Away The Stone
[03:42] 07. Status Quo - Down Down
[03:11] 08. Sweet - Blockbuster
[04:00] 09. The Allman Brothers Band - Jessica
[03:42] 10. Thin Lizzy - Whiskey In The Jar
[04:08] 11. Justin Hayward - Forever Autumn (From Jeff Wayne's Musical Version Of "The War Of The Worlds")
[03:40] 12. Python Lee Jackson Feat. Rod Stewart - In A Broken Dream
[05:41] 13. The Walker Brothers - No Regrets
[03:38] 14. Elkie Brooks - Pearl's A Singer
[04:07] 15. Santana - She's Not There
[03:02] 16. Sparks - This Town Ain't Big Enough For Both Of Us
[02:31] 17. Madness - The Prince
[03:04] 18. Sham 69 - Hurry Up Harry
[03:04] 19. Graham Parker & The Rumour - Hold Back The Night
[04:41] 20. Chris Rea - Fool (If You Think It's Over)

CD5
[03:17] 01. Carl Douglas - Kung Fu Fighting
[02:50] 02. Bay City Rollers - Bye Bye Baby
[03:10] 03. Showaddywaddy - Under The Moon Of Love
[03:30] 04. The Rubettes - Sugar Baby Love
[03:47] 05. Suzi Quatro - Devil Gate Drive
[04:07] 06. Kiki Dee - Amoureuse
[03:36] 07. David Soul - Don't Give Up On Us
[04:26] 08. Matthews' Southern Comfort - Woodstock
[02:19] 09. The New Seekers - I'd Like To Teach The World To Sing (In Perfect Harmony)
[03:24] 10. Dawn feat. Tony Orlando - Tie A Yellow Ribbon Round The Ole Oak Tree
[03:31] 11. The Drifters - Kissin' In The Back Row Of The Movies
[03:57] 12. Third World - Now That We've Found Love
[02:47] 13. Dave Edmunds - I Hear You Knocking
[02:36] 14. Sailor - A Glass Of Champagne
[03:26] 15. Racey - Some Girls
[02:45] 16. Alvin Stardust - My Coo Ca Choo
[03:30] 17. Pilot - January
[03:51] 18. David Essex - Hold Me Close
[03:54] 19. The Isley Brothers - Harvest For The World
[03:41] 20. Racing Cars - They Shoot Horses Don't They?

Exact Audio Copy V1.3 from 2. September 2016

EAC extraction logfile from 18. August 2020, 17:29

Various Artists / Now 100 Hits 70s

Used drive : PLEXTOR PX-891SAF Adapter: 1 ID: 0

Read mode : Secure
Utilize accurate stream : Yes
Defeat audio cache : Yes
Make use of C2 pointers : No

Read offset correction : 6
Overread into Lead-In and Lead-Out : No
Fill up missing offset samples with silence : Yes
Delete leading and trailing silent blocks : No
Null samples used in CRC calculations : Yes
Used interface : Native Win32 interface for Win NT & 2000
Gap handling : Appended to previous track

Used output format : User Defined Encoder
Selected bitrate : 1024 kBit/s
Quality : High
Add ID3 tag : No
Command line compressor : C:\Program Files (x86)\Exact Audio Copy\Flac\flac.exe
Additional command line options : -8 -V -T "ARTIST=%artist%" -T "TITLE=%title%" -T "ALBUM=%albumtitle%" -T "DATE=%year%" -T "TRACKNUMBER=%tracknr%" -T "GENRE=%genre%" -T "PERFORMER=%albuminterpret%" -T "COMPOSER=%composer%" %haslyrics%–tag-from-file=LYRICS="%lyricsfile%"%haslyrics% -T "ALBUMARTIST=%albumartist%" -T "DISCNUMBER=%cdnumber%" -T "TOTALDISCS=%totalcds%" -T "TOTALTRACKS=%numtracks%" -T "COMMENT=%comment%" %source% -o %dest%


TOC of the extracted CD

Track | Start | Length | Start sector | End sector
––––––––––––––––––––––––––––-
1 | 0:00.00 | 3:01.39 | 0 | 13613
2 | 3:01.39 | 3:19.11 | 13614 | 28549
3 | 6:20.50 | 3:23.53 | 28550 | 43827
4 | 9:44.28 | 4:51.18 | 43828 | 65670
5 | 14:35.46 | 3:29.30 | 65671 | 81375
6 | 18:05.01 | 3:51.19 | 81376 | 98719
7 | 21:56.20 | 2:04.24 | 98720 | 108043
8 | 24:00.44 | 4:54.35 | 108044 | 130128
9 | 28:55.04 | 2:46.05 | 130129 | 142583
10 | 31:41.09 | 3:33.66 | 142584 | 158624
11 | 35:15.00 | 2:59.58 | 158625 | 172107
12 | 38:14.58 | 2:53.05 | 172108 | 185087
13 | 41:07.63 | 3:32.46 | 185088 | 201033
14 | 44:40.34 | 4:34.67 | 201034 | 221650
15 | 49:15.26 | 2:59.61 | 221651 | 235136
16 | 52:15.12 | 3:52.44 | 235137 | 252580
17 | 56:07.56 | 3:53.33 | 252581 | 270088
18 | 60:01.14 | 3:38.65 | 270089 | 286503
19 | 63:40.04 | 2:55.35 | 286504 | 299663
20 | 66:35.39 | 3:43.72 | 299664 | 316460


Track 1

Filename D:\#cdr\#wav+flac\#New\VA - Now 100 Hits 70s\cd 1\01. Queen - Killer Queen.wav

Pre-gap length 0:00:02.00

Peak level 97.7 %
Extraction speed 5.4 X
Track quality 100.0 %
Test CRC AA619FF8
Copy CRC AA619FF8
Accurately ripped (confidence 2) [91F7C636] (AR v2)
Copy OK

Track 2

Filename D:\#cdr\#wav+flac\#New\VA - Now 100 Hits 70s\cd 1\02. The Buggles - Video Killed the Radio Star (Single Version).wav

Peak level 97.7 %
Extraction speed 5.9 X
Track quality 100.0 %
Test CRC D86C50C4
Copy CRC D86C50C4
Accurately ripped (confidence 2) [AF082E09] (AR v2)
Copy OK

Track 3

Filename D:\#cdr\#wav+flac\#New\VA - Now 100 Hits 70s\cd 1\03. Blondie - Heart of Glass (7'' Version) [Remastered].wav

Peak level 97.7 %
Extraction speed 6.3 X
Track quality 100.0 %
Test CRC 8C0D4935
Copy CRC 8C0D4935
Accurately ripped (confidence 2) [356BEBEE] (AR v2)
Copy OK

Track 4

Filename D:\#cdr\#wav+flac\#New\VA - Now 100 Hits 70s\cd 1\04. Earth, Wind & Fire Feat. The Emotions - Boogie Wonderland.wav

Peak level 97.7 %
Extraction speed 7.0 X
Track quality 100.0 %
Test CRC A1280325
Copy CRC A1280325
Accurately ripped (confidence 2) [A8732962] (AR v2)
Copy OK

Track 5

Filename D:\#cdr\#wav+flac\#New\VA - Now 100 Hits 70s\cd 1\05. Frankie Valli & The Four Seasons - December, 1963 (Oh, What a Night).wav

Peak level 82.1 %
Extraction speed 7.2 X
Track quality 100.0 %
Test CRC F1BA9521
Copy CRC F1BA9521
Accurately ripped (confidence 2) [1937EFFE] (AR v2)
Copy OK

Track 6

Filename D:\#cdr\#wav+flac\#New\VA - Now 100 Hits 70s\cd 1\06. Gladys Knight & The Pips - Midnight Train to Georgia (Single Version).wav

Peak level 97.7 %
Extraction speed 7.6 X
Track quality 100.0 %
Test CRC 8CC32BBD
Copy CRC 8CC32BBD
Accurately ripped (confidence 2) [FEE96DEA] (AR v2)
Copy OK

Track 7

Filename D:\#cdr\#wav+flac\#New\VA - Now 100 Hits 70s\cd 1\07. Bill Withers - Ain't No Sunshine (Single Version).wav

Peak level 95.0 %
Extraction speed 7.2 X
Track quality 100.0 %
Test CRC 4D59B2C4
Copy CRC 4D59B2C4
Accurately ripped (confidence 2) [B4C07A01] (AR v2)
Copy OK

Track 8

Filename D:\#cdr\#wav+flac\#New\VA - Now 100 Hits 70s\cd 1\08. Ike & Tina Turner - Proud Mary.wav

Peak level 97.7 %
Extraction speed 7.2 X
Track quality 99.9 %
Test CRC CDFBEC3A
Copy CRC CDFBEC3A
Accurately ripped (confidence 2) [7F6B1825] (AR v2)
Copy OK

Track 9

Filename D:\#cdr\#wav+flac\#New\VA - Now 100 Hits 70s\cd 1\09. Curtis Mayfield - Move On Up.wav

Peak level 91.5 %
Extraction speed 8.0 X
Track quality 100.0 %
Test CRC 2DDBD1EE
Copy CRC 2DDBD1EE
Accurately ripped (confidence 2) [DF962C49] (AR v2)
Copy OK

Track 10

Filename D:\#cdr\#wav+flac\#New\VA - Now 100 Hits 70s\cd 1\10. Sister Sledge - We Are Family.wav

Peak level 97.6 %
Extraction speed 8.6 X
Track quality 100.0 %
Test CRC 18D0A108
Copy CRC 18D0A108
Accurately ripped (confidence 2) [79B5D60E] (AR v2)
Copy OK

Track 11

Filename D:\#cdr\#wav+flac\#New\VA - Now 100 Hits 70s\cd 1\11. The O'Jays - Love Train.wav

Peak level 97.7 %
Extraction speed 8.7 X
Track quality 100.0 %
Test CRC 1A562371
Copy CRC 1A562371
Accurately ripped (confidence 2) [CFF67FAE] (AR v2)
Copy OK

Track 12

Filename D:\#cdr\#wav+flac\#New\VA - Now 100 Hits 70s\cd 1\12. The Specials - A Message to You Rudy.wav

Peak level 97.7 %
Extraction speed 8.8 X
Track quality 100.0 %
Test CRC 92B6149B
Copy CRC 92B6149B
Accurately ripped (confidence 2) [F95BF7CA] (AR v2)
Copy OK

Track 13

Filename D:\#cdr\#wav+flac\#New\VA - Now 100 Hits 70s\cd 1\13. Electric Light Orchestra - Livin' Thing.wav

Peak level 97.7 %
Extraction speed 9.3 X
Track quality 100.0 %
Test CRC DAC7B043
Copy CRC DAC7B043
Accurately ripped (confidence 2) [040D787E] (AR v2)
Copy OK

Track 14

Filename D:\#cdr\#wav+flac\#New\VA - Now 100 Hits 70s\cd 1\14. Billy Joel - Piano Man (Radio Edit).wav

Peak level 96.4 %
Extraction speed 8.3 X
Track quality 99.9 %
Test CRC 68B3EF1F
Copy CRC 68B3EF1F
Accurately ripped (confidence 2) [6CB41A32] (AR v2)
Copy OK

Track 15

Filename D:\#cdr\#wav+flac\#New\VA - Now 100 Hits 70s\cd 1\15. John Denver - Annie's Song.wav

Peak level 97.7 %
Extraction speed 9.7 X
Track quality 100.0 %
Test CRC D46FE418
Copy CRC D46FE418
Accurately ripped (confidence 2) [38000AE2] (AR v2)
Copy OK

Track 16

Filename D:\#cdr\#wav+flac\#New\VA - Now 100 Hits 70s\cd 1\16. Steve Harley & Cockney Rebel - Make Me Smile (Come Up and See Me).wav

Peak level 94.4 %
Extraction speed 10.3 X
Track quality 100.0 %
Test CRC BD45187C
Copy CRC BD45187C
Accurately ripped (confidence 2) [B7C6C247] (AR v2)
Copy OK

Track 17

Filename D:\#cdr\#wav+flac\#New\VA - Now 100 Hits 70s\cd 1\17. Marvin Gaye - What's Going On.wav

Peak level 97.7 %
Extraction speed 10.4 X
Track quality 100.0 %
Test CRC 4CAEE2DD
Copy CRC 4CAEE2DD
Accurately ripped (confidence 2) [8BE3D4C3] (AR v2)
Copy OK

Track 18

Filename D:\#cdr\#wav+flac\#New\VA - Now 100 Hits 70s\cd 1\18. Barry White - You're the First, the Last, My Everything.wav

Peak level 97.7 %
Extraction speed 10.6 X
Track quality 100.0 %
Test CRC 9F0F32BA
Copy CRC 9F0F32BA
Accurately ripped (confidence 2) [75C8B3BD] (AR v2)
Copy OK

Track 19

Filename D:\#cdr\#wav+flac\#New\VA - Now 100 Hits 70s\cd 1\19. Freda Payne - Band of Gold.wav

Peak level 94.3 %
Extraction speed 10.3 X
Track quality 100.0 %
Test CRC 7A7733DA
Copy CRC 7A7733DA
Accurately ripped (confidence 2) [EE8B0DB4] (AR v2)
Copy OK

Track 20

Filename D:\#cdr\#wav+flac\#New\VA - Now 100 Hits 70s\cd 1\20. 10cc - I'm Not in Love (Edit).wav

Peak level 70.1 %
Extraction speed 11.2 X
Track quality 100.0 %
Test CRC 97D2E716
Copy CRC 97D2E716
Accurately ripped (confidence 2) [118FD753] (AR v2)
Copy OK


All tracks accurately ripped

No errors occurred

End of status report

–– CUETools DB Plugin V2.1.6

[CTDB TOCID: c3tfBwW6MwCkubMxhVLfTqKWg4E-] found
Submit result: c3tfBwW6MwCkubMxhVLfTqKWg4E- has been confirmed
Track | CTDB Status
1 | (3/3) Accurately ripped
2 | (3/3) Accurately ripped
3 | (3/3) Accurately ripped
4 | (3/3) Accurately ripped
5 | (3/3) Accurately ripped
6 | (3/3) Accurately ripped
7 | (3/3) Accurately ripped
8 | (3/3) Accurately ripped
9 | (3/3) Accurately ripped
10 | (3/3) Accurately ripped
11 | (3/3) Accurately ripped
12 | (3/3) Accurately ripped
13 | (3/3) Accurately ripped
14 | (3/3) Accurately ripped
15 | (3/3) Accurately ripped
16 | (3/3) Accurately ripped
17 | (3/3) Accurately ripped
18 | (3/3) Accurately ripped
19 | (3/3) Accurately ripped
20 | (3/3) Accurately ripped


==== Log checksum 2E31B0B6E29B4880826C2A25D40C64535493E0E4DD349571B2BB87F326ED90C5 ====

––––––––––––––––––––––––––––––

Exact Audio Copy V1.3 from 2. September 2016

EAC extraction logfile from 18. August 2020, 17:29

Various Artists / Now 100 Hits 70s

Used drive : PLEXTOR PX-891SAF Adapter: 1 ID: 0

Read mode : Secure
Utilize accurate stream : Yes
Defeat audio cache : Yes
Make use of C2 pointers : No

Read offset correction : 6
Overread into Lead-In and Lead-Out : No
Fill up missing offset samples with silence : Yes
Delete leading and trailing silent blocks : No
Null samples used in CRC calculations : Yes
Used interface : Native Win32 interface for Win NT & 2000
Gap handling : Appended to previous track

Used output format : User Defined Encoder
Selected bitrate : 1024 kBit/s
Quality : High
Add ID3 tag : No
Command line compressor : C:\Program Files (x86)\Exact Audio Copy\Flac\flac.exe
Additional command line options : -8 -V -T "ARTIST=%artist%" -T "TITLE=%title%" -T "ALBUM=%albumtitle%" -T "DATE=%year%" -T "TRACKNUMBER=%tracknr%" -T "GENRE=%genre%" -T "PERFORMER=%albuminterpret%" -T "COMPOSER=%composer%" %haslyrics%–tag-from-file=LYRICS="%lyricsfile%"%haslyrics% -T "ALBUMARTIST=%albumartist%" -T "DISCNUMBER=%cdnumber%" -T "TOTALDISCS=%totalcds%" -T "TOTALTRACKS=%numtracks%" -T "COMMENT=%comment%" %source% -o %dest%


TOC of the extracted CD

Track | Start | Length | Start sector | End sector
––––––––––––––––––––––––––––-
1 | 0:00.00 | 3:01.39 | 0 | 13613
2 | 3:01.39 | 3:19.11 | 13614 | 28549
3 | 6:20.50 | 3:23.53 | 28550 | 43827
4 | 9:44.28 | 4:51.18 | 43828 | 65670
5 | 14:35.46 | 3:29.30 | 65671 | 81375
6 | 18:05.01 | 3:51.19 | 81376 | 98719
7 | 21:56.20 | 2:04.24 | 98720 | 108043
8 | 24:00.44 | 4:54.35 | 108044 | 130128
9 | 28:55.04 | 2:46.05 | 130129 | 142583
10 | 31:41.09 | 3:33.66 | 142584 | 158624
11 | 35:15.00 | 2:59.58 | 158625 | 172107
12 | 38:14.58 | 2:53.05 | 172108 | 185087
13 | 41:07.63 | 3:32.46 | 185088 | 201033
14 | 44:40.34 | 4:34.67 | 201034 | 221650
15 | 49:15.26 | 2:59.61 | 221651 | 235136
16 | 52:15.12 | 3:52.44 | 235137 | 252580
17 | 56:07.56 | 3:53.33 | 252581 | 270088
18 | 60:01.14 | 3:38.65 | 270089 | 286503
19 | 63:40.04 | 2:55.35 | 286504 | 299663
20 | 66:35.39 | 3:43.72 | 299664 | 316460


Track 1

Filename D:\#cdr\#wav+flac\#New\VA - Now 100 Hits 70s\cd 1\01. Queen - Killer Queen.wav

Pre-gap length 0:00:02.00

Peak level 97.7 %
Extraction speed 5.4 X
Track quality 100.0 %
Test CRC AA619FF8
Copy CRC AA619FF8
Accurately ripped (confidence 2) [91F7C636] (AR v2)
Copy OK

Track 2

Filename D:\#cdr\#wav+flac\#New\VA - Now 100 Hits 70s\cd 1\02. The Buggles - Video Killed the Radio Star (Single Version).wav

Peak level 97.7 %
Extraction speed 5.9 X
Track quality 100.0 %
Test CRC D86C50C4
Copy CRC D86C50C4
Accurately ripped (confidence 2) [AF082E09] (AR v2)
Copy OK

Track 3

Filename D:\#cdr\#wav+flac\#New\VA - Now 100 Hits 70s\cd 1\03. Blondie - Heart of Glass (7'' Version) [Remastered].wav

Peak level 97.7 %
Extraction speed 6.3 X
Track quality 100.0 %
Test CRC 8C0D4935
Copy CRC 8C0D4935
Accurately ripped (confidence 2) [356BEBEE] (AR v2)
Copy OK

Track 4

Filename D:\#cdr\#wav+flac\#New\VA - Now 100 Hits 70s\cd 1\04. Earth, Wind & Fire Feat. The Emotions - Boogie Wonderland.wav

Peak level 97.7 %
Extraction speed 7.0 X
Track quality 100.0 %
Test CRC A1280325
Copy CRC A1280325
Accurately ripped (confidence 2) [A8732962] (AR v2)
Copy OK

Track 5

Filename D:\#cdr\#wav+flac\#New\VA - Now 100 Hits 70s\cd 1\05. Frankie Valli & The Four Seasons - December, 1963 (Oh, What a Night).wav

Peak level 82.1 %
Extraction speed 7.2 X
Track quality 100.0 %
Test CRC F1BA9521
Copy CRC F1BA9521
Accurately ripped (confidence 2) [1937EFFE] (AR v2)
Copy OK

Track 6

Filename D:\#cdr\#wav+flac\#New\VA - Now 100 Hits 70s\cd 1\06. Gladys Knight & The Pips - Midnight Train to Georgia (Single Version).wav

Peak level 97.7 %
Extraction speed 7.6 X
Track quality 100.0 %
Test CRC 8CC32BBD
Copy CRC 8CC32BBD
Accurately ripped (confidence 2) [FEE96DEA] (AR v2)
Copy OK

Track 7

Filename D:\#cdr\#wav+flac\#New\VA - Now 100 Hits 70s\cd 1\07. Bill Withers - Ain't No Sunshine (Single Version).wav

Peak level 95.0 %
Extraction speed 7.2 X
Track quality 100.0 %
Test CRC 4D59B2C4
Copy CRC 4D59B2C4
Accurately ripped (confidence 2) [B4C07A01] (AR v2)
Copy OK

Track 8

Filename D:\#cdr\#wav+flac\#New\VA - Now 100 Hits 70s\cd 1\08. Ike & Tina Turner - Proud Mary.wav

Peak level 97.7 %
Extraction speed 7.2 X
Track quality 99.9 %
Test CRC CDFBEC3A
Copy CRC CDFBEC3A
Accurately ripped (confidence 2) [7F6B1825] (AR v2)
Copy OK

Track 9

Filename D:\#cdr\#wav+flac\#New\VA - Now 100 Hits 70s\cd 1\09. Curtis Mayfield - Move On Up.wav

Peak level 91.5 %
Extraction speed 8.0 X
Track quality 100.0 %
Test CRC 2DDBD1EE
Copy CRC 2DDBD1EE
Accurately ripped (confidence 2) [DF962C49] (AR v2)
Copy OK

Track 10

Filename D:\#cdr\#wav+flac\#New\VA - Now 100 Hits 70s\cd 1\10. Sister Sledge - We Are Family.wav

Peak level 97.6 %
Extraction speed 8.6 X
Track quality 100.0 %
Test CRC 18D0A108
Copy CRC 18D0A108
Accurately ripped (confidence 2) [79B5D60E] (AR v2)
Copy OK

Track 11

Filename D:\#cdr\#wav+flac\#New\VA - Now 100 Hits 70s\cd 1\11. The O'Jays - Love Train.wav

Peak level 97.7 %
Extraction speed 8.7 X
Track quality 100.0 %
Test CRC 1A562371
Copy CRC 1A562371
Accurately ripped (confidence 2) [CFF67FAE] (AR v2)
Copy OK

Track 12

Filename D:\#cdr\#wav+flac\#New\VA - Now 100 Hits 70s\cd 1\12. The Specials - A Message to You Rudy.wav

Peak level 97.7 %
Extraction speed 8.8 X
Track quality 100.0 %
Test CRC 92B6149B
Copy CRC 92B6149B
Accurately ripped (confidence 2) [F95BF7CA] (AR v2)
Copy OK

Track 13

Filename D:\#cdr\#wav+flac\#New\VA - Now 100 Hits 70s\cd 1\13. Electric Light Orchestra - Livin' Thing.wav

Peak level 97.7 %
Extraction speed 9.3 X
Track quality 100.0 %
Test CRC DAC7B043
Copy CRC DAC7B043
Accurately ripped (confidence 2) [040D787E] (AR v2)
Copy OK

Track 14

Filename D:\#cdr\#wav+flac\#New\VA - Now 100 Hits 70s\cd 1\14. Billy Joel - Piano Man (Radio Edit).wav

Peak level 96.4 %
Extraction speed 8.3 X
Track quality 99.9 %
Test CRC 68B3EF1F
Copy CRC 68B3EF1F
Accurately ripped (confidence 2) [6CB41A32] (AR v2)
Copy OK

Track 15

Filename D:\#cdr\#wav+flac\#New\VA - Now 100 Hits 70s\cd 1\15. John Denver - Annie's Song.wav

Peak level 97.7 %
Extraction speed 9.7 X
Track quality 100.0 %
Test CRC D46FE418
Copy CRC D46FE418
Accurately ripped (confidence 2) [38000AE2] (AR v2)
Copy OK

Track 16

Filename D:\#cdr\#wav+flac\#New\VA - Now 100 Hits 70s\cd 1\16. Steve Harley & Cockney Rebel - Make Me Smile (Come Up and See Me).wav

Peak level 94.4 %
Extraction speed 10.3 X
Track quality 100.0 %
Test CRC BD45187C
Copy CRC BD45187C
Accurately ripped (confidence 2) [B7C6C247] (AR v2)
Copy OK

Track 17

Filename D:\#cdr\#wav+flac\#New\VA - Now 100 Hits 70s\cd 1\17. Marvin Gaye - What's Going On.wav

Peak level 97.7 %
Extraction speed 10.4 X
Track quality 100.0 %
Test CRC 4CAEE2DD
Copy CRC 4CAEE2DD
Accurately ripped (confidence 2) [8BE3D4C3] (AR v2)
Copy OK

Track 18

Filename D:\#cdr\#wav+flac\#New\VA - Now 100 Hits 70s\cd 1\18. Barry White - You're the First, the Last, My Everything.wav

Peak level 97.7 %
Extraction speed 10.6 X
Track quality 100.0 %
Test CRC 9F0F32BA
Copy CRC 9F0F32BA
Accurately ripped (confidence 2) [75C8B3BD] (AR v2)
Copy OK

Track 19

Filename D:\#cdr\#wav+flac\#New\VA - Now 100 Hits 70s\cd 1\19. Freda Payne - Band of Gold.wav

Peak level 94.3 %
Extraction speed 10.3 X
Track quality 100.0 %
Test CRC 7A7733DA
Copy CRC 7A7733DA
Accurately ripped (confidence 2) [EE8B0DB4] (AR v2)
Copy OK

Track 20

Filename D:\#cdr\#wav+flac\#New\VA - Now 100 Hits 70s\cd 1\20. 10cc - I'm Not in Love (Edit).wav

Peak level 70.1 %
Extraction speed 11.2 X
Track quality 100.0 %
Test CRC 97D2E716
Copy CRC 97D2E716
Accurately ripped (confidence 2) [118FD753] (AR v2)
Copy OK


All tracks accurately ripped

No errors occurred

End of status report

–– CUETools DB Plugin V2.1.6

[CTDB TOCID: c3tfBwW6MwCkubMxhVLfTqKWg4E-] found
Submit result: c3tfBwW6MwCkubMxhVLfTqKWg4E- has been confirmed
Track | CTDB Status
1 | (3/3) Accurately ripped
2 | (3/3) Accurately ripped
3 | (3/3) Accurately ripped
4 | (3/3) Accurately ripped
5 | (3/3) Accurately ripped
6 | (3/3) Accurately ripped
7 | (3/3) Accurately ripped
8 | (3/3) Accurately ripped
9 | (3/3) Accurately ripped
10 | (3/3) Accurately ripped
11 | (3/3) Accurately ripped
12 | (3/3) Accurately ripped
13 | (3/3) Accurately ripped
14 | (3/3) Accurately ripped
15 | (3/3) Accurately ripped
16 | (3/3) Accurately ripped
17 | (3/3) Accurately ripped
18 | (3/3) Accurately ripped
19 | (3/3) Accurately ripped
20 | (3/3) Accurately ripped


==== Log checksum 2E31B0B6E29B4880826C2A25D40C64535493E0E4DD349571B2BB87F326ED90C5 ====

Exact Audio Copy V1.3 from 2. September 2016

EAC extraction logfile from 18. August 2020, 17:59

Various Artists / Now 100 Hits 70s

Used drive : PLEXTOR PX-891SAF Adapter: 1 ID: 0

Read mode : Secure
Utilize accurate stream : Yes
Defeat audio cache : Yes
Make use of C2 pointers : No

Read offset correction : 6
Overread into Lead-In and Lead-Out : No
Fill up missing offset samples with silence : Yes
Delete leading and trailing silent blocks : No
Null samples used in CRC calculations : Yes
Used interface : Native Win32 interface for Win NT & 2000
Gap handling : Appended to previous track

Used output format : User Defined Encoder
Selected bitrate : 1024 kBit/s
Quality : High
Add ID3 tag : No
Command line compressor : C:\Program Files (x86)\Exact Audio Copy\Flac\flac.exe
Additional command line options : -8 -V -T "ARTIST=%artist%" -T "TITLE=%title%" -T "ALBUM=%albumtitle%" -T "DATE=%year%" -T "TRACKNUMBER=%tracknr%" -T "GENRE=%genre%" -T "PERFORMER=%albuminterpret%" -T "COMPOSER=%composer%" %haslyrics%–tag-from-file=LYRICS="%lyricsfile%"%haslyrics% -T "ALBUMARTIST=%albumartist%" -T "DISCNUMBER=%cdnumber%" -T "TOTALDISCS=%totalcds%" -T "TOTALTRACKS=%numtracks%" -T "COMMENT=%comment%" %source% -o %dest%


TOC of the extracted CD

Track | Start | Length | Start sector | End sector
––––––––––––––––––––––––––––-
1 | 0:00.00 | 3:22.21 | 0 | 15170
2 | 3:22.21 | 2:57.57 | 15171 | 28502
3 | 6:20.03 | 3:56.66 | 28503 | 46268
4 | 10:16.69 | 3:55.38 | 46269 | 63931
5 | 14:12.32 | 3:34.57 | 63932 | 80038
6 | 17:47.14 | 3:03.53 | 80039 | 93816
7 | 20:50.67 | 3:35.28 | 93817 | 109969
8 | 24:26.20 | 3:36.12 | 109970 | 126181
9 | 28:02.32 | 4:11.11 | 126182 | 145017
10 | 32:13.43 | 3:00.60 | 145018 | 158577
11 | 35:14.28 | 3:06.39 | 158578 | 172566
12 | 38:20.67 | 2:14.10 | 172567 | 182626
13 | 40:35.02 | 2:41.17 | 182627 | 194718
14 | 43:16.19 | 3:04.57 | 194719 | 208575
15 | 46:21.01 | 3:04.64 | 208576 | 222439
16 | 49:25.65 | 3:37.16 | 222440 | 238730
17 | 53:03.06 | 4:04.13 | 238731 | 257043
18 | 57:07.19 | 3:36.00 | 257044 | 273243
19 | 60:43.19 | 4:08.02 | 273244 | 291845
20 | 64:51.21 | 3:18.64 | 291846 | 306759


Track 1

Filename D:\#cdr\#wav+flac\#New\VA - Now 100 Hits 70s\cd 2\01. John Lennon, Yoko Ono & The Plastic Ono Band - Instant Karma! (We All Shine On).wav

Pre-gap length 0:00:02.00

Peak level 97.7 %
Extraction speed 5.5 X
Track quality 100.0 %
Test CRC 171D8BC9
Copy CRC 171D8BC9
Accurately ripped (confidence 2) [4870C105] (AR v2)
Copy OK

Track 2

Filename D:\#cdr\#wav+flac\#New\VA - Now 100 Hits 70s\cd 2\02. Bryan Ferry - Let's Stick Together.wav

Peak level 97.7 %
Extraction speed 5.8 X
Track quality 100.0 %
Test CRC 88C7FB33
Copy CRC 88C7FB33
Accurately ripped (confidence 2) [A1110273] (AR v2)
Copy OK

Track 3

Filename D:\#cdr\#wav+flac\#New\VA - Now 100 Hits 70s\cd 2\03. The Sugarhill Gang - Rapper's Delight.wav

Peak level 95.2 %
Extraction speed 6.5 X
Track quality 100.0 %
Test CRC FE5E6A70
Copy CRC FE5E6A70
Accurately ripped (confidence 2) [B929BE6F] (AR v2)
Copy OK

Track 4

Filename D:\#cdr\#wav+flac\#New\VA - Now 100 Hits 70s\cd 2\04. Labelle - Lady Marmalade.wav

Peak level 92.8 %
Extraction speed 6.9 X
Track quality 100.0 %
Test CRC 58417D30
Copy CRC 58417D30
Accurately ripped (confidence 2) [805EAC78] (AR v2)
Copy OK

Track 5

Filename D:\#cdr\#wav+flac\#New\VA - Now 100 Hits 70s\cd 2\05. McFadden & Whitehead - Ain't No Stoppin' Us Now (Single Version).wav

Peak level 95.4 %
Extraction speed 5.9 X
Track quality 99.9 %
Test CRC 39FEA693
Copy CRC 39FEA693
Accurately ripped (confidence 2) [9FE12F2E] (AR v2)
Copy OK

Track 6

Filename D:\#cdr\#wav+flac\#New\VA - Now 100 Hits 70s\cd 2\06. Tina Charles - I Love to Love.wav

Peak level 95.1 %
Extraction speed 7.2 X
Track quality 100.0 %
Test CRC 51E4270E
Copy CRC 51E4270E
Accurately ripped (confidence 2) [331D0F2E] (AR v2)
Copy OK

Track 7

Filename D:\#cdr\#wav+flac\#New\VA - Now 100 Hits 70s\cd 2\07. Billy Paul - Me and Mrs. Jones (Single Version).wav

Peak level 97.7 %
Extraction speed 7.8 X
Track quality 100.0 %
Test CRC C26F27AC
Copy CRC C26F27AC
Accurately ripped (confidence 2) [DB270CE0] (AR v2)
Copy OK

Track 8

Filename D:\#cdr\#wav+flac\#New\VA - Now 100 Hits 70s\cd 2\08. Commodores - Three Times a Lady.wav

Peak level 97.7 %
Extraction speed 7.9 X
Track quality 100.0 %
Test CRC E380D2AA
Copy CRC E380D2AA
Accurately ripped (confidence 2) [DDB9DF37] (AR v2)
Copy OK

Track 9

Filename D:\#cdr\#wav+flac\#New\VA - Now 100 Hits 70s\cd 2\09. The Three Degrees - Woman in Love.wav

Peak level 95.0 %
Extraction speed 8.6 X
Track quality 100.0 %
Test CRC A4564DE8
Copy CRC A4564DE8
Accurately ripped (confidence 2) [935AC218] (AR v2)
Copy OK

Track 10

Filename D:\#cdr\#wav+flac\#New\VA - Now 100 Hits 70s\cd 2\10. Sly & the Family Stone - Family Affair.wav

Peak level 97.7 %
Extraction speed 8.4 X
Track quality 100.0 %
Test CRC C09DEC4C
Copy CRC C09DEC4C
Accurately ripped (confidence 2) [5AE94261] (AR v2)
Copy OK

Track 11

Filename D:\#cdr\#wav+flac\#New\VA - Now 100 Hits 70s\cd 2\11. Harry J Allstars - Liquidator.wav

Peak level 97.7 %
Extraction speed 8.6 X
Track quality 100.0 %
Test CRC F572D797
Copy CRC F572D797
Accurately ripped (confidence 2) [906C0CA2] (AR v2)
Copy OK

Track 12

Filename D:\#cdr\#wav+flac\#New\VA - Now 100 Hits 70s\cd 2\12. R. Dean Taylor - There's a Ghost In My House.wav

Peak level 97.7 %
Extraction speed 6.2 X
Track quality 99.9 %
Test CRC 90D67A31
Copy CRC 90D67A31
Accurately ripped (confidence 2) [0413B73C] (AR v2)
Copy OK

Track 13

Filename D:\#cdr\#wav+flac\#New\VA - Now 100 Hits 70s\cd 2\13. Chairmen of the Board - Give Me Just a Little More Time.wav

Peak level 83.7 %
Extraction speed 8.7 X
Track quality 100.0 %
Test CRC 23A3CA3B
Copy CRC 23A3CA3B
Accurately ripped (confidence 2) [7DD080EF] (AR v2)
Copy OK

Track 14

Filename D:\#cdr\#wav+flac\#New\VA - Now 100 Hits 70s\cd 2\14. KC & the Sunshine Band - That's the Way (I Like It) (Remastered).wav

Peak level 97.7 %
Extraction speed 9.2 X
Track quality 100.0 %
Test CRC B2CEC54A
Copy CRC B2CEC54A
Accurately ripped (confidence 2) [FE2838F2] (AR v2)
Copy OK

Track 15

Filename D:\#cdr\#wav+flac\#New\VA - Now 100 Hits 70s\cd 2\15. Smokey Robinson & The Miracles - The Tears of a Clown.wav

Peak level 97.7 %
Extraction speed 9.4 X
Track quality 100.0 %
Test CRC 9E05A45B
Copy CRC 9E05A45B
Accurately ripped (confidence 2) [48798C7E] (AR v2)
Copy OK

Track 16

Filename D:\#cdr\#wav+flac\#New\VA - Now 100 Hits 70s\cd 2\16. Chic - Good Times.wav

Peak level 97.7 %
Extraction speed 10.0 X
Track quality 100.0 %
Test CRC 18FA7252
Copy CRC 18FA7252
Accurately ripped (confidence 2) [886DCD3E] (AR v2)
Copy OK

Track 17

Filename D:\#cdr\#wav+flac\#New\VA - Now 100 Hits 70s\cd 2\17. Van McCoy & The Soul City Symphony - The Hustle.wav

Peak level 90.1 %
Extraction speed 10.3 X
Track quality 100.0 %
Test CRC 9A624BE7
Copy CRC 9A624BE7
Accurately ripped (confidence 2) [58BFF698] (AR v2)
Copy OK

Track 18

Filename D:\#cdr\#wav+flac\#New\VA - Now 100 Hits 70s\cd 2\18. Heatwave - Boogie Nights.wav

Peak level 90.9 %
Extraction speed 10.2 X
Track quality 100.0 %
Test CRC BBF9A0CB
Copy CRC BBF9A0CB
Accurately ripped (confidence 2) [4D3C690C] (AR v2)
Copy OK

Track 19

Filename D:\#cdr\#wav+flac\#New\VA - Now 100 Hits 70s\cd 2\19. Diana Ross - Ain't No Mountain High Enough.wav

Peak level 94.0 %
Extraction speed 10.7 X
Track quality 100.0 %
Test CRC 6A858C2C
Copy CRC 6A858C2C
Accurately ripped (confidence 2) [BE9F5A7A] (AR v2)
Copy OK

Track 20

Filename D:\#cdr\#wav+flac\#New\VA - Now 100 Hits 70s\cd 2\20. Minnie Riperton - Lovin' You.wav

Peak level 95.5 %
Extraction speed 8.3 X
Track quality 99.9 %
Test CRC 6E1A729F
Copy CRC 6E1A729F
Accurately ripped (confidence 2) [4EA0CEC7] (AR v2)
Copy OK


All tracks accurately ripped

No errors occurred

End of status report

–– CUETools DB Plugin V2.1.6

[CTDB TOCID: L65XIBiXm1la12FE3QsTIcEiJr8-] found
Submit result: L65XIBiXm1la12FE3QsTIcEiJr8- has been confirmed
Track | CTDB Status
1 | (3/3) Accurately ripped
2 | (3/3) Accurately ripped
3 | (3/3) Accurately ripped
4 | (3/3) Accurately ripped
5 | (3/3) Accurately ripped
6 | (3/3) Accurately ripped
7 | (3/3) Accurately ripped
8 | (3/3) Accurately ripped
9 | (3/3) Accurately ripped
10 | (3/3) Accurately ripped
11 | (3/3) Accurately ripped
12 | (3/3) Accurately ripped
13 | (3/3) Accurately ripped
14 | (3/3) Accurately ripped
15 | (3/3) Accurately ripped
16 | (3/3) Accurately ripped
17 | (3/3) Accurately ripped
18 | (3/3) Accurately ripped
19 | (3/3) Accurately ripped
20 | (3/3) Accurately ripped


==== Log checksum 23D78C63A6BB433DCC6F4F15DFF363FF7266D75CE49BAE93E1CCC160D59A6375 ====

––––––––––––––––––––––––––––––

Exact Audio Copy V1.3 from 2. September 2016

EAC extraction logfile from 18. August 2020, 17:59

Various Artists / Now 100 Hits 70s

Used drive : PLEXTOR PX-891SAF Adapter: 1 ID: 0

Read mode : Secure
Utilize accurate stream : Yes
Defeat audio cache : Yes
Make use of C2 pointers : No

Read offset correction : 6
Overread into Lead-In and Lead-Out : No
Fill up missing offset samples with silence : Yes
Delete leading and trailing silent blocks : No
Null samples used in CRC calculations : Yes
Used interface : Native Win32 interface for Win NT & 2000
Gap handling : Appended to previous track

Used output format : User Defined Encoder
Selected bitrate : 1024 kBit/s
Quality : High
Add ID3 tag : No
Command line compressor : C:\Program Files (x86)\Exact Audio Copy\Flac\flac.exe
Additional command line options : -8 -V -T "ARTIST=%artist%" -T "TITLE=%title%" -T "ALBUM=%albumtitle%" -T "DATE=%year%" -T "TRACKNUMBER=%tracknr%" -T "GENRE=%genre%" -T "PERFORMER=%albuminterpret%" -T "COMPOSER=%composer%" %haslyrics%–tag-from-file=LYRICS="%lyricsfile%"%haslyrics% -T "ALBUMARTIST=%albumartist%" -T "DISCNUMBER=%cdnumber%" -T "TOTALDISCS=%totalcds%" -T "TOTALTRACKS=%numtracks%" -T "COMMENT=%comment%" %source% -o %dest%


TOC of the extracted CD

Track | Start | Length | Start sector | End sector
––––––––––––––––––––––––––––-
1 | 0:00.00 | 3:22.21 | 0 | 15170
2 | 3:22.21 | 2:57.57 | 15171 | 28502
3 | 6:20.03 | 3:56.66 | 28503 | 46268
4 | 10:16.69 | 3:55.38 | 46269 | 63931
5 | 14:12.32 | 3:34.57 | 63932 | 80038
6 | 17:47.14 | 3:03.53 | 80039 | 93816
7 | 20:50.67 | 3:35.28 | 93817 | 109969
8 | 24:26.20 | 3:36.12 | 109970 | 126181
9 | 28:02.32 | 4:11.11 | 126182 | 145017
10 | 32:13.43 | 3:00.60 | 145018 | 158577
11 | 35:14.28 | 3:06.39 | 158578 | 172566
12 | 38:20.67 | 2:14.10 | 172567 | 182626
13 | 40:35.02 | 2:41.17 | 182627 | 194718
14 | 43:16.19 | 3:04.57 | 194719 | 208575
15 | 46:21.01 | 3:04.64 | 208576 | 222439
16 | 49:25.65 | 3:37.16 | 222440 | 238730
17 | 53:03.06 | 4:04.13 | 238731 | 257043
18 | 57:07.19 | 3:36.00 | 257044 | 273243
19 | 60:43.19 | 4:08.02 | 273244 | 291845
20 | 64:51.21 | 3:18.64 | 291846 | 306759


Track 1

Filename D:\#cdr\#wav+flac\#New\VA - Now 100 Hits 70s\cd 2\01. John Lennon, Yoko Ono & The Plastic Ono Band - Instant Karma! (We All Shine On).wav

Pre-gap length 0:00:02.00

Peak level 97.7 %
Extraction speed 5.5 X
Track quality 100.0 %
Test CRC 171D8BC9
Copy CRC 171D8BC9
Accurately ripped (confidence 2) [4870C105] (AR v2)
Copy OK

Track 2

Filename D:\#cdr\#wav+flac\#New\VA - Now 100 Hits 70s\cd 2\02. Bryan Ferry - Let's Stick Together.wav

Peak level 97.7 %
Extraction speed 5.8 X
Track quality 100.0 %
Test CRC 88C7FB33
Copy CRC 88C7FB33
Accurately ripped (confidence 2) [A1110273] (AR v2)
Copy OK

Track 3

Filename D:\#cdr\#wav+flac\#New\VA - Now 100 Hits 70s\cd 2\03. The Sugarhill Gang - Rapper's Delight.wav

Peak level 95.2 %
Extraction speed 6.5 X
Track quality 100.0 %
Test CRC FE5E6A70
Copy CRC FE5E6A70
Accurately ripped (confidence 2) [B929BE6F] (AR v2)
Copy OK

Track 4

Filename D:\#cdr\#wav+flac\#New\VA - Now 100 Hits 70s\cd 2\04. Labelle - Lady Marmalade.wav

Peak level 92.8 %
Extraction speed 6.9 X
Track quality 100.0 %
Test CRC 58417D30
Copy CRC 58417D30
Accurately ripped (confidence 2) [805EAC78] (AR v2)
Copy OK

Track 5

Filename D:\#cdr\#wav+flac\#New\VA - Now 100 Hits 70s\cd 2\05. McFadden & Whitehead - Ain't No Stoppin' Us Now (Single Version).wav

Peak level 95.4 %
Extraction speed 5.9 X
Track quality 99.9 %
Test CRC 39FEA693
Copy CRC 39FEA693
Accurately ripped (confidence 2) [9FE12F2E] (AR v2)
Copy OK

Track 6

Filename D:\#cdr\#wav+flac\#New\VA - Now 100 Hits 70s\cd 2\06. Tina Charles - I Love to Love.wav

Peak level 95.1 %
Extraction speed 7.2 X
Track quality 100.0 %
Test CRC 51E4270E
Copy CRC 51E4270E
Accurately ripped (confidence 2) [331D0F2E] (AR v2)
Copy OK

Track 7

Filename D:\#cdr\#wav+flac\#New\VA - Now 100 Hits 70s\cd 2\07. Billy Paul - Me and Mrs. Jones (Single Version).wav

Peak level 97.7 %
Extraction speed 7.8 X
Track quality 100.0 %
Test CRC C26F27AC
Copy CRC C26F27AC
Accurately ripped (confidence 2) [DB270CE0] (AR v2)
Copy OK

Track 8

Filename D:\#cdr\#wav+flac\#New\VA - Now 100 Hits 70s\cd 2\08. Commodores - Three Times a Lady.wav

Peak level 97.7 %
Extraction speed 7.9 X
Track quality 100.0 %
Test CRC E380D2AA
Copy CRC E380D2AA
Accurately ripped (confidence 2) [DDB9DF37] (AR v2)
Copy OK

Track 9

Filename D:\#cdr\#wav+flac\#New\VA - Now 100 Hits 70s\cd 2\09. The Three Degrees - Woman in Love.wav

Peak level 95.0 %
Extraction speed 8.6 X
Track quality 100.0 %
Test CRC A4564DE8
Copy CRC A4564DE8
Accurately ripped (confidence 2) [935AC218] (AR v2)
Copy OK

Track 10

Filename D:\#cdr\#wav+flac\#New\VA - Now 100 Hits 70s\cd 2\10. Sly & the Family Stone - Family Affair.wav

Peak level 97.7 %
Extraction speed 8.4 X
Track quality 100.0 %
Test CRC C09DEC4C
Copy CRC C09DEC4C
Accurately ripped (confidence 2) [5AE94261] (AR v2)
Copy OK

Track 11

Filename D:\#cdr\#wav+flac\#New\VA - Now 100 Hits 70s\cd 2\11. Harry J Allstars - Liquidator.wav

Peak level 97.7 %
Extraction speed 8.6 X
Track quality 100.0 %
Test CRC F572D797
Copy CRC F572D797
Accurately ripped (confidence 2) [906C0CA2] (AR v2)
Copy OK

Track 12

Filename D:\#cdr\#wav+flac\#New\VA - Now 100 Hits 70s\cd 2\12. R. Dean Taylor - There's a Ghost In My House.wav

Peak level 97.7 %
Extraction speed 6.2 X
Track quality 99.9 %
Test CRC 90D67A31
Copy CRC 90D67A31
Accurately ripped (confidence 2) [0413B73C] (AR v2)
Copy OK

Track 13

Filename D:\#cdr\#wav+flac\#New\VA - Now 100 Hits 70s\cd 2\13. Chairmen of the Board - Give Me Just a Little More Time.wav

Peak level 83.7 %
Extraction speed 8.7 X
Track quality 100.0 %
Test CRC 23A3CA3B
Copy CRC 23A3CA3B
Accurately ripped (confidence 2) [7DD080EF] (AR v2)
Copy OK

Track 14

Filename D:\#cdr\#wav+flac\#New\VA - Now 100 Hits 70s\cd 2\14. KC & the Sunshine Band - That's the Way (I Like It) (Remastered).wav

Peak level 97.7 %
Extraction speed 9.2 X
Track quality 100.0 %
Test CRC B2CEC54A
Copy CRC B2CEC54A
Accurately ripped (confidence 2) [FE2838F2] (AR v2)
Copy OK

Track 15

Filename D:\#cdr\#wav+flac\#New\VA - Now 100 Hits 70s\cd 2\15. Smokey Robinson & The Miracles - The Tears of a Clown.wav

Peak level 97.7 %
Extraction speed 9.4 X
Track quality 100.0 %
Test CRC 9E05A45B
Copy CRC 9E05A45B
Accurately ripped (confidence 2) [48798C7E] (AR v2)
Copy OK

Track 16

Filename D:\#cdr\#wav+flac\#New\VA - Now 100 Hits 70s\cd 2\16. Chic - Good Times.wav

Peak level 97.7 %
Extraction speed 10.0 X
Track quality 100.0 %
Test CRC 18FA7252
Copy CRC 18FA7252
Accurately ripped (confidence 2) [886DCD3E] (AR v2)
Copy OK

Track 17

Filename D:\#cdr\#wav+flac\#New\VA - Now 100 Hits 70s\cd 2\17. Van McCoy & The Soul City Symphony - The Hustle.wav

Peak level 90.1 %
Extraction speed 10.3 X
Track quality 100.0 %
Test CRC 9A624BE7
Copy CRC 9A624BE7
Accurately ripped (confidence 2) [58BFF698] (AR v2)
Copy OK

Track 18

Filename D:\#cdr\#wav+flac\#New\VA - Now 100 Hits 70s\cd 2\18. Heatwave - Boogie Nights.wav

Peak level 90.9 %
Extraction speed 10.2 X
Track quality 100.0 %
Test CRC BBF9A0CB
Copy CRC BBF9A0CB
Accurately ripped (confidence 2) [4D3C690C] (AR v2)
Copy OK

Track 19

Filename D:\#cdr\#wav+flac\#New\VA - Now 100 Hits 70s\cd 2\19. Diana Ross - Ain't No Mountain High Enough.wav

Peak level 94.0 %
Extraction speed 10.7 X
Track quality 100.0 %
Test CRC 6A858C2C
Copy CRC 6A858C2C
Accurately ripped (confidence 2) [BE9F5A7A] (AR v2)
Copy OK

Track 20

Filename D:\#cdr\#wav+flac\#New\VA - Now 100 Hits 70s\cd 2\20. Minnie Riperton - Lovin' You.wav

Peak level 95.5 %
Extraction speed 8.3 X
Track quality 99.9 %
Test CRC 6E1A729F
Copy CRC 6E1A729F
Accurately ripped (confidence 2) [4EA0CEC7] (AR v2)
Copy OK


All tracks accurately ripped

No errors occurred

End of status report

–– CUETools DB Plugin V2.1.6

[CTDB TOCID: L65XIBiXm1la12FE3QsTIcEiJr8-] found
Submit result: L65XIBiXm1la12FE3QsTIcEiJr8- has been confirmed
Track | CTDB Status
1 | (3/3) Accurately ripped
2 | (3/3) Accurately ripped
3 | (3/3) Accurately ripped
4 | (3/3) Accurately ripped
5 | (3/3) Accurately ripped
6 | (3/3) Accurately ripped
7 | (3/3) Accurately ripped
8 | (3/3) Accurately ripped
9 | (3/3) Accurately ripped
10 | (3/3) Accurately ripped
11 | (3/3) Accurately ripped
12 | (3/3) Accurately ripped
13 | (3/3) Accurately ripped
14 | (3/3) Accurately ripped
15 | (3/3) Accurately ripped
16 | (3/3) Accurately ripped
17 | (3/3) Accurately ripped
18 | (3/3) Accurately ripped
19 | (3/3) Accurately ripped
20 | (3/3) Accurately ripped


==== Log checksum 23D78C63A6BB433DCC6F4F15DFF363FF7266D75CE49BAE93E1CCC160D59A6375 ====

Exact Audio Copy V1.3 from 2. September 2016

EAC extraction logfile from 18. August 2020, 18:25

Various Artists / Now 100 Hits 70s

Used drive : PLEXTOR PX-891SAF Adapter: 1 ID: 0

Read mode : Secure
Utilize accurate stream : Yes
Defeat audio cache : Yes
Make use of C2 pointers : No

Read offset correction : 6
Overread into Lead-In and Lead-Out : No
Fill up missing offset samples with silence : Yes
Delete leading and trailing silent blocks : No
Null samples used in CRC calculations : Yes
Used interface : Native Win32 interface for Win NT & 2000
Gap handling : Appended to previous track

Used output format : User Defined Encoder
Selected bitrate : 1024 kBit/s
Quality : High
Add ID3 tag : No
Command line compressor : C:\Program Files (x86)\Exact Audio Copy\Flac\flac.exe
Additional command line options : -8 -V -T "ARTIST=%artist%" -T "TITLE=%title%" -T "ALBUM=%albumtitle%" -T "DATE=%year%" -T "TRACKNUMBER=%tracknr%" -T "GENRE=%genre%" -T "PERFORMER=%albuminterpret%" -T "COMPOSER=%composer%" %haslyrics%–tag-from-file=LYRICS="%lyricsfile%"%haslyrics% -T "ALBUMARTIST=%albumartist%" -T "DISCNUMBER=%cdnumber%" -T "TOTALDISCS=%totalcds%" -T "TOTALTRACKS=%numtracks%" -T "COMMENT=%comment%" %source% -o %dest%


TOC of the extracted CD

Track | Start | Length | Start sector | End sector
––––––––––––––––––––––––––––-
1 | 0:00.00 | 4:12.44 | 0 | 18943
2 | 4:12.44 | 3:11.19 | 18944 | 33287
3 | 7:23.63 | 3:42.33 | 33288 | 49970
4 | 11:06.21 | 3:54.01 | 49971 | 67521
5 | 15:00.22 | 3:21.21 | 67522 | 82617
6 | 18:21.43 | 3:17.73 | 82618 | 97465
7 | 21:39.41 | 3:23.24 | 97466 | 112714
8 | 25:02.65 | 4:29.07 | 112715 | 132896
9 | 29:31.72 | 4:10.41 | 132897 | 151687
10 | 33:42.38 | 3:19.69 | 151688 | 166681
11 | 37:02.32 | 3:48.48 | 166682 | 183829
12 | 40:51.05 | 4:02.32 | 183830 | 202011
13 | 44:53.37 | 5:09.21 | 202012 | 225207
14 | 50:02.58 | 4:23.60 | 225208 | 244992
15 | 54:26.43 | 3:25.49 | 244993 | 260416
16 | 57:52.17 | 4:07.33 | 260417 | 278974
17 | 61:59.50 | 3:49.19 | 278975 | 296168
18 | 65:48.69 | 3:52.00 | 296169 | 313568
19 | 69:40.69 | 3:22.59 | 313569 | 328777
20 | 73:03.53 | 4:51.60 | 328778 | 350662


Track 1

Filename D:\#cdr\#wav+flac\#New\VA - Now 100 Hits 70s\cd 3\01. ABBA - Fernando.wav

Pre-gap length 0:00:02.00

Peak level 97.7 %
Extraction speed 5.7 X
Track quality 100.0 %
Test CRC A22E1E36
Copy CRC A22E1E36
Accurately ripped (confidence 2) [4281444E] (AR v2)
Copy OK

Track 2

Filename D:\#cdr\#wav+flac\#New\VA - Now 100 Hits 70s\cd 3\02. Fleetwood Mac - Don't Stop.wav

Peak level 86.6 %
Extraction speed 4.7 X
Track quality 99.9 %
Test CRC 498AB915
Copy CRC 498AB915
Accurately ripped (confidence 2) [D0C400EB] (AR v2)
Copy OK

Track 3

Filename D:\#cdr\#wav+flac\#New\VA - Now 100 Hits 70s\cd 3\03. Paul McCartney - Another Day.wav

Peak level 97.7 %
Extraction speed 5.3 X
Track quality 99.9 %
Test CRC 177DD8DB
Copy CRC 177DD8DB
Accurately ripped (confidence 2) [DD43173A] (AR v2)
Copy OK

Track 4

Filename D:\#cdr\#wav+flac\#New\VA - Now 100 Hits 70s\cd 3\04. Chicago - If You Leave Me Now.wav

Peak level 81.6 %
Extraction speed 5.8 X
Track quality 99.9 %
Test CRC ABF6079A
Copy CRC ABF6079A
Accurately ripped (confidence 2) [14697FEE] (AR v2)
Copy OK

Track 5

Filename D:\#cdr\#wav+flac\#New\VA - Now 100 Hits 70s\cd 3\05. Harry Nilsson - Without You.wav

Peak level 82.4 %
Extraction speed 7.0 X
Track quality 100.0 %
Test CRC 3DD9AD79
Copy CRC 3DD9AD79
Accurately ripped (confidence 2) [672180D3] (AR v2)
Copy OK

Track 6

Filename D:\#cdr\#wav+flac\#New\VA - Now 100 Hits 70s\cd 3\06. Barry Manilow - Mandy.wav

Peak level 97.7 %
Extraction speed 7.4 X
Track quality 100.0 %
Test CRC 4774C2F2
Copy CRC 4774C2F2
Accurately ripped (confidence 2) [C29FB559] (AR v2)
Copy OK

Track 7

Filename D:\#cdr\#wav+flac\#New\VA - Now 100 Hits 70s\cd 3\07. Patti Smith Group - Because the Night.wav

Peak level 96.6 %
Extraction speed 7.7 X
Track quality 100.0 %
Test CRC 773810D0
Copy CRC 773810D0
Accurately ripped (confidence 2) [6487D3AD] (AR v2)
Copy OK

Track 8

Filename D:\#cdr\#wav+flac\#New\VA - Now 100 Hits 70s\cd 3\08. Kate Bush - Wuthering Heights.wav

Peak level 97.7 %
Extraction speed 8.4 X
Track quality 100.0 %
Test CRC F9527E43
Copy CRC F9527E43
Accurately ripped (confidence 2) [79B81F3F] (AR v2)
Copy OK

Track 9

Filename D:\#cdr\#wav+flac\#New\VA - Now 100 Hits 70s\cd 3\09. Meat Loaf - You Took the Words Right Out of My Mouth (Hot Summer Night).wav

Peak level 97.7 %
Extraction speed 8.7 X
Track quality 100.0 %
Test CRC 91919414
Copy CRC 91919414
Accurately ripped (confidence 2) [1E1056AB] (AR v2)
Copy OK

Track 10

Filename D:\#cdr\#wav+flac\#New\VA - Now 100 Hits 70s\cd 3\10. Foreigner - Cold as Ice.wav

Peak level 97.7 %
Extraction speed 8.7 X
Track quality 100.0 %
Test CRC 1DABD62F
Copy CRC 1DABD62F
Accurately ripped (confidence 2) [3E369539] (AR v2)
Copy OK

Track 11

Filename D:\#cdr\#wav+flac\#New\VA - Now 100 Hits 70s\cd 3\11. Edwin Starr - War.wav

Peak level 97.7 %
Extraction speed 9.1 X
Track quality 100.0 %
Test CRC B874257D
Copy CRC B874257D
Accurately ripped (confidence 2) [86A50DC9] (AR v2)
Copy OK

Track 12

Filename D:\#cdr\#wav+flac\#New\VA - Now 100 Hits 70s\cd 3\12. The Jam - Down in the Tube Station at Midnight.wav

Peak level 88.3 %
Extraction speed 9.4 X
Track quality 100.0 %
Test CRC 1448C761
Copy CRC 1448C761
Accurately ripped (confidence 2) [D34EABC9] (AR v2)
Copy OK

Track 13

Filename D:\#cdr\#wav+flac\#New\VA - Now 100 Hits 70s\cd 3\13. The Boomtown Rats - Rat Trap.wav

Peak level 82.0 %
Extraction speed 10.0 X
Track quality 100.0 %
Test CRC 861BA5D6
Copy CRC 861BA5D6
Accurately ripped (confidence 2) [ED14628A] (AR v2)
Copy OK

Track 14

Filename D:\#cdr\#wav+flac\#New\VA - Now 100 Hits 70s\cd 3\14. Rod Stewart - Handbags & Gladrags.wav

Peak level 95.3 %
Extraction speed 10.1 X
Track quality 100.0 %
Test CRC 5EA4E07E
Copy CRC 5EA4E07E
Accurately ripped (confidence 2) [D1DB9AC1] (AR v2)
Copy OK

Track 15

Filename D:\#cdr\#wav+flac\#New\VA - Now 100 Hits 70s\cd 3\15. Terry Jacks - Seasons in the Sun.wav

Peak level 95.4 %
Extraction speed 10.1 X
Track quality 100.0 %
Test CRC C9FD639A
Copy CRC C9FD639A
Accurately ripped (confidence 2) [2B8FC2CC] (AR v2)
Copy OK

Track 16

Filename D:\#cdr\#wav+flac\#New\VA - Now 100 Hits 70s\cd 3\16. Ralph McTell - Streets of London.wav

Peak level 97.7 %
Extraction speed 10.5 X
Track quality 100.0 %
Test CRC E14BAA43
Copy CRC E14BAA43
Accurately ripped (confidence 2) [9D34433D] (AR v2)
Copy OK

Track 17

Filename D:\#cdr\#wav+flac\#New\VA - Now 100 Hits 70s\cd 3\17. Gordon Lightfoot - If You Could Read My Mind.wav

Peak level 97.7 %
Extraction speed 10.7 X
Track quality 100.0 %
Test CRC 3BB47323
Copy CRC 3BB47323
Accurately ripped (confidence 2) [7FD45A97] (AR v2)
Copy OK

Track 18

Filename D:\#cdr\#wav+flac\#New\VA - Now 100 Hits 70s\cd 3\18. Nazareth - Love Hurts (Single Edit).wav

Peak level 85.6 %
Extraction speed 11.2 X
Track quality 100.0 %
Test CRC 75D0F9CA
Copy CRC 75D0F9CA
Accurately ripped (confidence 2) [BD0774EB] (AR v2)
Copy OK

Track 19

Filename D:\#cdr\#wav+flac\#New\VA - Now 100 Hits 70s\cd 3\19. Gary Moore & Phil Lynott - Parisienne Walkways.wav

Peak level 92.1 %
Extraction speed 10.6 X
Track quality 100.0 %
Test CRC DB0A0F0E
Copy CRC DB0A0F0E
Accurately ripped (confidence 2) [474D8FE1] (AR v2)
Copy OK

Track 20

Filename D:\#cdr\#wav+flac\#New\VA - Now 100 Hits 70s\cd 3\20. Eric Carmen - All by Myself.wav

Peak level 89.3 %
Extraction speed 11.4 X
Track quality 100.0 %
Test CRC 45F4D96F
Copy CRC 45F4D96F
Accurately ripped (confidence 2) [E22F1F47] (AR v2)
Copy OK


All tracks accurately ripped

No errors occurred

End of status report

–– CUETools DB Plugin V2.1.6

[CTDB TOCID: JSOwGtpE0Cz9QYtVOBA41umAEsg-] found
Submit result: JSOwGtpE0Cz9QYtVOBA41umAEsg- has been confirmed
Track | CTDB Status
1 | (3/3) Accurately ripped
2 | (3/3) Accurately ripped
3 | (3/3) Accurately ripped
4 | (3/3) Accurately ripped
5 | (3/3) Accurately ripped
6 | (3/3) Accurately ripped
7 | (3/3) Accurately ripped
8 | (3/3) Accurately ripped
9 | (3/3) Accurately ripped
10 | (3/3) Accurately ripped
11 | (3/3) Accurately ripped
12 | (3/3) Accurately ripped
13 | (3/3) Accurately ripped
14 | (3/3) Accurately ripped
15 | (3/3) Accurately ripped
16 | (3/3) Accurately ripped
17 | (3/3) Accurately ripped
18 | (3/3) Accurately ripped
19 | (3/3) Accurately ripped
20 | (3/3) Accurately ripped


==== Log checksum 4B6D72BC25DD48D19D290870F7CD015CBD14F6F4546B513DC41B4BC5BEA03FCE ====

––––––––––––––––––––––––––––––

Exact Audio Copy V1.3 from 2. September 2016

EAC extraction logfile from 18. August 2020, 18:25

Various Artists / Now 100 Hits 70s

Used drive : PLEXTOR PX-891SAF Adapter: 1 ID: 0

Read mode : Secure
Utilize accurate stream : Yes
Defeat audio cache : Yes
Make use of C2 pointers : No

Read offset correction : 6
Overread into Lead-In and Lead-Out : No
Fill up missing offset samples with silence : Yes
Delete leading and trailing silent blocks : No
Null samples used in CRC calculations : Yes
Used interface : Native Win32 interface for Win NT & 2000
Gap handling : Appended to previous track

Used output format : User Defined Encoder
Selected bitrate : 1024 kBit/s
Quality : High
Add ID3 tag : No
Command line compressor : C:\Program Files (x86)\Exact Audio Copy\Flac\flac.exe
Additional command line options : -8 -V -T "ARTIST=%artist%" -T "TITLE=%title%" -T "ALBUM=%albumtitle%" -T "DATE=%year%" -T "TRACKNUMBER=%tracknr%" -T "GENRE=%genre%" -T "PERFORMER=%albuminterpret%" -T "COMPOSER=%composer%" %haslyrics%–tag-from-file=LYRICS="%lyricsfile%"%haslyrics% -T "ALBUMARTIST=%albumartist%" -T "DISCNUMBER=%cdnumber%" -T "TOTALDISCS=%totalcds%" -T "TOTALTRACKS=%numtracks%" -T "COMMENT=%comment%" %source% -o %dest%


TOC of the extracted CD

Track | Start | Length | Start sector | End sector
––––––––––––––––––––––––––––-
1 | 0:00.00 | 4:12.44 | 0 | 18943
2 | 4:12.44 | 3:11.19 | 18944 | 33287
3 | 7:23.63 | 3:42.33 | 33288 | 49970
4 | 11:06.21 | 3:54.01 | 49971 | 67521
5 | 15:00.22 | 3:21.21 | 67522 | 82617
6 | 18:21.43 | 3:17.73 | 82618 | 97465
7 | 21:39.41 | 3:23.24 | 97466 | 112714
8 | 25:02.65 | 4:29.07 | 112715 | 132896
9 | 29:31.72 | 4:10.41 | 132897 | 151687
10 | 33:42.38 | 3:19.69 | 151688 | 166681
11 | 37:02.32 | 3:48.48 | 166682 | 183829
12 | 40:51.05 | 4:02.32 | 183830 | 202011
13 | 44:53.37 | 5:09.21 | 202012 | 225207
14 | 50:02.58 | 4:23.60 | 225208 | 244992
15 | 54:26.43 | 3:25.49 | 244993 | 260416
16 | 57:52.17 | 4:07.33 | 260417 | 278974
17 | 61:59.50 | 3:49.19 | 278975 | 296168
18 | 65:48.69 | 3:52.00 | 296169 | 313568
19 | 69:40.69 | 3:22.59 | 313569 | 328777
20 | 73:03.53 | 4:51.60 | 328778 | 350662


Track 1

Filename D:\#cdr\#wav+flac\#New\VA - Now 100 Hits 70s\cd 3\01. ABBA - Fernando.wav

Pre-gap length 0:00:02.00

Peak level 97.7 %
Extraction speed 5.7 X
Track quality 100.0 %
Test CRC A22E1E36
Copy CRC A22E1E36
Accurately ripped (confidence 2) [4281444E] (AR v2)
Copy OK

Track 2

Filename D:\#cdr\#wav+flac\#New\VA - Now 100 Hits 70s\cd 3\02. Fleetwood Mac - Don't Stop.wav

Peak level 86.6 %
Extraction speed 4.7 X
Track quality 99.9 %
Test CRC 498AB915
Copy CRC 498AB915
Accurately ripped (confidence 2) [D0C400EB] (AR v2)
Copy OK

Track 3

Filename D:\#cdr\#wav+flac\#New\VA - Now 100 Hits 70s\cd 3\03. Paul McCartney - Another Day.wav

Peak level 97.7 %
Extraction speed 5.3 X
Track quality 99.9 %
Test CRC 177DD8DB
Copy CRC 177DD8DB
Accurately ripped (confidence 2) [DD43173A] (AR v2)
Copy OK

Track 4

Filename D:\#cdr\#wav+flac\#New\VA - Now 100 Hits 70s\cd 3\04. Chicago - If You Leave Me Now.wav

Peak level 81.6 %
Extraction speed 5.8 X
Track quality 99.9 %
Test CRC ABF6079A
Copy CRC ABF6079A
Accurately ripped (confidence 2) [14697FEE] (AR v2)
Copy OK

Track 5

Filename D:\#cdr\#wav+flac\#New\VA - Now 100 Hits 70s\cd 3\05. Harry Nilsson - Without You.wav

Peak level 82.4 %
Extraction speed 7.0 X
Track quality 100.0 %
Test CRC 3DD9AD79
Copy CRC 3DD9AD79
Accurately ripped (confidence 2) [672180D3] (AR v2)
Copy OK

Track 6

Filename D:\#cdr\#wav+flac\#New\VA - Now 100 Hits 70s\cd 3\06. Barry Manilow - Mandy.wav

Peak level 97.7 %
Extraction speed 7.4 X
Track quality 100.0 %
Test CRC 4774C2F2
Copy CRC 4774C2F2
Accurately ripped (confidence 2) [C29FB559] (AR v2)
Copy OK

Track 7

Filename D:\#cdr\#wav+flac\#New\VA - Now 100 Hits 70s\cd 3\07. Patti Smith Group - Because the Night.wav

Peak level 96.6 %
Extraction speed 7.7 X
Track quality 100.0 %
Test CRC 773810D0
Copy CRC 773810D0
Accurately ripped (confidence 2) [6487D3AD] (AR v2)
Copy OK

Track 8

Filename D:\#cdr\#wav+flac\#New\VA - Now 100 Hits 70s\cd 3\08. Kate Bush - Wuthering Heights.wav

Peak level 97.7 %
Extraction speed 8.4 X
Track quality 100.0 %
Test CRC F9527E43
Copy CRC F9527E43
Accurately ripped (confidence 2) [79B81F3F] (AR v2)
Copy OK

Track 9

Filename D:\#cdr\#wav+flac\#New\VA - Now 100 Hits 70s\cd 3\09. Meat Loaf - You Took the Words Right Out of My Mouth (Hot Summer Night).wav

Peak level 97.7 %
Extraction speed 8.7 X
Track quality 100.0 %
Test CRC 91919414
Copy CRC 91919414
Accurately ripped (confidence 2) [1E1056AB] (AR v2)
Copy OK

Track 10

Filename D:\#cdr\#wav+flac\#New\VA - Now 100 Hits 70s\cd 3\10. Foreigner - Cold as Ice.wav

Peak level 97.7 %
Extraction speed 8.7 X
Track quality 100.0 %
Test CRC 1DABD62F
Copy CRC 1DABD62F
Accurately ripped (confidence 2) [3E369539] (AR v2)
Copy OK

Track 11

Filename D:\#cdr\#wav+flac\#New\VA - Now 100 Hits 70s\cd 3\11. Edwin Starr - War.wav

Peak level 97.7 %
Extraction speed 9.1 X
Track quality 100.0 %
Test CRC B874257D
Copy CRC B874257D
Accurately ripped (confidence 2) [86A50DC9] (AR v2)
Copy OK

Track 12

Filename D:\#cdr\#wav+flac\#New\VA - Now 100 Hits 70s\cd 3\12. The Jam - Down in the Tube Station at Midnight.wav

Peak level 88.3 %
Extraction speed 9.4 X
Track quality 100.0 %
Test CRC 1448C761
Copy CRC 1448C761
Accurately ripped (confidence 2) [D34EABC9] (AR v2)
Copy OK

Track 13

Filename D:\#cdr\#wav+flac\#New\VA - Now 100 Hits 70s\cd 3\13. The Boomtown Rats - Rat Trap.wav

Peak level 82.0 %
Extraction speed 10.0 X
Track quality 100.0 %
Test CRC 861BA5D6
Copy CRC 861BA5D6
Accurately ripped (confidence 2) [ED14628A] (AR v2)
Copy OK

Track 14

Filename D:\#cdr\#wav+flac\#New\VA - Now 100 Hits 70s\cd 3\14. Rod Stewart - Handbags & Gladrags.wav

Peak level 95.3 %
Extraction speed 10.1 X
Track quality 100.0 %
Test CRC 5EA4E07E
Copy CRC 5EA4E07E
Accurately ripped (confidence 2) [D1DB9AC1] (AR v2)
Copy OK

Track 15

Filename D:\#cdr\#wav+flac\#New\VA - Now 100 Hits 70s\cd 3\15. Terry Jacks - Seasons in the Sun.wav

Peak level 95.4 %
Extraction speed 10.1 X
Track quality 100.0 %
Test CRC C9FD639A
Copy CRC C9FD639A
Accurately ripped (confidence 2) [2B8FC2CC] (AR v2)
Copy OK

Track 16

Filename D:\#cdr\#wav+flac\#New\VA - Now 100 Hits 70s\cd 3\16. Ralph McTell - Streets of London.wav

Peak level 97.7 %
Extraction speed 10.5 X
Track quality 100.0 %
Test CRC E14BAA43
Copy CRC E14BAA43
Accurately ripped (confidence 2) [9D34433D] (AR v2)
Copy OK

Track 17

Filename D:\#cdr\#wav+flac\#New\VA - Now 100 Hits 70s\cd 3\17. Gordon Lightfoot - If You Could Read My Mind.wav

Peak level 97.7 %
Extraction speed 10.7 X
Track quality 100.0 %
Test CRC 3BB47323
Copy CRC 3BB47323
Accurately ripped (confidence 2) [7FD45A97] (AR v2)
Copy OK

Track 18

Filename D:\#cdr\#wav+flac\#New\VA - Now 100 Hits 70s\cd 3\18. Nazareth - Love Hurts (Single Edit).wav

Peak level 85.6 %
Extraction speed 11.2 X
Track quality 100.0 %
Test CRC 75D0F9CA
Copy CRC 75D0F9CA
Accurately ripped (confidence 2) [BD0774EB] (AR v2)
Copy OK

Track 19

Filename D:\#cdr\#wav+flac\#New\VA - Now 100 Hits 70s\cd 3\19. Gary Moore & Phil Lynott - Parisienne Walkways.wav

Peak level 92.1 %
Extraction speed 10.6 X
Track quality 100.0 %
Test CRC DB0A0F0E
Copy CRC DB0A0F0E
Accurately ripped (confidence 2) [474D8FE1] (AR v2)
Copy OK

Track 20

Filename D:\#cdr\#wav+flac\#New\VA - Now 100 Hits 70s\cd 3\20. Eric Carmen - All by Myself.wav

Peak level 89.3 %
Extraction speed 11.4 X
Track quality 100.0 %
Test CRC 45F4D96F
Copy CRC 45F4D96F
Accurately ripped (confidence 2) [E22F1F47] (AR v2)
Copy OK


All tracks accurately ripped

No errors occurred

End of status report

–– CUETools DB Plugin V2.1.6

[CTDB TOCID: JSOwGtpE0Cz9QYtVOBA41umAEsg-] found
Submit result: JSOwGtpE0Cz9QYtVOBA41umAEsg- has been confirmed
Track | CTDB Status
1 | (3/3) Accurately ripped
2 | (3/3) Accurately ripped
3 | (3/3) Accurately ripped
4 | (3/3) Accurately ripped
5 | (3/3) Accurately ripped
6 | (3/3) Accurately ripped
7 | (3/3) Accurately ripped
8 | (3/3) Accurately ripped
9 | (3/3) Accurately ripped
10 | (3/3) Accurately ripped
11 | (3/3) Accurately ripped
12 | (3/3) Accurately ripped
13 | (3/3) Accurately ripped
14 | (3/3) Accurately ripped
15 | (3/3) Accurately ripped
16 | (3/3) Accurately ripped
17 | (3/3) Accurately ripped
18 | (3/3) Accurately ripped
19 | (3/3) Accurately ripped
20 | (3/3) Accurately ripped


==== Log checksum 4B6D72BC25DD48D19D290870F7CD015CBD14F6F4546B513DC41B4BC5BEA03FCE ====

Exact Audio Copy V1.3 from 2. September 2016

EAC extraction logfile from 18. August 2020, 18:48

Various Artists / Now 100 Hits 70s

Used drive : PLEXTOR PX-891SAF Adapter: 1 ID: 0

Read mode : Secure
Utilize accurate stream : Yes
Defeat audio cache : Yes
Make use of C2 pointers : No

Read offset correction : 6
Overread into Lead-In and Lead-Out : No
Fill up missing offset samples with silence : Yes
Delete leading and trailing silent blocks : No
Null samples used in CRC calculations : Yes
Used interface : Native Win32 interface for Win NT & 2000
Gap handling : Appended to previous track

Used output format : User Defined Encoder
Selected bitrate : 1024 kBit/s
Quality : High
Add ID3 tag : No
Command line compressor : C:\Program Files (x86)\Exact Audio Copy\Flac\flac.exe
Additional command line options : -8 -V -T "ARTIST=%artist%" -T "TITLE=%title%" -T "ALBUM=%albumtitle%" -T "DATE=%year%" -T "TRACKNUMBER=%tracknr%" -T "GENRE=%genre%" -T "PERFORMER=%albuminterpret%" -T "COMPOSER=%composer%" %haslyrics%–tag-from-file=LYRICS="%lyricsfile%"%haslyrics% -T "ALBUMARTIST=%albumartist%" -T "DISCNUMBER=%cdnumber%" -T "TOTALDISCS=%totalcds%" -T "TOTALTRACKS=%numtracks%" -T "COMMENT=%comment%" %source% -o %dest%


TOC of the extracted CD

Track | Start | Length | Start sector | End sector
––––––––––––––––––––––––––––-
1 | 0:00.00 | 3:45.35 | 0 | 16909
2 | 3:45.35 | 3:38.38 | 16910 | 33297
3 | 7:23.73 | 3:46.66 | 33298 | 50313
4 | 11:10.64 | 4:55.41 | 50314 | 72479
5 | 16:06.30 | 2:23.21 | 72480 | 83225
6 | 18:29.51 | 3:06.26 | 83226 | 97201
7 | 21:36.02 | 3:42.70 | 97202 | 113921
8 | 25:18.72 | 3:11.55 | 113922 | 128301
9 | 28:30.52 | 4:00.41 | 128302 | 146342
10 | 32:31.18 | 3:42.10 | 146343 | 163002
11 | 36:13.28 | 4:08.12 | 163003 | 181614
12 | 40:21.40 | 3:40.20 | 181615 | 198134
13 | 44:01.60 | 5:41.57 | 198135 | 223766
14 | 49:43.42 | 3:38.18 | 223767 | 240134
15 | 53:21.60 | 4:07.43 | 240135 | 258702
16 | 57:29.28 | 3:02.17 | 258703 | 272369
17 | 60:31.45 | 2:31.03 | 272370 | 283697
18 | 63:02.48 | 3:04.38 | 283698 | 297535
19 | 66:07.11 | 3:04.11 | 297536 | 311346
20 | 69:11.22 | 4:41.42 | 311347 | 332463


Track 1

Filename D:\#cdr\#wav+flac\#New\VA - Now 100 Hits 70s\cd 4\01. The Cars - My Best Friend's Girl.wav

Pre-gap length 0:00:02.00

Peak level 89.7 %
Extraction speed 5.6 X
Track quality 100.0 %
Test CRC E14F621D
Copy CRC E14F621D
Accurately ripped (confidence 3) [0DEEC518] (AR v2)
Copy OK

Track 2

Filename D:\#cdr\#wav+flac\#New\VA - Now 100 Hits 70s\cd 4\02. Joe Jackson - Is She Really Going Out with Him.wav

Peak level 97.7 %
Extraction speed 6.2 X
Track quality 100.0 %
Test CRC 4E30CFC0
Copy CRC 4E30CFC0
Accurately ripped (confidence 3) [C5FAE996] (AR v2)
Copy OK

Track 3

Filename D:\#cdr\#wav+flac\#New\VA - Now 100 Hits 70s\cd 4\03. Roxy Music - Dance Away.wav

Peak level 97.7 %
Extraction speed 6.5 X
Track quality 100.0 %
Test CRC 04082256
Copy CRC 04082256
Accurately ripped (confidence 3) [CBA8A4B2] (AR v2)
Copy OK

Track 4

Filename D:\#cdr\#wav+flac\#New\VA - Now 100 Hits 70s\cd 4\04. M - Pop Muzik.wav

Peak level 79.8 %
Extraction speed 7.2 X
Track quality 100.0 %
Test CRC 4C4D60F7
Copy CRC 4C4D60F7
Accurately ripped (confidence 3) [108C454D] (AR v2)
Copy OK

Track 5

Filename D:\#cdr\#wav+flac\#New\VA - Now 100 Hits 70s\cd 4\05. The Tourists - I Only Want to Be with You.wav

Peak level 97.7 %
Extraction speed 6.8 X
Track quality 100.0 %
Test CRC 7884D2D8
Copy CRC 7884D2D8
Accurately ripped (confidence 3) [082704FD] (AR v2)
Copy OK

Track 6

Filename D:\#cdr\#wav+flac\#New\VA - Now 100 Hits 70s\cd 4\06. Mott the Hoople - Roll Away the Stone.wav

Peak level 96.5 %
Extraction speed 7.3 X
Track quality 100.0 %
Test CRC 890ABB25
Copy CRC 890ABB25
Accurately ripped (confidence 3) [8A791820] (AR v2)
Copy OK

Track 7

Filename D:\#cdr\#wav+flac\#New\VA - Now 100 Hits 70s\cd 4\07. Status Quo - Down Down.wav

Peak level 74.5 %
Extraction speed 7.8 X
Track quality 100.0 %
Test CRC DB55BE4A
Copy CRC DB55BE4A
Accurately ripped (confidence 3) [F3B0DA3A] (AR v2)
Copy OK

Track 8

Filename D:\#cdr\#wav+flac\#New\VA - Now 100 Hits 70s\cd 4\08. Sweet - Blockbuster.wav

Peak level 78.9 %
Extraction speed 7.9 X
Track quality 100.0 %
Test CRC C80DD102
Copy CRC C80DD102
Accurately ripped (confidence 3) [CF6A67FE] (AR v2)
Copy OK

Track 9

Filename D:\#cdr\#wav+flac\#New\VA - Now 100 Hits 70s\cd 4\09. The Allman Brothers Band - Jessica.wav

Peak level 97.7 %
Extraction speed 8.5 X
Track quality 100.0 %
Test CRC F76EA8A4
Copy CRC F76EA8A4
Accurately ripped (confidence 3) [6F59B63E] (AR v2)
Copy OK

Track 10

Filename D:\#cdr\#wav+flac\#New\VA - Now 100 Hits 70s\cd 4\10. Thin Lizzy - Whiskey In the Jar.wav

Peak level 97.7 %
Extraction speed 8.6 X
Track quality 100.0 %
Test CRC CEA066BB
Copy CRC CEA066BB
Accurately ripped (confidence 3) [7B9F7E33] (AR v2)
Copy OK

Track 11

Filename D:\#cdr\#wav+flac\#New\VA - Now 100 Hits 70s\cd 4\11. Justin Hayward - Forever Autumn.wav

Peak level 97.7 %
Extraction speed 9.1 X
Track quality 100.0 %
Test CRC 271B4576
Copy CRC 271B4576
Accurately ripped (confidence 3) [F6D9DD94] (AR v2)
Copy OK

Track 12

Filename D:\#cdr\#wav+flac\#New\VA - Now 100 Hits 70s\cd 4\12. Python Lee Jackson Feat. Rod Stewart - In a Broken Dream.wav

Peak level 97.7 %
Extraction speed 9.3 X
Track quality 100.0 %
Test CRC 80592C1D
Copy CRC 80592C1D
Accurately ripped (confidence 3) [0683E046] (AR v2)
Copy OK

Track 13

Filename D:\#cdr\#wav+flac\#New\VA - Now 100 Hits 70s\cd 4\13. The Walker Brothers - No Regrets.wav

Peak level 97.7 %
Extraction speed 10.0 X
Track quality 100.0 %
Test CRC 92CF98FB
Copy CRC 92CF98FB
Accurately ripped (confidence 3) [521F1C7E] (AR v2)
Copy OK

Track 14

Filename D:\#cdr\#wav+flac\#New\VA - Now 100 Hits 70s\cd 4\14. Elkie Brooks - Pearl's a Singer.wav

Peak level 97.7 %
Extraction speed 9.9 X
Track quality 100.0 %
Test CRC A016E9FA
Copy CRC A016E9FA
Accurately ripped (confidence 3) [48376090] (AR v2)
Copy OK

Track 15

Filename D:\#cdr\#wav+flac\#New\VA - Now 100 Hits 70s\cd 4\15. Santana - She's Not There.wav

Peak level 92.8 %
Extraction speed 10.3 X
Track quality 100.0 %
Test CRC B8ED885B
Copy CRC B8ED885B
Accurately ripped (confidence 3) [1A948554] (AR v2)
Copy OK

Track 16

Filename D:\#cdr\#wav+flac\#New\VA - Now 100 Hits 70s\cd 4\16. Sparks - This Town Ain't Big Enough for Both of Us.wav

Peak level 92.5 %
Extraction speed 7.8 X
Track quality 99.9 %
Test CRC 9B41FBA2
Copy CRC 9B41FBA2
Accurately ripped (confidence 3) [475AE6C5] (AR v2)
Copy OK

Track 17

Filename D:\#cdr\#wav+flac\#New\VA - Now 100 Hits 70s\cd 4\17. Madness - The Prince.wav

Peak level 97.7 %
Extraction speed 7.6 X
Track quality 99.9 %
Test CRC 6F74DA95
Copy CRC 6F74DA95
Accurately ripped (confidence 3) [2B294B67] (AR v2)
Copy OK

Track 18

Filename D:\#cdr\#wav+flac\#New\VA - Now 100 Hits 70s\cd 4\18. Sham 69 - Hurry Up Harry.wav

Peak level 97.7 %
Extraction speed 10.1 X
Track quality 100.0 %
Test CRC CFEE8D89
Copy CRC CFEE8D89
Accurately ripped (confidence 3) [48CC5395] (AR v2)
Copy OK

Track 19

Filename D:\#cdr\#wav+flac\#New\VA - Now 100 Hits 70s\cd 4\19. Graham Parker & The Rumour - Hold Back the Night.wav

Peak level 97.7 %
Extraction speed 10.8 X
Track quality 100.0 %
Test CRC 7D3C10E5
Copy CRC 7D3C10E5
Accurately ripped (confidence 3) [92BDB74F] (AR v2)
Copy OK

Track 20

Filename D:\#cdr\#wav+flac\#New\VA - Now 100 Hits 70s\cd 4\20. Chris Rea - Fool (If You Think It's Over).wav

Peak level 97.7 %
Extraction speed 9.6 X
Track quality 99.9 %
Test CRC EAAC7839
Copy CRC EAAC7839
Accurately ripped (confidence 3) [A8C5BFCE] (AR v2)
Copy OK


All tracks accurately ripped

No errors occurred

End of status report

–– CUETools DB Plugin V2.1.6

[CTDB TOCID: uBRT9qI9_B6gzKCdym044ZdHVrA-] found
Submit result: uBRT9qI9_B6gzKCdym044ZdHVrA- has been confirmed
Track | CTDB Status
1 | (5/5) Accurately ripped
2 | (5/5) Accurately ripped
3 | (5/5) Accurately ripped
4 | (5/5) Accurately ripped
5 | (5/5) Accurately ripped
6 | (5/5) Accurately ripped
7 | (5/5) Accurately ripped
8 | (5/5) Accurately ripped
9 | (5/5) Accurately ripped
10 | (5/5) Accurately ripped
11 | (5/5) Accurately ripped
12 | (5/5) Accurately ripped
13 | (5/5) Accurately ripped
14 | (5/5) Accurately ripped
15 | (5/5) Accurately ripped
16 | (5/5) Accurately ripped
17 | (5/5) Accurately ripped
18 | (5/5) Accurately ripped
19 | (5/5) Accurately ripped
20 | (5/5) Accurately ripped


==== Log checksum 0AAB4A4E95401A4125658B80224EFD5061C39B9291585313FD8BCF28F0CE4794 ====

––––––––––––––––––––––––––––––

Exact Audio Copy V1.3 from 2. September 2016

EAC extraction logfile from 18. August 2020, 18:48

Various Artists / Now 100 Hits 70s

Used drive : PLEXTOR PX-891SAF Adapter: 1 ID: 0

Read mode : Secure
Utilize accurate stream : Yes
Defeat audio cache : Yes
Make use of C2 pointers : No

Read offset correction : 6
Overread into Lead-In and Lead-Out : No
Fill up missing offset samples with silence : Yes
Delete leading and trailing silent blocks : No
Null samples used in CRC calculations : Yes
Used interface : Native Win32 interface for Win NT & 2000
Gap handling : Appended to previous track

Used output format : User Defined Encoder
Selected bitrate : 1024 kBit/s
Quality : High
Add ID3 tag : No
Command line compressor : C:\Program Files (x86)\Exact Audio Copy\Flac\flac.exe
Additional command line options : -8 -V -T "ARTIST=%artist%" -T "TITLE=%title%" -T "ALBUM=%albumtitle%" -T "DATE=%year%" -T "TRACKNUMBER=%tracknr%" -T "GENRE=%genre%" -T "PERFORMER=%albuminterpret%" -T "COMPOSER=%composer%" %haslyrics%–tag-from-file=LYRICS="%lyricsfile%"%haslyrics% -T "ALBUMARTIST=%albumartist%" -T "DISCNUMBER=%cdnumber%" -T "TOTALDISCS=%totalcds%" -T "TOTALTRACKS=%numtracks%" -T "COMMENT=%comment%" %source% -o %dest%


TOC of the extracted CD

Track | Start | Length | Start sector | End sector
––––––––––––––––––––––––––––-
1 | 0:00.00 | 3:45.35 | 0 | 16909
2 | 3:45.35 | 3:38.38 | 16910 | 33297
3 | 7:23.73 | 3:46.66 | 33298 | 50313
4 | 11:10.64 | 4:55.41 | 50314 | 72479
5 | 16:06.30 | 2:23.21 | 72480 | 83225
6 | 18:29.51 | 3:06.26 | 83226 | 97201
7 | 21:36.02 | 3:42.70 | 97202 | 113921
8 | 25:18.72 | 3:11.55 | 113922 | 128301
9 | 28:30.52 | 4:00.41 | 128302 | 146342
10 | 32:31.18 | 3:42.10 | 146343 | 163002
11 | 36:13.28 | 4:08.12 | 163003 | 181614
12 | 40:21.40 | 3:40.20 | 181615 | 198134
13 | 44:01.60 | 5:41.57 | 198135 | 223766
14 | 49:43.42 | 3:38.18 | 223767 | 240134
15 | 53:21.60 | 4:07.43 | 240135 | 258702
16 | 57:29.28 | 3:02.17 | 258703 | 272369
17 | 60:31.45 | 2:31.03 | 272370 | 283697
18 | 63:02.48 | 3:04.38 | 283698 | 297535
19 | 66:07.11 | 3:04.11 | 297536 | 311346
20 | 69:11.22 | 4:41.42 | 311347 | 332463


Track 1

Filename D:\#cdr\#wav+flac\#New\VA - Now 100 Hits 70s\cd 4\01. The Cars - My Best Friend's Girl.wav

Pre-gap length 0:00:02.00

Peak level 89.7 %
Extraction speed 5.6 X
Track quality 100.0 %
Test CRC E14F621D
Copy CRC E14F621D
Accurately ripped (confidence 3) [0DEEC518] (AR v2)
Copy OK

Track 2

Filename D:\#cdr\#wav+flac\#New\VA - Now 100 Hits 70s\cd 4\02. Joe Jackson - Is She Really Going Out with Him.wav

Peak level 97.7 %
Extraction speed 6.2 X
Track quality 100.0 %
Test CRC 4E30CFC0
Copy CRC 4E30CFC0
Accurately ripped (confidence 3) [C5FAE996] (AR v2)
Copy OK

Track 3

Filename D:\#cdr\#wav+flac\#New\VA - Now 100 Hits 70s\cd 4\03. Roxy Music - Dance Away.wav

Peak level 97.7 %
Extraction speed 6.5 X
Track quality 100.0 %
Test CRC 04082256
Copy CRC 04082256
Accurately ripped (confidence 3) [CBA8A4B2] (AR v2)
Copy OK

Track 4

Filename D:\#cdr\#wav+flac\#New\VA - Now 100 Hits 70s\cd 4\04. M - Pop Muzik.wav

Peak level 79.8 %
Extraction speed 7.2 X
Track quality 100.0 %
Test CRC 4C4D60F7
Copy CRC 4C4D60F7
Accurately ripped (confidence 3) [108C454D] (AR v2)
Copy OK

Track 5

Filename D:\#cdr\#wav+flac\#New\VA - Now 100 Hits 70s\cd 4\05. The Tourists - I Only Want to Be with You.wav

Peak level 97.7 %
Extraction speed 6.8 X
Track quality 100.0 %
Test CRC 7884D2D8
Copy CRC 7884D2D8
Accurately ripped (confidence 3) [082704FD] (AR v2)
Copy OK

Track 6

Filename D:\#cdr\#wav+flac\#New\VA - Now 100 Hits 70s\cd 4\06. Mott the Hoople - Roll Away the Stone.wav

Peak level 96.5 %
Extraction speed 7.3 X
Track quality 100.0 %
Test CRC 890ABB25
Copy CRC 890ABB25
Accurately ripped (confidence 3) [8A791820] (AR v2)
Copy OK

Track 7

Filename D:\#cdr\#wav+flac\#New\VA - Now 100 Hits 70s\cd 4\07. Status Quo - Down Down.wav

Peak level 74.5 %
Extraction speed 7.8 X
Track quality 100.0 %
Test CRC DB55BE4A
Copy CRC DB55BE4A
Accurately ripped (confidence 3) [F3B0DA3A] (AR v2)
Copy OK

Track 8

Filename D:\#cdr\#wav+flac\#New\VA - Now 100 Hits 70s\cd 4\08. Sweet - Blockbuster.wav

Peak level 78.9 %
Extraction speed 7.9 X
Track quality 100.0 %
Test CRC C80DD102
Copy CRC C80DD102
Accurately ripped (confidence 3) [CF6A67FE] (AR v2)
Copy OK

Track 9

Filename D:\#cdr\#wav+flac\#New\VA - Now 100 Hits 70s\cd 4\09. The Allman Brothers Band - Jessica.wav

Peak level 97.7 %
Extraction speed 8.5 X
Track quality 100.0 %
Test CRC F76EA8A4
Copy CRC F76EA8A4
Accurately ripped (confidence 3) [6F59B63E] (AR v2)
Copy OK

Track 10

Filename D:\#cdr\#wav+flac\#New\VA - Now 100 Hits 70s\cd 4\10. Thin Lizzy - Whiskey In the Jar.wav

Peak level 97.7 %
Extraction speed 8.6 X
Track quality 100.0 %
Test CRC CEA066BB
Copy CRC CEA066BB
Accurately ripped (confidence 3) [7B9F7E33] (AR v2)
Copy OK

Track 11

Filename D:\#cdr\#wav+flac\#New\VA - Now 100 Hits 70s\cd 4\11. Justin Hayward - Forever Autumn.wav

Peak level 97.7 %
Extraction speed 9.1 X
Track quality 100.0 %
Test CRC 271B4576
Copy CRC 271B4576
Accurately ripped (confidence 3) [F6D9DD94] (AR v2)
Copy OK

Track 12

Filename D:\#cdr\#wav+flac\#New\VA - Now 100 Hits 70s\cd 4\12. Python Lee Jackson Feat. Rod Stewart - In a Broken Dream.wav

Peak level 97.7 %
Extraction speed 9.3 X
Track quality 100.0 %
Test CRC 80592C1D
Copy CRC 80592C1D
Accurately ripped (confidence 3) [0683E046] (AR v2)
Copy OK

Track 13

Filename D:\#cdr\#wav+flac\#New\VA - Now 100 Hits 70s\cd 4\13. The Walker Brothers - No Regrets.wav

Peak level 97.7 %
Extraction speed 10.0 X
Track quality 100.0 %
Test CRC 92CF98FB
Copy CRC 92CF98FB
Accurately ripped (confidence 3) [521F1C7E] (AR v2)
Copy OK

Track 14

Filename D:\#cdr\#wav+flac\#New\VA - Now 100 Hits 70s\cd 4\14. Elkie Brooks - Pearl's a Singer.wav

Peak level 97.7 %
Extraction speed 9.9 X
Track quality 100.0 %
Test CRC A016E9FA
Copy CRC A016E9FA
Accurately ripped (confidence 3) [48376090] (AR v2)
Copy OK

Track 15

Filename D:\#cdr\#wav+flac\#New\VA - Now 100 Hits 70s\cd 4\15. Santana - She's Not There.wav

Peak level 92.8 %
Extraction speed 10.3 X
Track quality 100.0 %
Test CRC B8ED885B
Copy CRC B8ED885B
Accurately ripped (confidence 3) [1A948554] (AR v2)
Copy OK

Track 16

Filename D:\#cdr\#wav+flac\#New\VA - Now 100 Hits 70s\cd 4\16. Sparks - This Town Ain't Big Enough for Both of Us.wav

Peak level 92.5 %
Extraction speed 7.8 X
Track quality 99.9 %
Test CRC 9B41FBA2
Copy CRC 9B41FBA2
Accurately ripped (confidence 3) [475AE6C5] (AR v2)
Copy OK

Track 17

Filename D:\#cdr\#wav+flac\#New\VA - Now 100 Hits 70s\cd 4\17. Madness - The Prince.wav

Peak level 97.7 %
Extraction speed 7.6 X
Track quality 99.9 %
Test CRC 6F74DA95
Copy CRC 6F74DA95
Accurately ripped (confidence 3) [2B294B67] (AR v2)
Copy OK

Track 18

Filename D:\#cdr\#wav+flac\#New\VA - Now 100 Hits 70s\cd 4\18. Sham 69 - Hurry Up Harry.wav

Peak level 97.7 %
Extraction speed 10.1 X
Track quality 100.0 %
Test CRC CFEE8D89
Copy CRC CFEE8D89
Accurately ripped (confidence 3) [48CC5395] (AR v2)
Copy OK

Track 19

Filename D:\#cdr\#wav+flac\#New\VA - Now 100 Hits 70s\cd 4\19. Graham Parker & The Rumour - Hold Back the Night.wav

Peak level 97.7 %
Extraction speed 10.8 X
Track quality 100.0 %
Test CRC 7D3C10E5
Copy CRC 7D3C10E5
Accurately ripped (confidence 3) [92BDB74F] (AR v2)
Copy OK

Track 20

Filename D:\#cdr\#wav+flac\#New\VA - Now 100 Hits 70s\cd 4\20. Chris Rea - Fool (If You Think It's Over).wav

Peak level 97.7 %
Extraction speed 9.6 X
Track quality 99.9 %
Test CRC EAAC7839
Copy CRC EAAC7839
Accurately ripped (confidence 3) [A8C5BFCE] (AR v2)
Copy OK


All tracks accurately ripped

No errors occurred

End of status report

–– CUETools DB Plugin V2.1.6

[CTDB TOCID: uBRT9qI9_B6gzKCdym044ZdHVrA-] found
Submit result: uBRT9qI9_B6gzKCdym044ZdHVrA- has been confirmed
Track | CTDB Status
1 | (5/5) Accurately ripped
2 | (5/5) Accurately ripped
3 | (5/5) Accurately ripped
4 | (5/5) Accurately ripped
5 | (5/5) Accurately ripped
6 | (5/5) Accurately ripped
7 | (5/5) Accurately ripped
8 | (5/5) Accurately ripped
9 | (5/5) Accurately ripped
10 | (5/5) Accurately ripped
11 | (5/5) Accurately ripped
12 | (5/5) Accurately ripped
13 | (5/5) Accurately ripped
14 | (5/5) Accurately ripped
15 | (5/5) Accurately ripped
16 | (5/5) Accurately ripped
17 | (5/5) Accurately ripped
18 | (5/5) Accurately ripped
19 | (5/5) Accurately ripped
20 | (5/5) Accurately ripped


==== Log checksum 0AAB4A4E95401A4125658B80224EFD5061C39B9291585313FD8BCF28F0CE4794 ====

Exact Audio Copy V1.3 from 2. September 2016

EAC extraction logfile from 18. August 2020, 19:09

Various Artists / Now 100 Hits 70s

Used drive : PLEXTOR PX-891SAF Adapter: 1 ID: 0

Read mode : Secure
Utilize accurate stream : Yes
Defeat audio cache : Yes
Make use of C2 pointers : No

Read offset correction : 6
Overread into Lead-In and Lead-Out : No
Fill up missing offset samples with silence : Yes
Delete leading and trailing silent blocks : No
Null samples used in CRC calculations : Yes
Used interface : Native Win32 interface for Win NT & 2000
Gap handling : Appended to previous track

Used output format : User Defined Encoder
Selected bitrate : 1024 kBit/s
Quality : High
Add ID3 tag : No
Command line compressor : C:\Program Files (x86)\Exact Audio Copy\Flac\flac.exe
Additional command line options : -8 -V -T "ARTIST=%artist%" -T "TITLE=%title%" -T "ALBUM=%albumtitle%" -T "DATE=%year%" -T "TRACKNUMBER=%tracknr%" -T "GENRE=%genre%" -T "PERFORMER=%albuminterpret%" -T "COMPOSER=%composer%" %haslyrics%–tag-from-file=LYRICS="%lyricsfile%"%haslyrics% -T "ALBUMARTIST=%albumartist%" -T "DISCNUMBER=%cdnumber%" -T "TOTALDISCS=%totalcds%" -T "TOTALTRACKS=%numtracks%" -T "COMMENT=%comment%" %source% -o %dest%


TOC of the extracted CD

Track | Start | Length | Start sector | End sector
––––––––––––––––––––––––––––-
1 | 0:00.00 | 3:17.30 | 0 | 14804
2 | 3:17.30 | 2:50.58 | 14805 | 27612
3 | 6:08.13 | 3:10.30 | 27613 | 41892
4 | 9:18.43 | 3:30.15 | 41893 | 57657
5 | 12:48.58 | 3:47.46 | 57658 | 74728
6 | 16:36.29 | 4:07.70 | 74729 | 93323
7 | 20:44.24 | 3:36.12 | 93324 | 109535
8 | 24:20.36 | 4:26.73 | 109536 | 129558
9 | 28:47.34 | 2:19.39 | 129559 | 140022
10 | 31:06.73 | 3:24.39 | 140023 | 155361
11 | 34:31.37 | 3:31.26 | 155362 | 171212
12 | 38:02.63 | 3:57.17 | 171213 | 189004
13 | 42:00.05 | 2:47.12 | 189005 | 201541
14 | 44:47.17 | 2:36.60 | 201542 | 213301
15 | 47:24.02 | 3:26.43 | 213302 | 228794
16 | 50:50.45 | 2:45.61 | 228795 | 241230
17 | 53:36.31 | 3:30.54 | 241231 | 257034
18 | 57:07.10 | 3:51.71 | 257035 | 274430
19 | 60:59.06 | 3:54.50 | 274431 | 292030
20 | 64:53.56 | 3:41.63 | 292031 | 308668


Track 1

Filename D:\#cdr\#wav+flac\#New\VA - Now 100 Hits 70s\cd 5\01. Carl Douglas - Kung Fu Fighting.wav

Pre-gap length 0:00:02.00

Peak level 97.7 %
Extraction speed 5.5 X
Track quality 100.0 %
Test CRC 608C9917
Copy CRC 608C9917
Accurately ripped (confidence 2) [C201C2A0] (AR v2)
Copy OK

Track 2

Filename D:\#cdr\#wav+flac\#New\VA - Now 100 Hits 70s\cd 5\02. Bay City Rollers - Bye Bye Baby.wav

Peak level 97.7 %
Extraction speed 5.7 X
Track quality 100.0 %
Test CRC F80AE6AE
Copy CRC F80AE6AE
Accurately ripped (confidence 2) [433D62E3] (AR v2)
Copy OK

Track 3

Filename D:\#cdr\#wav+flac\#New\VA - Now 100 Hits 70s\cd 5\03. Showaddywaddy - Under the Moon of Love.wav

Peak level 74.0 %
Extraction speed 6.1 X
Track quality 100.0 %
Test CRC 54784A84
Copy CRC 54784A84
Accurately ripped (confidence 2) [CAC27A21] (AR v2)
Copy OK

Track 4

Filename D:\#cdr\#wav+flac\#New\VA - Now 100 Hits 70s\cd 5\04. The Rubettes - Sugar Baby Love.wav

Peak level 79.2 %
Extraction speed 6.6 X
Track quality 100.0 %
Test CRC 99E795A9
Copy CRC 99E795A9
Accurately ripped (confidence 2) [52DBFE86] (AR v2)
Copy OK

Track 5

Filename D:\#cdr\#wav+flac\#New\VA - Now 100 Hits 70s\cd 5\05. Suzi Quatro - Devil Gate Drive.wav

Peak level 90.7 %
Extraction speed 7.0 X
Track quality 100.0 %
Test CRC 9C11A5E8
Copy CRC 9C11A5E8
Accurately ripped (confidence 2) [5109D0C2] (AR v2)
Copy OK

Track 6

Filename D:\#cdr\#wav+flac\#New\VA - Now 100 Hits 70s\cd 5\06. Kiki Dee - Amoureuse.wav

Peak level 93.8 %
Extraction speed 7.5 X
Track quality 100.0 %
Test CRC 30D29A27
Copy CRC 30D29A27
Accurately ripped (confidence 2) [6881962A] (AR v2)
Copy OK

Track 7

Filename D:\#cdr\#wav+flac\#New\VA - Now 100 Hits 70s\cd 5\07. David Soul - Don't Give Up On Us Baby.wav

Peak level 97.7 %
Extraction speed 7.7 X
Track quality 100.0 %
Test CRC BB1D48C2
Copy CRC BB1D48C2
Accurately ripped (confidence 2) [E8ED6A7D] (AR v2)
Copy OK

Track 8

Filename D:\#cdr\#wav+flac\#New\VA - Now 100 Hits 70s\cd 5\08. Matthews' Southern Comfort - Woodstock.wav

Peak level 85.9 %
Extraction speed 8.2 X
Track quality 100.0 %
Test CRC F5169A4D
Copy CRC F5169A4D
Accurately ripped (confidence 2) [6557815E] (AR v2)
Copy OK

Track 9

Filename D:\#cdr\#wav+flac\#New\VA - Now 100 Hits 70s\cd 5\09. The New Seekers - I'd Like to Teach the World to Sing (In Perfect Harmony).wav

Peak level 97.7 %
Extraction speed 7.7 X
Track quality 100.0 %
Test CRC 1FF3B822
Copy CRC 1FF3B822
Accurately ripped (confidence 2) [54A9B16A] (AR v2)
Copy OK

Track 10

Filename D:\#cdr\#wav+flac\#New\VA - Now 100 Hits 70s\cd 5\10. Tony Orlando & Dawn - Tie a Yellow Ribbon Round the Ole Oak Tree.wav

Peak level 91.3 %
Extraction speed 6.9 X
Track quality 99.9 %
Test CRC 773694EF
Copy CRC 773694EF
Accurately ripped (confidence 2) [52E35B45] (AR v2)
Copy OK

Track 11

Filename D:\#cdr\#wav+flac\#New\VA - Now 100 Hits 70s\cd 5\11. The Drifters - Kissin' in the Back Row of the Movies.wav

Peak level 94.9 %
Extraction speed 8.7 X
Track quality 100.0 %
Test CRC 32810646
Copy CRC 32810646
Accurately ripped (confidence 2) [C7558B30] (AR v2)
Copy OK

Track 12

Filename D:\#cdr\#wav+flac\#New\VA - Now 100 Hits 70s\cd 5\12. Third World - Now That We've Found Love (Single Version).wav

Peak level 97.7 %
Extraction speed 9.2 X
Track quality 100.0 %
Test CRC 4EA0E2A2
Copy CRC 4EA0E2A2
Accurately ripped (confidence 2) [4527EE56] (AR v2)
Copy OK

Track 13

Filename D:\#cdr\#wav+flac\#New\VA - Now 100 Hits 70s\cd 5\13. Dave Edmunds - I Hear You Knocking.wav

Peak level 82.7 %
Extraction speed 8.8 X
Track quality 100.0 %
Test CRC 8E87ED7D
Copy CRC 8E87ED7D
Accurately ripped (confidence 2) [B0A418A1] (AR v2)
Copy OK

Track 14

Filename D:\#cdr\#wav+flac\#New\VA - Now 100 Hits 70s\cd 5\14. Sailor - A Glass of Champagne.wav

Peak level 94.6 %
Extraction speed 9.0 X
Track quality 100.0 %
Test CRC 3242B839
Copy CRC 3242B839
Accurately ripped (confidence 2) [2DD40DC0] (AR v2)
Copy OK

Track 15

Filename D:\#cdr\#wav+flac\#New\VA - Now 100 Hits 70s\cd 5\15. Racey - Some Girls.wav

Peak level 79.0 %
Extraction speed 9.6 X
Track quality 100.0 %
Test CRC BC9E6BD9
Copy CRC BC9E6BD9
Accurately ripped (confidence 2) [65E72625] (AR v2)
Copy OK

Track 16

Filename D:\#cdr\#wav+flac\#New\VA - Now 100 Hits 70s\cd 5\16. Alvin Stardust - My Coo Ca Choo.wav

Peak level 97.7 %
Extraction speed 9.7 X
Track quality 100.0 %
Test CRC 31917E6A
Copy CRC 31917E6A
Accurately ripped (confidence 2) [B503C050] (AR v2)
Copy OK

Track 17

Filename D:\#cdr\#wav+flac\#New\VA - Now 100 Hits 70s\cd 5\17. Pilot - January.wav

Peak level 92.7 %
Extraction speed 10.1 X
Track quality 100.0 %
Test CRC AC4C2A4A
Copy CRC AC4C2A4A
Accurately ripped (confidence 2) [D86F9D76] (AR v2)
Copy OK

Track 18

Filename D:\#cdr\#wav+flac\#New\VA - Now 100 Hits 70s\cd 5\18. David Essex - Hold Me Close.wav

Peak level 97.7 %
Extraction speed 10.3 X
Track quality 100.0 %
Test CRC 9A16D045
Copy CRC 9A16D045
Accurately ripped (confidence 2) [F267C50D] (AR v2)
Copy OK

Track 19

Filename D:\#cdr\#wav+flac\#New\VA - Now 100 Hits 70s\cd 5\19. The Isley Brothers - Harvest for the World.wav

Peak level 93.7 %
Extraction speed 10.6 X
Track quality 100.0 %
Test CRC 4C49CA34
Copy CRC 4C49CA34
Accurately ripped (confidence 2) [298B08AE] (AR v2)
Copy OK

Track 20

Filename D:\#cdr\#wav+flac\#New\VA - Now 100 Hits 70s\cd 5\20. Racing Cars - They Shoot Horses.wav

Peak level 93.7 %
Extraction speed 10.8 X
Track quality 100.0 %
Test CRC 3CBFBE82
Copy CRC 3CBFBE82
Accurately ripped (confidence 2) [1FF06ADF] (AR v2)
Copy OK


All tracks accurately ripped

No errors occurred

End of status report

–– CUETools DB Plugin V2.1.6

[CTDB TOCID: YqYLI5sRw7WTxulYLtL00_bXxhI-] found
Submit result: YqYLI5sRw7WTxulYLtL00_bXxhI- has been confirmed
Track | CTDB Status
1 | (3/3) Accurately ripped
2 | (3/3) Accurately ripped
3 | (3/3) Accurately ripped
4 | (3/3) Accurately ripped
5 | (3/3) Accurately ripped
6 | (3/3) Accurately ripped
7 | (3/3) Accurately ripped
8 | (3/3) Accurately ripped
9 | (3/3) Accurately ripped
10 | (3/3) Accurately ripped
11 | (3/3) Accurately ripped
12 | (3/3) Accurately ripped
13 | (3/3) Accurately ripped
14 | (3/3) Accurately ripped
15 | (3/3) Accurately ripped
16 | (3/3) Accurately ripped
17 | (3/3) Accurately ripped
18 | (3/3) Accurately ripped
19 | (3/3) Accurately ripped
20 | (3/3) Accurately ripped


==== Log checksum F3007ABEFD78E0A128997F1EC1AFC88A498A261314C24416497A74A0D29F1F09 ====

––––––––––––––––––––––––––––––

Exact Audio Copy V1.3 from 2. September 2016

EAC extraction logfile from 18. August 2020, 19:09

Various Artists / Now 100 Hits 70s

Used drive : PLEXTOR PX-891SAF Adapter: 1 ID: 0

Read mode : Secure
Utilize accurate stream : Yes
Defeat audio cache : Yes
Make use of C2 pointers : No

Read offset correction : 6
Overread into Lead-In and Lead-Out : No
Fill up missing offset samples with silence : Yes
Delete leading and trailing silent blocks : No
Null samples used in CRC calculations : Yes
Used interface : Native Win32 interface for Win NT & 2000
Gap handling : Appended to previous track

Used output format : User Defined Encoder
Selected bitrate : 1024 kBit/s
Quality : High
Add ID3 tag : No
Command line compressor : C:\Program Files (x86)\Exact Audio Copy\Flac\flac.exe
Additional command line options : -8 -V -T "ARTIST=%artist%" -T "TITLE=%title%" -T "ALBUM=%albumtitle%" -T "DATE=%year%" -T "TRACKNUMBER=%tracknr%" -T "GENRE=%genre%" -T "PERFORMER=%albuminterpret%" -T "COMPOSER=%composer%" %haslyrics%–tag-from-file=LYRICS="%lyricsfile%"%haslyrics% -T "ALBUMARTIST=%albumartist%" -T "DISCNUMBER=%cdnumber%" -T "TOTALDISCS=%totalcds%" -T "TOTALTRACKS=%numtracks%" -T "COMMENT=%comment%" %source% -o %dest%


TOC of the extracted CD

Track | Start | Length | Start sector | End sector
––––––––––––––––––––––––––––-
1 | 0:00.00 | 3:17.30 | 0 | 14804
2 | 3:17.30 | 2:50.58 | 14805 | 27612
3 | 6:08.13 | 3:10.30 | 27613 | 41892
4 | 9:18.43 | 3:30.15 | 41893 | 57657
5 | 12:48.58 | 3:47.46 | 57658 | 74728
6 | 16:36.29 | 4:07.70 | 74729 | 93323
7 | 20:44.24 | 3:36.12 | 93324 | 109535
8 | 24:20.36 | 4:26.73 | 109536 | 129558
9 | 28:47.34 | 2:19.39 | 129559 | 140022
10 | 31:06.73 | 3:24.39 | 140023 | 155361
11 | 34:31.37 | 3:31.26 | 155362 | 171212
12 | 38:02.63 | 3:57.17 | 171213 | 189004
13 | 42:00.05 | 2:47.12 | 189005 | 201541
14 | 44:47.17 | 2:36.60 | 201542 | 213301
15 | 47:24.02 | 3:26.43 | 213302 | 228794
16 | 50:50.45 | 2:45.61 | 228795 | 241230
17 | 53:36.31 | 3:30.54 | 241231 | 257034
18 | 57:07.10 | 3:51.71 | 257035 | 274430
19 | 60:59.06 | 3:54.50 | 274431 | 292030
20 | 64:53.56 | 3:41.63 | 292031 | 308668


Track 1

Filename D:\#cdr\#wav+flac\#New\VA - Now 100 Hits 70s\cd 5\01. Carl Douglas - Kung Fu Fighting.wav

Pre-gap length 0:00:02.00

Peak level 97.7 %
Extraction speed 5.5 X
Track quality 100.0 %
Test CRC 608C9917
Copy CRC 608C9917
Accurately ripped (confidence 2) [C201C2A0] (AR v2)
Copy OK

Track 2

Filename D:\#cdr\#wav+flac\#New\VA - Now 100 Hits 70s\cd 5\02. Bay City Rollers - Bye Bye Baby.wav

Peak level 97.7 %
Extraction speed 5.7 X
Track quality 100.0 %
Test CRC F80AE6AE
Copy CRC F80AE6AE
Accurately ripped (confidence 2) [433D62E3] (AR v2)
Copy OK

Track 3

Filename D:\#cdr\#wav+flac\#New\VA - Now 100 Hits 70s\cd 5\03. Showaddywaddy - Under the Moon of Love.wav

Peak level 74.0 %
Extraction speed 6.1 X
Track quality 100.0 %
Test CRC 54784A84
Copy CRC 54784A84
Accurately ripped (confidence 2) [CAC27A21] (AR v2)
Copy OK

Track 4

Filename D:\#cdr\#wav+flac\#New\VA - Now 100 Hits 70s\cd 5\04. The Rubettes - Sugar Baby Love.wav

Peak level 79.2 %
Extraction speed 6.6 X
Track quality 100.0 %
Test CRC 99E795A9
Copy CRC 99E795A9
Accurately ripped (confidence 2) [52DBFE86] (AR v2)
Copy OK

Track 5

Filename D:\#cdr\#wav+flac\#New\VA - Now 100 Hits 70s\cd 5\05. Suzi Quatro - Devil Gate Drive.wav

Peak level 90.7 %
Extraction speed 7.0 X
Track quality 100.0 %
Test CRC 9C11A5E8
Copy CRC 9C11A5E8
Accurately ripped (confidence 2) [5109D0C2] (AR v2)
Copy OK

Track 6

Filename D:\#cdr\#wav+flac\#New\VA - Now 100 Hits 70s\cd 5\06. Kiki Dee - Amoureuse.wav

Peak level 93.8 %
Extraction speed 7.5 X
Track quality 100.0 %
Test CRC 30D29A27
Copy CRC 30D29A27
Accurately ripped (confidence 2) [6881962A] (AR v2)
Copy OK

Track 7

Filename D:\#cdr\#wav+flac\#New\VA - Now 100 Hits 70s\cd 5\07. David Soul - Don't Give Up On Us Baby.wav

Peak level 97.7 %
Extraction speed 7.7 X
Track quality 100.0 %
Test CRC BB1D48C2
Copy CRC BB1D48C2
Accurately ripped (confidence 2) [E8ED6A7D] (AR v2)
Copy OK

Track 8

Filename D:\#cdr\#wav+flac\#New\VA - Now 100 Hits 70s\cd 5\08. Matthews' Southern Comfort - Woodstock.wav

Peak level 85.9 %
Extraction speed 8.2 X
Track quality 100.0 %
Test CRC F5169A4D
Copy CRC F5169A4D
Accurately ripped (confidence 2) [6557815E] (AR v2)
Copy OK

Track 9

Filename D:\#cdr\#wav+flac\#New\VA - Now 100 Hits 70s\cd 5\09. The New Seekers - I'd Like to Teach the World to Sing (In Perfect Harmony).wav

Peak level 97.7 %
Extraction speed 7.7 X
Track quality 100.0 %
Test CRC 1FF3B822
Copy CRC 1FF3B822
Accurately ripped (confidence 2) [54A9B16A] (AR v2)
Copy OK

Track 10

Filename D:\#cdr\#wav+flac\#New\VA - Now 100 Hits 70s\cd 5\10. Tony Orlando & Dawn - Tie a Yellow Ribbon Round the Ole Oak Tree.wav

Peak level 91.3 %
Extraction speed 6.9 X
Track quality 99.9 %
Test CRC 773694EF
Copy CRC 773694EF
Accurately ripped (confidence 2) [52E35B45] (AR v2)
Copy OK

Track 11

Filename D:\#cdr\#wav+flac\#New\VA - Now 100 Hits 70s\cd 5\11. The Drifters - Kissin' in the Back Row of the Movies.wav

Peak level 94.9 %
Extraction speed 8.7 X
Track quality 100.0 %
Test CRC 32810646
Copy CRC 32810646
Accurately ripped (confidence 2) [C7558B30] (AR v2)
Copy OK

Track 12

Filename D:\#cdr\#wav+flac\#New\VA - Now 100 Hits 70s\cd 5\12. Third World - Now That We've Found Love (Single Version).wav

Peak level 97.7 %
Extraction speed 9.2 X
Track quality 100.0 %
Test CRC 4EA0E2A2
Copy CRC 4EA0E2A2
Accurately ripped (confidence 2) [4527EE56] (AR v2)
Copy OK

Track 13

Filename D:\#cdr\#wav+flac\#New\VA - Now 100 Hits 70s\cd 5\13. Dave Edmunds - I Hear You Knocking.wav

Peak level 82.7 %
Extraction speed 8.8 X
Track quality 100.0 %
Test CRC 8E87ED7D
Copy CRC 8E87ED7D
Accurately ripped (confidence 2) [B0A418A1] (AR v2)
Copy OK

Track 14

Filename D:\#cdr\#wav+flac\#New\VA - Now 100 Hits 70s\cd 5\14. Sailor - A Glass of Champagne.wav

Peak level 94.6 %
Extraction speed 9.0 X
Track quality 100.0 %
Test CRC 3242B839
Copy CRC 3242B839
Accurately ripped (confidence 2) [2DD40DC0] (AR v2)
Copy OK

Track 15

Filename D:\#cdr\#wav+flac\#New\VA - Now 100 Hits 70s\cd 5\15. Racey - Some Girls.wav

Peak level 79.0 %
Extraction speed 9.6 X
Track quality 100.0 %
Test CRC BC9E6BD9
Copy CRC BC9E6BD9
Accurately ripped (confidence 2) [65E72625] (AR v2)
Copy OK

Track 16

Filename D:\#cdr\#wav+flac\#New\VA - Now 100 Hits 70s\cd 5\16. Alvin Stardust - My Coo Ca Choo.wav

Peak level 97.7 %
Extraction speed 9.7 X
Track quality 100.0 %
Test CRC 31917E6A
Copy CRC 31917E6A
Accurately ripped (confidence 2) [B503C050] (AR v2)
Copy OK

Track 17

Filename D:\#cdr\#wav+flac\#New\VA - Now 100 Hits 70s\cd 5\17. Pilot - January.wav

Peak level 92.7 %
Extraction speed 10.1 X
Track quality 100.0 %
Test CRC AC4C2A4A
Copy CRC AC4C2A4A
Accurately ripped (confidence 2) [D86F9D76] (AR v2)
Copy OK

Track 18

Filename D:\#cdr\#wav+flac\#New\VA - Now 100 Hits 70s\cd 5\18. David Essex - Hold Me Close.wav

Peak level 97.7 %
Extraction speed 10.3 X
Track quality 100.0 %
Test CRC 9A16D045
Copy CRC 9A16D045
Accurately ripped (confidence 2) [F267C50D] (AR v2)
Copy OK

Track 19

Filename D:\#cdr\#wav+flac\#New\VA - Now 100 Hits 70s\cd 5\19. The Isley Brothers - Harvest for the World.wav

Peak level 93.7 %
Extraction speed 10.6 X
Track quality 100.0 %
Test CRC 4C49CA34
Copy CRC 4C49CA34
Accurately ripped (confidence 2) [298B08AE] (AR v2)
Copy OK

Track 20

Filename D:\#cdr\#wav+flac\#New\VA - Now 100 Hits 70s\cd 5\20. Racing Cars - They Shoot Horses.wav

Peak level 93.7 %
Extraction speed 10.8 X
Track quality 100.0 %
Test CRC 3CBFBE82
Copy CRC 3CBFBE82
Accurately ripped (confidence 2) [1FF06ADF] (AR v2)
Copy OK


All tracks accurately ripped

No errors occurred

End of status report

–– CUETools DB Plugin V2.1.6

[CTDB TOCID: YqYLI5sRw7WTxulYLtL00_bXxhI-] found
Submit result: YqYLI5sRw7WTxulYLtL00_bXxhI- has been confirmed
Track | CTDB Status
1 | (3/3) Accurately ripped
2 | (3/3) Accurately ripped
3 | (3/3) Accurately ripped
4 | (3/3) Accurately ripped
5 | (3/3) Accurately ripped
6 | (3/3) Accurately ripped
7 | (3/3) Accurately ripped
8 | (3/3) Accurately ripped
9 | (3/3) Accurately ripped
10 | (3/3) Accurately ripped
11 | (3/3) Accurately ripped
12 | (3/3) Accurately ripped
13 | (3/3) Accurately ripped
14 | (3/3) Accurately ripped
15 | (3/3) Accurately ripped
16 | (3/3) Accurately ripped
17 | (3/3) Accurately ripped
18 | (3/3) Accurately ripped
19 | (3/3) Accurately ripped
20 | (3/3) Accurately ripped


==== Log checksum F3007ABEFD78E0A128997F1EC1AFC88A498A261314C24416497A74A0D29F1F09 ====