Subcategories

VA - Teenage Kicks (2002) 2CDs

Posted By: Designol
VA - Teenage Kicks (2002) 2CDs

VA - Teenage Kicks (2002) 2CDs
EAC | FLAC | Tracks (Cue&Log) ~ 1.1 Gb | Mp3 (CBR320) ~ 410 Mb | Scans included
Label: Universal Music TV | # 583 264-2 | Time: 02:35:12
Punk-Rock, Pop-Punk, Post-Punk, Pub-Rock, New Wave, Reggae, Dub

Teenage Kicks chronicles one of pop music's most exciting periods–the glory days of punk and new wave. Comprising knockout classics from The Jam, Teenage Kicks, The Clash, Ramones, Velvet Underground, Stranglers, The Buzzcocks, Siouxie & Banshees, Squeeze, Iggy Pop, The Boomtown Rats, B-52's, The Cure, Ian Dury, Graham Parker, Elvis Costello and many more, every single tune is an instant sing-a-long classic, sure to stir up fond memories of when music was vibrant, outspoken, and always refreshing.

This excellent compilation brings together a selection of the best late 1970s rock, punk and reggae from the UK. Disc One contains classics like In The City by The Jam, White Riot by The Clash, Hong Kong Garden by Siouxsie And The Banshees, Blank Generation by Richard Hell, Oh Bondage by X-Ray Spex, Something Better Change by The Stranglers and Teenage Kicks by The Undertones.

Reggae is represented by Junior Murvin’s lilting protest song Police And Thieves, Ku Klux Klan by Steelpulse and War Ina Babylon by Max Romeo. The quirky Typical Girls by The Slits has a skittering reggae rhythm but should properly be called post-punk, and then there’s the brilliant 1960s track White Light/White Heat by The Velvet Underground that is appropriately included here since the Velvets exercised such a heavy influence upon the music of the time.

Disc Two has a similar mix of rock, reggae and pop tracks. My favourites include Elvis Costello’s Watching The Detectives and the Joe Jackson song (both reggaefied rock), The quirky Rock Lobster by the B-52s, So it Goes - a great pop song by Nick Lowe and Wreckless Eric’s charming Whole Wide World. The other great reggae tracks here are Warrior Charge by Aswad and Forces Of Victory by Linton Kwesi Johnson. Jilted John contributes his charming eponymous song and The Cure adds some atmospheric sounds with Boys Don’t Cry, whilst the Squeeze, Graham Parker and Ultravox songs also remain memorable.

All the contributing artists played a part in the musical history of the times The New York Dolls, Jonathan Richman, The Ramones, Ian Dury, Sham 69, The Damned, Iggy Pop and The Dickies also deserve a mention. The music has aged remarkably well and there is still that punky sense of urgency that I remember so well from my youth. Teenage Kicks offers a varied and rewarding listening experience.

Review by Peter Uys

VA - Teenage Kicks (2002) 2CDs


Tracklist:

CD1 (1:18:22)

01. The Jam - In the City (2:19)
02. The Clash - White Riot (1:55)
03. Junior Murvin - Police And Thieves (4:03)
04. Siouxsie & The Banshees - Hong Kong Garden (2:54)
05. The Velvet Underground - White Light, White Heat (2:45)
06. The New York Dolls - Personality Crisis (3:42)
07. Jonathan Richman & The Modern Lovers - Roadrunner (4:43)
08. Richard Hell & The Voidoids - Blank Generation (2:41)
09. Ramones - Sheena Is A Punk Rocker (2:48)
10. X-Ray Spex - Oh Bondage! Up Yours! (2:50)
11. The Only Ones - Another Girl, Another Planet (3:00)
12. Eddie & The Hot Rods - Do Anything You Wanna Do (4:04)
13. Ian Dury & The Blockheads - Sex And Drugs And Rock N Roll (3:12)
14. Steel Pulse - Ku Klux Klan (3:32)
15. ATV - How Much Longer (2:36)
16. The Stanglers - Something Better Change (3:36)
17. The Undertones - Teenage Kicks (2:24)
18. Subway Sect - Ambition (3:08)
19. Sham 69 - Borstal Breakout (2:10)
20. The Vibrators - Automatic Lover (3:02)
21. Max Romeo - War Ina Babylon (4:04)
22. Adam & The Ants - Young Parisians (2:59)
23. Slaughter & The Dogs - Where Have All The Boot Boys Gone (3:12)
24. The Slits - Typical Girls (3:58)
25. Rudi - Big Time (2:46)

CD2 (1:16:50)

01. The Jam - Down In The Tube Station At Midnight (3:58)
02. The Boomtown Rats - Looking After Number One (3:07)
03. Elvis Costello - Watching The Detectives (3:45)
04. Joe Jackson - Is She Really Going Out With Him (3:34)
05. Squeeze - Take Me I'm Yours (2:53)
06. The Nips - Gabrielle (3:34)
07. Eddie & The Hot Rods - Teenage Depression (2:56)
08. Aswad - Warrior Charge (3:56)
09. Ultravox - Rockwrok (3:33)
10. The B-52's - Rock Lobster (4:54)
11. Hazel O'Connor - 8th Day (3:10)
12. The Damned - Grimly Fiendish (3:49)
13. Graham Parker And The Rumour - Don't Ask Me Questions (5:40)
14. Nick Lowe - So It Goes (2:30)
15. Linton Kwesi Johnson - Forces Of Vicktry (4:57)
16. The Cure - Boys Don't Cry (2:35)
17. Iggy Pop - Real Wild Child (Wild One) (3:32)
18. Wreckless Eric - Whole Wide World (2:58)
19. Spizzenergi - Where's Captain Kirk (2:17)
20. Jilted John - Jilted John (2:53)
21. Klark Kent - Don't Care (2:08)
22. The Dickies - Banana Splits (1:54)
23. Spolodgenessabounds - 2 Pints Of Lager And A Packet Of Crisps Please (2:14)


Exact Audio Copy V1.0 beta 4 from 7. December 2014

EAC extraction logfile from 6. January 2017, 11:29

Various Artists / Teenage Kicks (CD1)

Used drive : TSSTcorpCDDVDW SH-224DB Adapter: 1 ID: 0

Read mode : Secure
Utilize accurate stream : Yes
Defeat audio cache : Yes
Make use of C2 pointers : No

Read offset correction : 6
Overread into Lead-In and Lead-Out : No
Fill up missing offset samples with silence : Yes
Delete leading and trailing silent blocks : No
Null samples used in CRC calculations : Yes
Used interface : Native Win32 interface for Win NT & 2000
Gap handling : Appended to previous track

Used output format : User Defined Encoder
Selected bitrate : 896 kBit/s
Quality : High
Add ID3 tag : No
Command line compressor : C:\Program Files\Exact Audio Copy\Flac\flac.exe
Additional command line options : -6 -V -T "ARTIST=%artist%" -T "TITLE=%title%" -T "ALBUM=%albumtitle%" -T "DATE=%year%" -T "TRACKNUMBER=%tracknr%" -T "GENRE=%genre%" -T "COMMENT=%comment%" %source% -o %dest%


TOC of the extracted CD

Track | Start | Length | Start sector | End sector
––––––––––––––––––––––––––––-
1 | 0:00.00 | 2:19.31 | 0 | 10455
2 | 2:19.31 | 1:55.05 | 10456 | 19085
3 | 4:14.36 | 4:03.29 | 19086 | 37339
4 | 8:17.65 | 2:53.53 | 37340 | 50367
5 | 11:11.43 | 2:45.00 | 50368 | 62742
6 | 13:56.43 | 3:41.39 | 62743 | 79356
7 | 17:38.07 | 4:43.16 | 79357 | 100597
8 | 22:21.23 | 2:40.74 | 100598 | 112671
9 | 25:02.22 | 2:48.14 | 112672 | 125285
10 | 27:50.36 | 2:49.54 | 125286 | 138014
11 | 30:40.15 | 2:59.53 | 138015 | 151492
12 | 33:39.68 | 4:03.43 | 151493 | 169760
13 | 37:43.36 | 3:11.49 | 169761 | 184134
14 | 40:55.10 | 3:31.53 | 184135 | 200012
15 | 44:26.63 | 2:36.15 | 200013 | 211727
16 | 47:03.03 | 3:36.07 | 211728 | 227934
17 | 50:39.10 | 2:24.13 | 227935 | 238747
18 | 53:03.23 | 3:08.09 | 238748 | 252856
19 | 56:11.32 | 2:09.66 | 252857 | 262597
20 | 58:21.23 | 3:01.73 | 262598 | 276245
21 | 61:23.21 | 4:03.70 | 276246 | 294540
22 | 65:27.16 | 2:59.24 | 294541 | 307989
23 | 68:26.40 | 3:11.56 | 307990 | 322370
24 | 71:38.21 | 3:58.32 | 322371 | 340252
25 | 75:36.53 | 2:45.41 | 340253 | 352668


Track 1

Filename C:\New Folder\01 - The Jam - In the City.wav

Pre-gap length 0:00:02.00

Peak level 100.0 %
Extraction speed 1.4 X
Track quality 99.9 %
Test CRC 91817137
Copy CRC 91817137
Accurately ripped (confidence 9) [0F37322C] (AR v2)
Copy OK

Track 2

Filename C:\New Folder\02 - The Clash - White Riot.wav

Pre-gap length 0:00:00.57

Peak level 100.0 %
Extraction speed 1.7 X
Track quality 100.0 %
Test CRC 1F5F0C4A
Copy CRC 1F5F0C4A
Accurately ripped (confidence 9) [DBB6884F] (AR v2)
Copy OK

Track 3

Filename C:\New Folder\03 - Junior Murvin - Police And Thieves.wav

Pre-gap length 0:00:00.57

Peak level 100.0 %
Extraction speed 2.1 X
Track quality 100.0 %
Test CRC 73C4E279
Copy CRC 73C4E279
Accurately ripped (confidence 9) [1EDBF621] (AR v2)
Copy OK

Track 4

Filename C:\New Folder\04 - Siouxsie & The Banshees - Hong Kong Garden.wav

Pre-gap length 0:00:00.57

Peak level 87.0 %
Extraction speed 2.1 X
Track quality 100.0 %
Test CRC 187BF597
Copy CRC 187BF597
Accurately ripped (confidence 9) [BEE9039B] (AR v2)
Copy OK

Track 5

Filename C:\New Folder\05 - The Velvet Underground - White Light, White Heat.wav

Pre-gap length 0:00:00.57

Peak level 100.0 %
Extraction speed 1.7 X
Track quality 99.9 %
Test CRC 8EA19371
Copy CRC 8EA19371
Accurately ripped (confidence 9) [0067B2F1] (AR v2)
Copy OK

Track 6

Filename C:\New Folder\06 - The New York Dolls - Personality Crisis.wav

Pre-gap length 0:00:00.57

Peak level 100.0 %
Extraction speed 2.4 X
Track quality 100.0 %
Test CRC 91611D80
Copy CRC 91611D80
Accurately ripped (confidence 9) [22B70642] (AR v2)
Copy OK

Track 7

Filename C:\New Folder\07 - Jonathan Richman & The Modern Lovers - Roadrunner.wav

Pre-gap length 0:00:00.57

Peak level 67.6 %
Extraction speed 2.2 X
Track quality 99.9 %
Test CRC F28EE3F4
Copy CRC F28EE3F4
Accurately ripped (confidence 9) [2BD94D0E] (AR v2)
Copy OK

Track 8

Filename C:\New Folder\08 - Richard Hell & The Voidoids - Blank Generation.wav

Pre-gap length 0:00:00.57

Peak level 98.8 %
Extraction speed 1.9 X
Track quality 99.9 %
Test CRC 897CD7B8
Copy CRC 897CD7B8
Accurately ripped (confidence 9) [FB0A3BE4] (AR v2)
Copy OK

Track 9

Filename C:\New Folder\09 - Ramones - Sheena Is A Punk Rocker.wav

Pre-gap length 0:00:00.57

Peak level 100.0 %
Extraction speed 2.6 X
Track quality 100.0 %
Test CRC E0189A3E
Copy CRC E0189A3E
Accurately ripped (confidence 9) [DF74C9C0] (AR v2)
Copy OK

Track 10

Filename C:\New Folder\10 - X-Ray Spex - Oh Bondage! Up Yours!.wav

Pre-gap length 0:00:00.57

Peak level 100.0 %
Extraction speed 2.7 X
Track quality 100.0 %
Test CRC A311CDCA
Copy CRC A311CDCA
Accurately ripped (confidence 9) [2B16FFEF] (AR v2)
Copy OK

Track 11

Filename C:\New Folder\11 - The Only Ones - Another Girl, Another Planet.wav

Pre-gap length 0:00:00.57

Peak level 100.0 %
Extraction speed 2.8 X
Track quality 100.0 %
Test CRC A8A15D74
Copy CRC A8A15D74
Accurately ripped (confidence 9) [7A612567] (AR v2)
Copy OK

Track 12

Filename C:\New Folder\12 - Eddie & The Hot Rods - Do Anything You Wanna Do.wav

Pre-gap length 0:00:00.57

Peak level 100.0 %
Extraction speed 3.0 X
Track quality 100.0 %
Test CRC 3FF2CF25
Copy CRC 3FF2CF25
Accurately ripped (confidence 9) [F06BA3B3] (AR v2)
Copy OK

Track 13

Filename C:\New Folder\13 - Ian Dury & The Blockheads - Sex And Drugs And Rock N Roll.wav

Pre-gap length 0:00:00.58

Peak level 100.0 %
Extraction speed 3.0 X
Track quality 100.0 %
Test CRC 1BFE12CE
Copy CRC 1BFE12CE
Accurately ripped (confidence 9) [270BB5CD] (AR v2)
Copy OK

Track 14

Filename C:\New Folder\14 - Steel Pulse - Ku Klux Klan.wav

Pre-gap length 0:00:00.57

Peak level 59.5 %
Extraction speed 3.2 X
Track quality 100.0 %
Test CRC 579FFB2F
Copy CRC 579FFB2F
Accurately ripped (confidence 9) [1C1AA72F] (AR v2)
Copy OK

Track 15

Filename C:\New Folder\15 - ATV - How Much Longer.wav

Pre-gap length 0:00:00.57

Peak level 100.0 %
Extraction speed 3.1 X
Track quality 100.0 %
Test CRC 19DF1694
Copy CRC 19DF1694
Accurately ripped (confidence 8) [A87ECDE3] (AR v2)
Copy OK

Track 16

Filename C:\New Folder\16 - The Stanglers - Something Better Change.wav

Pre-gap length 0:00:00.57

Peak level 100.0 %
Extraction speed 2.6 X
Track quality 99.9 %
Test CRC E80CF47D
Copy CRC E80CF47D
Accurately ripped (confidence 9) [5CA65559] (AR v2)
Copy OK

Track 17

Filename C:\New Folder\17 - The Undertones - Teenage Kicks.wav

Pre-gap length 0:00:00.57

Peak level 76.7 %
Extraction speed 3.1 X
Track quality 100.0 %
Test CRC F44B85ED
Copy CRC F44B85ED
Accurately ripped (confidence 9) [70DA409F] (AR v2)
Copy OK

Track 18

Filename C:\New Folder\18 - Subway Sect - Ambition.wav

Pre-gap length 0:00:00.57

Peak level 100.0 %
Extraction speed 3.4 X
Track quality 100.0 %
Test CRC A7F9BDA5
Copy CRC A7F9BDA5
Accurately ripped (confidence 9) [729CFF65] (AR v2)
Copy OK

Track 19

Filename C:\New Folder\19 - Sham 69 - Borstal Breakout.wav

Pre-gap length 0:00:00.57

Peak level 100.0 %
Extraction speed 3.2 X
Track quality 100.0 %
Test CRC 9627D62F
Copy CRC 9627D62F
Accurately ripped (confidence 9) [3B77ADDC] (AR v2)
Copy OK

Track 20

Filename C:\New Folder\20 - The Vibrators - Automatic Lover.wav

Pre-gap length 0:00:00.57

Peak level 100.0 %
Extraction speed 3.5 X
Track quality 100.0 %
Test CRC 011CC869
Copy CRC 011CC869
Accurately ripped (confidence 9) [4D138E2F] (AR v2)
Copy OK

Track 21

Filename C:\New Folder\21 - Max Romeo - War Ina Babylon.wav

Pre-gap length 0:00:00.57

Peak level 100.0 %
Extraction speed 3.7 X
Track quality 100.0 %
Test CRC 99E20E11
Copy CRC 99E20E11
Accurately ripped (confidence 9) [1614E6EA] (AR v2)
Copy OK

Track 22

Filename C:\New Folder\22 - Adam & The Ants - Young Parisians.wav

Pre-gap length 0:00:00.57

Peak level 100.0 %
Extraction speed 3.6 X
Track quality 100.0 %
Test CRC 0A237F9F
Copy CRC 0A237F9F
Accurately ripped (confidence 9) [1BE81A5A] (AR v2)
Copy OK

Track 23

Filename C:\New Folder\23 - Slaughter & The Dogs - Where Have All The Boot Boys Gone.wav

Pre-gap length 0:00:00.57

Peak level 100.0 %
Extraction speed 3.7 X
Track quality 100.0 %
Test CRC B5A91CBA
Copy CRC B5A91CBA
Accurately ripped (confidence 9) [97841385] (AR v2)
Copy OK

Track 24

Filename C:\New Folder\24 - The Slits - Typical Girls.wav

Pre-gap length 0:00:00.57

Peak level 100.0 %
Extraction speed 3.9 X
Track quality 100.0 %
Test CRC 96141EA8
Copy CRC 96141EA8
Accurately ripped (confidence 9) [5125157E] (AR v2)
Copy OK

Track 25

Filename C:\New Folder\25 - Rudi - Big Time.wav

Pre-gap length 0:00:00.57

Peak level 100.0 %
Extraction speed 3.7 X
Track quality 100.0 %
Test CRC 734F8809
Copy CRC 734F8809
Accurately ripped (confidence 9) [F0DB550E] (AR v2)
Copy OK


All tracks accurately ripped

No errors occurred

End of status report

–– CUETools DB Plugin V2.1.4

[CTDB TOCID: YTGqXkQVsEpviSjuC4ulFGgmGSQ-] found
Submit result: YTGqXkQVsEpviSjuC4ulFGgmGSQ- has been confirmed
Track | CTDB Status
1 | (10/10) Accurately ripped
2 | (10/10) Accurately ripped
3 | (10/10) Accurately ripped
4 | (10/10) Accurately ripped
5 | ( 9/10) Accurately ripped, or (1/10) differs in 8 samples @00:58:33,02:23:00
6 | (10/10) Accurately ripped
7 | (10/10) Accurately ripped
8 | ( 9/10) Accurately ripped, or (1/10) differs in 86 samples @00:00:18-00:00:19,00:00:46-00:00:49,00:01:16,00:03:38-00:03:39,00:06:60,00:11:17,00:11:31
9 | (10/10) Accurately ripped
10 | (10/10) Accurately ripped
11 | ( 9/10) Accurately ripped, or (1/10) differs in 1661 samples @00:00:20-00:00:27,00:00:36-00:00:42,00:00:53-00:00:58
12 | (10/10) Accurately ripped
13 | (10/10) Accurately ripped
14 | ( 9/10) Accurately ripped, or (1/10) differs in 819 samples @00:00:16-00:00:29,00:00:38
15 | (10/10) Accurately ripped
16 | (10/10) Accurately ripped
17 | (10/10) Accurately ripped
18 | (10/10) Accurately ripped
19 | (10/10) Accurately ripped
20 | (10/10) Accurately ripped
21 | (10/10) Accurately ripped
22 | (10/10) Accurately ripped
23 | (10/10) Accurately ripped
24 | (10/10) Accurately ripped
25 | (10/10) Accurately ripped


==== Log checksum B71995ABEF375CF62F9B1EFD8E1C512F7C0B8FC0088D96E41CCDCC8C1870F0C1 ====

foobar2000 1.2 / Dynamic Range Meter 1.1.1
log date: 2017-10-29 00:55:10

––––––––––––––––––––––––––––––––––––––––
Analyzed: Adam & The Ants / Teenage Kicks (CD1) (1)
ATV / Teenage Kicks (CD1) (2)
Eddie & The Hot Rods / Teenage Kicks (CD1) (3)
Ian Dury & The Blockheads / Teenage Kicks (CD1) (4)
Jonathan Richman & The Modern Lovers / Teenage Kicks (CD1) (5)
Junior Murvin / Teenage Kicks (CD1) (6)
Max Romeo / Teenage Kicks (CD1) (7)
Ramones / Teenage Kicks (CD1) (8)
Richard Hell & The Voidoids / Teenage Kicks (CD1) (9)
Rudi / Teenage Kicks (CD1) (10)
Sham 69 / Teenage Kicks (CD1) (11)
Siouxsie & The Banshees / Teenage Kicks (CD1) (12)
Slaughter & The Dogs / Teenage Kicks (CD1) (13)
Steel Pulse / Teenage Kicks (CD1) (14)
Subway Sect / Teenage Kicks (CD1) (15)
The Clash / Teenage Kicks (CD1) (16)
The Jam / Teenage Kicks (CD1) (17)
The New York Dolls / Teenage Kicks (CD1) (18)
The Only Ones / Teenage Kicks (CD1) (19)
The Slits / Teenage Kicks (CD1) (20)
The Stanglers / Teenage Kicks (CD1) (21)
The Undertones / Teenage Kicks (CD1) (22)
The Velvet Underground / Teenage Kicks (CD1) (23)
The Vibrators / Teenage Kicks (CD1) (24)
X-Ray Spex / Teenage Kicks (CD1) (25)
––––––––––––––––––––––––––––––––––––––––

DR Peak RMS Duration Track
––––––––––––––––––––––––––––––––––––––––
DR10 0.00 dB -13.31 dB 2:59 22-Young Parisians
DR7 0.00 dB -8.45 dB 2:36 15-How Much Longer
DR6 0.00 dB -7.35 dB 4:04 12-Do Anything You Wanna Do
DR10 0.00 dB -11.76 dB 3:12 13-Sex And Drugs And Rock N Roll
DR3 -3.40 dB -7.71 dB 4:43 07-Roadrunner
DR11 0.00 dB -12.66 dB 4:03 03-Police And Thieves
DR10 0.00 dB -11.75 dB 4:04 21-War Ina Babylon
DR8 0.00 dB -9.25 dB 2:48 09-Sheena Is A Punk Rocker
DR4 -0.10 dB -5.42 dB 2:41 08-Blank Generation
DR9 0.00 dB -9.76 dB 2:46 25-Big Time
DR7 0.00 dB -8.15 dB 2:10 19-Borstal Breakout
DR3 -1.20 dB -5.37 dB 2:54 04-Hong Kong Garden
DR6 0.00 dB -7.34 dB 3:12 23-Where Have All The Boot Boys Gone
DR4 -4.50 dB -10.54 dB 3:32 14-Ku Klux Klan
DR6 0.00 dB -7.33 dB 3:08 18-Ambition
DR3 0.00 dB -3.64 dB 1:55 02-White Riot
DR6 0.00 dB -7.37 dB 2:19 01-In the City
DR4 0.00 dB -4.94 dB 3:42 06-Personality Crisis
DR6 0.00 dB -7.74 dB 3:00 11-Another Girl, Another Planet
DR13 0.00 dB -14.52 dB 3:58 24-Typical Girls
DR8 0.00 dB -9.64 dB 3:36 16-Something Better Change
DR4 -2.30 dB -7.43 dB 2:24 17-Teenage Kicks
DR6 0.00 dB -6.88 dB 2:45 05-White Light, White Heat
DR5 0.00 dB -6.88 dB 3:02 20-Automatic Lover
DR7 0.00 dB -8.65 dB 2:50 10-Oh Bondage! Up Yours!
––––––––––––––––––––––––––––––––––––––––

Number of tracks: 25
Official DR value: DR7

Samplerate: 44100 Hz
Channels: 2
Bits per sample: 16
Bitrate: 1032 kbps
Codec: FLAC
================================================================================


Exact Audio Copy V1.0 beta 4 from 7. December 2014

EAC extraction logfile from 6. January 2017, 12:40

Various Artists / Teenage Kicks (CD2)

Used drive : TSSTcorpCDDVDW SH-224DB Adapter: 1 ID: 0

Read mode : Secure
Utilize accurate stream : Yes
Defeat audio cache : Yes
Make use of C2 pointers : No

Read offset correction : 6
Overread into Lead-In and Lead-Out : No
Fill up missing offset samples with silence : Yes
Delete leading and trailing silent blocks : No
Null samples used in CRC calculations : Yes
Used interface : Native Win32 interface for Win NT & 2000
Gap handling : Appended to previous track

Used output format : User Defined Encoder
Selected bitrate : 896 kBit/s
Quality : High
Add ID3 tag : No
Command line compressor : C:\Program Files\Exact Audio Copy\Flac\flac.exe
Additional command line options : -6 -V -T "ARTIST=%artist%" -T "TITLE=%title%" -T "ALBUM=%albumtitle%" -T "DATE=%year%" -T "TRACKNUMBER=%tracknr%" -T "GENRE=%genre%" -T "COMMENT=%comment%" %source% -o %dest%


TOC of the extracted CD

Track | Start | Length | Start sector | End sector
––––––––––––––––––––––––––––-
1 | 0:00.00 | 3:57.66 | 0 | 17840
2 | 3:57.66 | 3:07.29 | 17841 | 31894
3 | 7:05.20 | 3:44.43 | 31895 | 48737
4 | 10:49.63 | 3:34.16 | 48738 | 64803
5 | 14:24.04 | 2:52.56 | 64804 | 77759
6 | 17:16.60 | 3:34.04 | 77760 | 93813
7 | 20:50.64 | 2:56.33 | 93814 | 107046
8 | 23:47.22 | 3:56.28 | 107047 | 124774
9 | 27:43.50 | 3:32.64 | 124775 | 140738
10 | 31:16.39 | 4:54.16 | 140739 | 162804
11 | 36:10.55 | 3:10.32 | 162805 | 177086
12 | 39:21.12 | 3:49.02 | 177087 | 194263
13 | 43:10.14 | 5:40.19 | 194264 | 219782
14 | 48:50.33 | 2:29.41 | 219783 | 230998
15 | 51:19.74 | 4:57.18 | 230999 | 253291
16 | 56:17.17 | 2:35.07 | 253292 | 264923
17 | 58:52.24 | 3:32.33 | 264924 | 280856
18 | 62:24.57 | 2:58.30 | 280857 | 294236
19 | 65:23.12 | 2:17.06 | 294237 | 304517
20 | 67:40.18 | 2:53.37 | 304518 | 317529
21 | 70:33.55 | 2:08.03 | 317530 | 327132
22 | 72:41.58 | 1:54.27 | 327133 | 335709
23 | 74:36.10 | 2:13.57 | 335710 | 345741


Track 1

Filename C:\New Folder\01 - The Jam - Down In The Tube Station At Midnight.wav

Pre-gap length 0:00:02.00

Peak level 87.0 %
Extraction speed 1.9 X
Track quality 100.0 %
Test CRC 422597C1
Copy CRC 422597C1
Accurately ripped (confidence 9) [50C67F37] (AR v2)
Copy OK

Track 2

Filename C:\New Folder\02 - The Boomtown Rats - Looking After Number One.wav

Pre-gap length 0:00:00.57

Peak level 100.0 %
Extraction speed 1.9 X
Track quality 100.0 %
Test CRC 02B8D4E8
Copy CRC 02B8D4E8
Accurately ripped (confidence 9) [1C8958BB] (AR v2)
Copy OK

Track 3

Filename C:\New Folder\03 - Elvis Costello - Watching The Detectives.wav

Pre-gap length 0:00:00.56

Peak level 100.0 %
Extraction speed 2.1 X
Track quality 100.0 %
Test CRC EE6FF346
Copy CRC EE6FF346
Accurately ripped (confidence 9) [E6DE756D] (AR v2)
Copy OK

Track 4

Filename C:\New Folder\04 - Joe Jackson - Is She Really Going Out With Him.wav

Pre-gap length 0:00:00.57

Peak level 100.0 %
Extraction speed 2.2 X
Track quality 100.0 %
Test CRC 71663DB2
Copy CRC 71663DB2
Accurately ripped (confidence 9) [182C9B4C] (AR v2)
Copy OK

Track 5

Filename C:\New Folder\05 - Squeeze - Take Me I'm Yours.wav

Pre-gap length 0:00:00.57

Peak level 99.4 %
Extraction speed 2.3 X
Track quality 100.0 %
Test CRC 3AD421C7
Copy CRC 3AD421C7
Accurately ripped (confidence 8) [3C1333F5] (AR v2)
Copy OK

Track 6

Filename C:\New Folder\06 - The Nips - Gabrielle.wav

Pre-gap length 0:00:00.57

Peak level 100.0 %
Extraction speed 2.5 X
Track quality 100.0 %
Test CRC C8B372E3
Copy CRC C8B372E3
Accurately ripped (confidence 9) [BB8F6DF1] (AR v2)
Copy OK

Track 7

Filename C:\New Folder\07 - Eddie & The Hot Rods - Teenage Depression.wav

Pre-gap length 0:00:00.56

Peak level 100.0 %
Extraction speed 2.5 X
Track quality 100.0 %
Test CRC 04A15C8F
Copy CRC 04A15C8F
Accurately ripped (confidence 9) [88BA7061] (AR v2)
Copy OK

Track 8

Filename C:\New Folder\08 - Aswad - Warrior Charge.wav

Pre-gap length 0:00:00.57

Peak level 87.0 %
Extraction speed 2.2 X
Track quality 99.9 %
Test CRC 8423B541
Copy CRC 8423B541
Accurately ripped (confidence 9) [47D36740] (AR v2)
Copy OK

Track 9

Filename C:\New Folder\09 - Ultravox - Rockwrok.wav

Pre-gap length 0:00:00.57

Peak level 87.0 %
Extraction speed 2.8 X
Track quality 100.0 %
Test CRC D56D0935
Copy CRC D56D0935
Accurately ripped (confidence 9) [9401D913] (AR v2)
Copy OK

Track 10

Filename C:\New Folder\10 - The B-52's - Rock Lobster.wav

Pre-gap length 0:00:00.57

Peak level 100.0 %
Extraction speed 3.0 X
Track quality 100.0 %
Test CRC 1DE385A8
Copy CRC 1DE385A8
Accurately ripped (confidence 10) [69CA2DBB] (AR v2)
Copy OK

Track 11

Filename C:\New Folder\11 - Hazel O'Connor - 8th Day.wav

Pre-gap length 0:00:00.56

Peak level 100.0 %
Extraction speed 3.0 X
Track quality 100.0 %
Test CRC CD9B4BCE
Copy CRC CD9B4BCE
Accurately ripped (confidence 9) [7239C2E7] (AR v2)
Copy OK

Track 12

Filename C:\New Folder\12 - The Damned - Grimly Fiendish.wav

Pre-gap length 0:00:00.57

Peak level 100.0 %
Extraction speed 3.1 X
Track quality 100.0 %
Test CRC 4A43C9BC
Copy CRC 4A43C9BC
Accurately ripped (confidence 9) [3E532554] (AR v2)
Copy OK

Track 13

Filename C:\New Folder\13 - Graham Parker And The Rumour - Don't Ask Me Questions.wav

Pre-gap length 0:00:00.57

Peak level 100.0 %
Extraction speed 2.8 X
Track quality 99.9 %
Test CRC 5F539387
Copy CRC 5F539387
Accurately ripped (confidence 9) [8385A4C9] (AR v2)
Copy OK

Track 14

Filename C:\New Folder\14 - Nick Lowe - So It Goes.wav

Pre-gap length 0:00:00.57

Peak level 100.0 %
Extraction speed 3.1 X
Track quality 100.0 %
Test CRC BBFAAA71
Copy CRC BBFAAA71
Accurately ripped (confidence 9) [1723C5BE] (AR v2)
Copy OK

Track 15

Filename C:\New Folder\15 - Linton Kwesi Johnson - Forces Of Vicktry.wav

Pre-gap length 0:00:00.58

Peak level 100.0 %
Extraction speed 3.6 X
Track quality 100.0 %
Test CRC 342E25CB
Copy CRC 342E25CB
Accurately ripped (confidence 9) [33897370] (AR v2)
Copy OK

Track 16

Filename C:\New Folder\16 - The Cure - Boys Don't Cry.wav

Pre-gap length 0:00:00.56

Peak level 100.0 %
Extraction speed 3.3 X
Track quality 100.0 %
Test CRC 2F426A0A
Copy CRC 2F426A0A
Accurately ripped (confidence 9) [589C35E2] (AR v2)
Copy OK

Track 17

Filename C:\New Folder\17 - Iggy Pop - Real Wild Child (Wild One).wav

Pre-gap length 0:00:00.57

Peak level 100.0 %
Extraction speed 3.5 X
Track quality 100.0 %
Test CRC 42E7AD6F
Copy CRC 42E7AD6F
Accurately ripped (confidence 9) [A89B3424] (AR v2)
Copy OK

Track 18

Filename C:\New Folder\18 - Wreckless Eric - Whole Wide World.wav

Pre-gap length 0:00:00.57

Peak level 100.0 %
Extraction speed 3.5 X
Track quality 100.0 %
Test CRC 9DDE8698
Copy CRC 9DDE8698
Accurately ripped (confidence 8) [03E13466] (AR v2)
Copy OK

Track 19

Filename C:\New Folder\19 - Spizzenergi - Where's Captain Kirk.wav

Pre-gap length 0:00:00.57

Peak level 100.0 %
Extraction speed 2.3 X
Track quality 99.9 %
Test CRC 35A100BB
Copy CRC 35A100BB
Accurately ripped (confidence 9) [A7263C72] (AR v2)
Copy OK

Track 20

Filename C:\New Folder\20 - Jilted John - Jilted John.wav

Pre-gap length 0:00:00.57

Peak level 100.0 %
Extraction speed 3.6 X
Track quality 100.0 %
Test CRC 09EE6354
Copy CRC 09EE6354
Accurately ripped (confidence 9) [9D5F3BA0] (AR v2)
Copy OK

Track 21

Filename C:\New Folder\21 - Klark Kent - Don't Care.wav

Pre-gap length 0:00:00.57

Peak level 100.0 %
Extraction speed 3.4 X
Track quality 100.0 %
Test CRC 57AE2A78
Copy CRC 57AE2A78
Accurately ripped (confidence 9) [086F8356] (AR v2)
Copy OK

Track 22

Filename C:\New Folder\22 - The Dickies - Banana Splits.wav

Pre-gap length 0:00:00.57

Peak level 100.0 %
Extraction speed 3.3 X
Track quality 100.0 %
Test CRC 31012161
Copy CRC 31012161
Accurately ripped (confidence 9) [7F722A44] (AR v2)
Copy OK

Track 23

Filename C:\New Folder\23 - Spolodgenessabounds - 2 Pints Of Lager And A Packet Of Crisps Please.wav

Pre-gap length 0:00:00.57

Peak level 100.0 %
Extraction speed 2.3 X
Track quality 99.9 %
Test CRC 8E2E6002
Copy CRC 8E2E6002
Accurately ripped (confidence 9) [B6C4F7C9] (AR v2)
Copy OK


All tracks accurately ripped

No errors occurred

End of status report

–– CUETools DB Plugin V2.1.4

[CTDB TOCID: OR_TUGzDZs4D9kzM_xJqZ1H0IfM-] found
Submit result: OR_TUGzDZs4D9kzM_xJqZ1H0IfM- has been confirmed
Track | CTDB Status
1 | (10/10) Accurately ripped
2 | (10/10) Accurately ripped
3 | (10/10) Accurately ripped
4 | ( 9/10) Accurately ripped
5 | (10/10) Accurately ripped
6 | (10/10) Accurately ripped
7 | ( 9/10) Accurately ripped
8 | (10/10) Accurately ripped
9 | (10/10) Accurately ripped
10 | (10/10) Accurately ripped
11 | (10/10) Accurately ripped
12 | (10/10) Accurately ripped
13 | ( 9/10) Accurately ripped
14 | (10/10) Accurately ripped
15 | (10/10) Accurately ripped
16 | (10/10) Accurately ripped
17 | (10/10) Accurately ripped
18 | (10/10) Accurately ripped
19 | (10/10) Accurately ripped
20 | (10/10) Accurately ripped
21 | (10/10) Accurately ripped
22 | (10/10) Accurately ripped
23 | (10/10) Accurately ripped


==== Log checksum D5DC52691D99B66B51BD10D2D4B555521ED466BB6C180408CACFDA2A98C724E1 ====

foobar2000 1.2 / Dynamic Range Meter 1.1.1
log date: 2017-10-29 00:55:44

––––––––––––––––––––––––––––––––––––––––
Analyzed: Aswad / Teenage Kicks (CD2) (1)
Eddie & The Hot Rods / Teenage Kicks (CD2) (2)
Elvis Costello / Teenage Kicks (CD2) (3)
Graham Parker And The Rumour / Teenage Kicks (CD2) (4)
Hazel O'Connor / Teenage Kicks (CD2) (5)
Iggy Pop / Teenage Kicks (CD2) (6)
Jilted John / Teenage Kicks (CD2) (7)
Joe Jackson / Teenage Kicks (CD2) (8)
Klark Kent / Teenage Kicks (CD2) (9)
Linton Kwesi Johnson / Teenage Kicks (CD2) (10)
Nick Lowe / Teenage Kicks (CD2) (11)
Spizzenergi / Teenage Kicks (CD2) (12)
Spolodgenessabounds / Teenage Kicks (CD2) (13)
Squeeze / Teenage Kicks (CD2) (14)
The B-52's / Teenage Kicks (CD2) (15)
The Boomtown Rats / Teenage Kicks (CD2) (16)
The Cure / Teenage Kicks (CD2) (17)
The Damned / Teenage Kicks (CD2) (18)
The Dickies / Teenage Kicks (CD2) (19)
The Jam / Teenage Kicks (CD2) (20)
The Nips / Teenage Kicks (CD2) (21)
Ultravox / Teenage Kicks (CD2) (22)
Wreckless Eric / Teenage Kicks (CD2) (23)
––––––––––––––––––––––––––––––––––––––––

DR Peak RMS Duration Track
––––––––––––––––––––––––––––––––––––––––
DR12 -1.20 dB -14.45 dB 3:56 08-Warrior Charge
DR9 0.00 dB -9.98 dB 2:56 07-Teenage Depression
DR10 0.00 dB -11.63 dB 3:45 03-Watching The Detectives
DR9 0.00 dB -10.92 dB 5:40 13-Don't Ask Me Questions
DR8 0.00 dB -9.98 dB 3:10 11-8th Day
DR8 0.00 dB -9.63 dB 3:32 17-Real Wild Child (Wild One)
DR8 0.00 dB -9.72 dB 2:53 20-Jilted John
DR7 0.00 dB -9.71 dB 3:34 04-Is She Really Going Out With Him
DR8 0.00 dB -9.52 dB 2:08 21-Don't Care
DR12 0.00 dB -13.09 dB 4:57 15-Forces Of Vicktry
DR8 0.00 dB -9.49 dB 2:30 14-So It Goes
DR9 0.00 dB -9.85 dB 2:17 19-Where's Captain Kirk
DR8 0.00 dB -8.89 dB 2:14 23-2 Pints Of Lager And A Packet Of Crisps Please
DR8 -0.04 dB -9.75 dB 2:53 05-Take Me I'm Yours
DR9 0.00 dB -11.39 dB 4:54 10-Rock Lobster
DR10 0.00 dB -10.69 dB 3:07 02-Looking After Number One
DR11 0.00 dB -11.99 dB 2:35 16-Boys Don't Cry
DR11 0.00 dB -12.12 dB 3:49 12-Grimly Fiendish
DR8 0.00 dB -9.29 dB 1:54 22-Banana Splits
DR5 -1.20 dB -8.83 dB 3:58 01-Down In The Tube Station At Midnight
DR9 0.00 dB -9.65 dB 3:34 06-Gabrielle
DR7 -1.20 dB -9.02 dB 3:33 09-Rockwrok
DR9 0.00 dB -11.87 dB 2:58 18-Whole Wide World
––––––––––––––––––––––––––––––––––––––––

Number of tracks: 23
Official DR value: DR9

Samplerate: 44100 Hz
Channels: 2
Bits per sample: 16
Bitrate: 816 kbps
Codec: FLAC
================================================================================

VA - Teenage Kicks (2002) 2CDs

VA - Teenage Kicks (2002) 2CDs

All thanks to original releaser - alekow

More interesting music in My Blog