Subcategories

VA - The Hits Album: The Rock Album (4CD, 2019)

Posted By: ciklon5
VA - The Hits Album: The Rock Album (4CD, 2019)

VA - The Hits Album: The Rock Album (4CD, 2019)
FLAC tracks +cue+log+scans | 05:13:28 | 2,2 Gb
Genre: Pop, Rock / Label: Spectrum

The Hits Album: The Rock Album 4 CD contains the definitive Artists & Rock, Pop. The Best hits from Electric Light Orchestra, Alice Cooper, Toto and many more.

Track List:
CD 1

01.Meat Loaf - Bat Out Of Hell - 00:04:52
02.Toto - Hold The Line - 00:03:55
03.Reo Speedwagon - Keep On Loving You - 00:03:20
04.Boston - More Than A Feeling - 00:04:40
05.Asia - Heat Of The Moment - 00:03:48
06.Kansas - Carry On Wayward Son - 00:05:21
07.Lynyrd Skynyrd - Sweet Home Alabama - 00:04:43
08.Blue Oyster Cult - (Don't Fear) The Reaper - 00:05:04
09.Free - All Right Now - 00:04:11
10.Ram Jam - Black Betty - 00:02:29
11.Status Quo - Whatever You Want - 00:03:59
12.Thin Lizzy - The Boys Are Back In Town - 00:04:23
13.Rainbow - All Night Long - 00:03:48
14.Judas Priest - Living After Midnight - 00:03:25
15.The Knack - My Sharona - 00:04:00
16.Sweet - Action - 00:03:17
17.Rush - The Spirit Of Radio - 00:04:56
18.Jim Steinman - Rock And Roll Dreams Come Through - 00:03:59
19.Night Ranger - Sister Christian - 00:04:10

CD 2

01.Robbie Williams - Let Me Entertain You - 00:04:21
02.Robert Palmer - Addicted To Love - 00:04:19
03.Cher - If I Could Turn Back Time - 00:03:54
04.Pat Benatar - Shadows Of The Night - 00:03:41
05.Blondie - One Way Or Another - 00:03:25
06.Billy Idol - Mony Mony - 00:04:08
07.Iggy Pop - Real Wild Child (Wild One) - 00:03:33
08.Poison - Unskinny Bop - 00:03:43
09.Warrant - Cherry Pie - 00:03:18
10.Quiet Riot - Cum On Feel The Noize - 00:03:21
11.Run D.M.C. Feat. Aerosmith - Walk This Way - 00:03:37
12.Lenny Kravitz - Are You Gonna Go My Way - 00:03:31
13.Primal Scream - Rocks - 00:03:33
14.Manic Street Preachers - Motorcycle Emptiness - 00:03:33
15.Deep Blue Something - Breakfast At Tiffany's - 00:04:16
16.Mr. Mister - Kyrie - 00:04:24
17.Richie Sambora - Ballad Of Youth - 00:03:52
18.The Jeff Healey Band - While My Guitar Gently Weeps - 00:04:11
19.Billy Joel - We Didn't Start The Fire - 00:04:26
20.Bonnie Tyler - Faster Than The Speed Of Night - 00:04:38

CD 3

01.Bachman-Turner Overdrive - You Ain't Seen Nothing Yet - 00:03:54
02.Status Quo - Down Down - 00:03:50
03.Boston - Don't Look Back - 00:06:01
04.Rainbow - I Surrender - 00:03:19
05.Free - Wishing Well - 00:03:39
06.Thin Lizzy - Whiskey In The Jar - 00:05:39
07.Ike & Tina Turner - Nutbush City Limits - 00:02:56
08.Rod Stewart - You Wear It Well - 00:04:15
09.Mott The Hoople - All The Young Dudes - 00:03:30
10.Roxy Music - Virginia Plain - 00:02:57
11.Sweet - Fox On The Run - 00:03:18
12.The Runaways - Cherry Bomb - 00:02:17
13.Heart - Barracuda - 00:04:22
14.Patti Smith Group - Because The Night - 00:03:18
15.Mink DeVille - Spanish Stroll - 00:03:35
16.Frijid Pink - House Of The Rising Sun - 00:04:38
17.The Spencer Davis Group - Gimme Some Lovin' - 00:02:54
18.The Guess Who - American Woman - 00:03:46
19.Santana - She's Not There - 00:03:11
20.Argent - God Gave Rock 'N' Roll To You - 00:03:59
21.Three Dog Night - Mama Told Me (Not To Come) - 00:03:16

CD 4

01.Electric Light Orchestra - Hold On Tight - 00:03:05
02.Meat Loaf With Cher - Dead Ringer For Love - 00:04:22
03.Survivor - Eye Of The Tiger - 00:04:02
04.Kiss - Crazy Crazy Nights - 00:03:40
05.Alice Cooper - Poison - 00:04:25
06.Gary Moore & Phil Lynott - Out In The Fields - 00:04:15
07.Europe - The Final Countdown - 00:03:55
08.Bonnie Tyler - Holding Out For A Hero - 00:04:21
09.Fire Inc. - Nowhere Fast - 00:06:01
10.Pat Benatar - Love Is A Battlefield - 00:04:07
11.Heart - Alone - 00:03:35
12.Toto - Rosanna - 00:03:59
13.Rick Springfield - Jessie's Girl - 00:03:11
14.Huey Lewis & The News - The Power Of Love - 00:03:52
15.Kenny Loggins - Danger Zone - 00:03:32
16.Loverboy - Lovin' Every Minute Of It - 00:03:32
17.The Alarm - Sixty Eight Guns - 00:03:14
18.John Mellencamp - R.O.C.K. In The U.S.A. (A Salute To 60's Rock) - 00:02:50
19.Reo Speedwagon - Take It On The Run - 00:04:00
20.John Farnham - You're The Voice - 00:04:14

Exact Audio Copy V1.3 from 2. September 2016

EAC extraction logfile from 8. November 2019, 19:46

Various / The Hits Album - The Rock Album - CD1

Used drive : ATAPI iHAS124 Y Adapter: 1 ID: 0

Read mode : Secure
Utilize accurate stream : Yes
Defeat audio cache : No
Make use of C2 pointers : Yes

Read offset correction : 48
Overread into Lead-In and Lead-Out : No
Fill up missing offset samples with silence : Yes
Delete leading and trailing silent blocks : No
Null samples used in CRC calculations : Yes
Used interface : Native Win32 interface for Win NT & 2000
Gap handling : Not detected, thus appended to previous track

Used output format : User Defined Encoder
Selected bitrate : 768 kBit/s
Quality : High
Add ID3 tag : No
Command line compressor : C:\Program Files (x86)\Exact Audio Copy\FLAC\FLAC.EXE
Additional command line options : -6 -V -T "ARTIST=%artist%" -T "TITLE=%title%" -T "ALBUM=%albumtitle%" -T "DATE=%year%" -T "TRACKNUMBER=%tracknr%" -T "GENRE=%genre%" -T "COMMENT=%comment%" -T "BAND=%albuminterpret%" -T "ALBUMARTIST=%albuminterpret%" -T "COMPOSER=%composer%" %haslyrics%–tag-from-file=LYRICS="%lyricsfile%"%haslyrics% -T "DISCNUMBER=%cdnumber%" -T "TOTALDISCS=%totalcds%" -T "TOTALTRACKS=%numtracks%" %hascover%–picture="%coverfile%"%hascover% %source% -o %dest%


TOC of the extracted CD

Track | Start | Length | Start sector | End sector
––––––––––––––––––––––––––––-
1 | 0:00.00 | 4:52.67 | 0 | 21966
2 | 4:52.67 | 3:55.31 | 21967 | 39622
3 | 8:48.23 | 3:20.50 | 39623 | 54672
4 | 12:08.73 | 4:40.56 | 54673 | 75728
5 | 16:49.54 | 3:48.54 | 75729 | 92882
6 | 20:38.33 | 5:21.45 | 92883 | 117002
7 | 26:00.03 | 4:43.39 | 117003 | 138266
8 | 30:43.42 | 5:04.74 | 138267 | 161140
9 | 35:48.41 | 4:11.33 | 161141 | 179998
10 | 39:59.74 | 2:29.07 | 179999 | 191180
11 | 42:29.06 | 3:59.07 | 191181 | 209112
12 | 46:28.13 | 4:23.08 | 209113 | 228845
13 | 50:51.21 | 3:48.30 | 228846 | 245975
14 | 54:39.51 | 3:25.56 | 245976 | 261406
15 | 58:05.32 | 4:00.63 | 261407 | 279469
16 | 62:06.20 | 3:17.41 | 279470 | 294285
17 | 65:23.61 | 4:56.48 | 294286 | 316533
18 | 70:20.34 | 3:59.10 | 316534 | 334468
19 | 74:19.44 | 4:10.16 | 334469 | 353234


Track 1

Filename A:\PsPBuRnOuT's MUSIC\ROCK\THE HITS ALBUM - THE ROCK ALBUM\THE HITS ALBUM - THE ROCK ALBUM - CD1\01.Meat Loaf - Bat Out Of Hell.wav

Peak level 97.4 %
Extraction speed 15.6 X
Track quality 100.0 %
Copy CRC 74F9013A
Track not present in AccurateRip database
Copy OK

Track 2

Filename A:\PsPBuRnOuT's MUSIC\ROCK\THE HITS ALBUM - THE ROCK ALBUM\THE HITS ALBUM - THE ROCK ALBUM - CD1\02.Toto - Hold The Line.wav

Peak level 100.0 %
Extraction speed 20.5 X
Track quality 100.0 %
Copy CRC F6CE53C9
Track not present in AccurateRip database
Copy OK

Track 3

Filename A:\PsPBuRnOuT's MUSIC\ROCK\THE HITS ALBUM - THE ROCK ALBUM\THE HITS ALBUM - THE ROCK ALBUM - CD1\03.Reo Speedwagon - Keep On Loving You.wav

Peak level 100.0 %
Extraction speed 22.0 X
Track quality 100.0 %
Copy CRC EFD70CFF
Track not present in AccurateRip database
Copy OK

Track 4

Filename A:\PsPBuRnOuT's MUSIC\ROCK\THE HITS ALBUM - THE ROCK ALBUM\THE HITS ALBUM - THE ROCK ALBUM - CD1\04.Boston - More Than A Feeling.wav

Peak level 100.0 %
Extraction speed 21.0 X
Track quality 99.9 %
Copy CRC 8BB08B19
Track not present in AccurateRip database
Copy OK

Track 5

Filename A:\PsPBuRnOuT's MUSIC\ROCK\THE HITS ALBUM - THE ROCK ALBUM\THE HITS ALBUM - THE ROCK ALBUM - CD1\05.Asia - Heat Of The Moment.wav

Peak level 99.2 %
Extraction speed 19.5 X
Track quality 100.0 %
Copy CRC 793C4BFB
Track not present in AccurateRip database
Copy OK

Track 6

Filename A:\PsPBuRnOuT's MUSIC\ROCK\THE HITS ALBUM - THE ROCK ALBUM\THE HITS ALBUM - THE ROCK ALBUM - CD1\06.Kansas - Carry On Wayward Son.wav

Peak level 100.0 %
Extraction speed 27.5 X
Track quality 100.0 %
Copy CRC E79DB33C
Track not present in AccurateRip database
Copy OK

Track 7

Filename A:\PsPBuRnOuT's MUSIC\ROCK\THE HITS ALBUM - THE ROCK ALBUM\THE HITS ALBUM - THE ROCK ALBUM - CD1\07.Lynyrd Skynyrd - Sweet Home Alabama.wav

Peak level 99.6 %
Extraction speed 28.1 X
Track quality 100.0 %
Copy CRC D8934366
Track not present in AccurateRip database
Copy OK

Track 8

Filename A:\PsPBuRnOuT's MUSIC\ROCK\THE HITS ALBUM - THE ROCK ALBUM\THE HITS ALBUM - THE ROCK ALBUM - CD1\08.Blue Oyster Cult - (Don't Fear) The Reaper.wav

Peak level 100.0 %
Extraction speed 26.2 X
Track quality 99.9 %
Copy CRC F16C0A7C
Track not present in AccurateRip database
Copy OK

Track 9

Filename A:\PsPBuRnOuT's MUSIC\ROCK\THE HITS ALBUM - THE ROCK ALBUM\THE HITS ALBUM - THE ROCK ALBUM - CD1\09.Free - All Right Now.wav

Peak level 85.5 %
Extraction speed 22.0 X
Track quality 99.9 %
Copy CRC BA50B666
Track not present in AccurateRip database
Copy OK

Track 10

Filename A:\PsPBuRnOuT's MUSIC\ROCK\THE HITS ALBUM - THE ROCK ALBUM\THE HITS ALBUM - THE ROCK ALBUM - CD1\10.Ram Jam - Black Betty.wav

Peak level 100.0 %
Extraction speed 22.2 X
Track quality 100.0 %
Copy CRC 18ED3FB5
Track not present in AccurateRip database
Copy OK

Track 11

Filename A:\PsPBuRnOuT's MUSIC\ROCK\THE HITS ALBUM - THE ROCK ALBUM\THE HITS ALBUM - THE ROCK ALBUM - CD1\11.Status Quo - Whatever You Want.wav

Peak level 84.1 %
Extraction speed 33.9 X
Track quality 100.0 %
Copy CRC 43C92516
Track not present in AccurateRip database
Copy OK

Track 12

Filename A:\PsPBuRnOuT's MUSIC\ROCK\THE HITS ALBUM - THE ROCK ALBUM\THE HITS ALBUM - THE ROCK ALBUM - CD1\12.Thin Lizzy - The Boys Are Back In Town.wav

Peak level 79.4 %
Extraction speed 33.4 X
Track quality 100.0 %
Copy CRC 2ADAB0D0
Track not present in AccurateRip database
Copy OK

Track 13

Filename A:\PsPBuRnOuT's MUSIC\ROCK\THE HITS ALBUM - THE ROCK ALBUM\THE HITS ALBUM - THE ROCK ALBUM - CD1\13.Rainbow - All Night Long.wav

Peak level 100.0 %
Extraction speed 34.3 X
Track quality 100.0 %
Copy CRC 2E4EDF8C
Track not present in AccurateRip database
Copy OK

Track 14

Filename A:\PsPBuRnOuT's MUSIC\ROCK\THE HITS ALBUM - THE ROCK ALBUM\THE HITS ALBUM - THE ROCK ALBUM - CD1\14.Judas Priest - Living After Midnight.wav

Peak level 79.4 %
Extraction speed 34.8 X
Track quality 100.0 %
Copy CRC 65D2E403
Track not present in AccurateRip database
Copy OK

Track 15

Filename A:\PsPBuRnOuT's MUSIC\ROCK\THE HITS ALBUM - THE ROCK ALBUM\THE HITS ALBUM - THE ROCK ALBUM - CD1\15.The Knack - My Sharona.wav

Peak level 100.0 %
Extraction speed 35.9 X
Track quality 100.0 %
Copy CRC 768EFF9F
Track not present in AccurateRip database
Copy OK

Track 16

Filename A:\PsPBuRnOuT's MUSIC\ROCK\THE HITS ALBUM - THE ROCK ALBUM\THE HITS ALBUM - THE ROCK ALBUM - CD1\16.Sweet - Action.wav

Peak level 100.0 %
Extraction speed 35.9 X
Track quality 100.0 %
Copy CRC 7D09B4DD
Track not present in AccurateRip database
Copy OK

Track 17

Filename A:\PsPBuRnOuT's MUSIC\ROCK\THE HITS ALBUM - THE ROCK ALBUM\THE HITS ALBUM - THE ROCK ALBUM - CD1\17.Rush - The Spirit Of Radio.wav

Peak level 90.1 %
Extraction speed 37.6 X
Track quality 100.0 %
Copy CRC 16C54434
Track not present in AccurateRip database
Copy OK

Track 18

Filename A:\PsPBuRnOuT's MUSIC\ROCK\THE HITS ALBUM - THE ROCK ALBUM\THE HITS ALBUM - THE ROCK ALBUM - CD1\18.Jim Steinman - Rock And Roll Dreams Come Through.wav

Peak level 97.7 %
Extraction speed 40.5 X
Track quality 100.0 %
Copy CRC 1AB9FD89
Track not present in AccurateRip database
Copy OK

Track 19

Filename A:\PsPBuRnOuT's MUSIC\ROCK\THE HITS ALBUM - THE ROCK ALBUM\THE HITS ALBUM - THE ROCK ALBUM - CD1\19.Night Ranger - Sister Christian.wav

Peak level 100.0 %
Extraction speed 14.1 X
Track quality 99.8 %
Copy CRC DA72E691
Track not present in AccurateRip database
Copy OK


None of the tracks are present in the AccurateRip database

No errors occurred

End of status report

–– CUETools DB Plugin V2.1.6

[CTDB TOCID: Gf1ghmdT.kCIqUqjh2kvL5YQDEQ-] found
Submit result: Gf1ghmdT.kCIqUqjh2kvL5YQDEQ- has been uploaded
Track | CTDB Status
1 | (1/1) Accurately ripped
2 | (1/1) Accurately ripped
3 | (1/1) Accurately ripped
4 | (1/1) Accurately ripped
5 | (1/1) Accurately ripped
6 | (1/1) Accurately ripped
7 | (1/1) Accurately ripped
8 | (1/1) Accurately ripped
9 | (1/1) Accurately ripped
10 | (1/1) Accurately ripped
11 | (1/1) Accurately ripped
12 | (1/1) Accurately ripped
13 | (1/1) Accurately ripped
14 | (1/1) Accurately ripped
15 | (1/1) Accurately ripped
16 | (1/1) Accurately ripped
17 | (1/1) Accurately ripped
18 | (1/1) Accurately ripped
19 | (0/1) No match

Exact Audio Copy V1.3 from 2. September 2016

EAC extraction logfile from 8. November 2019, 20:22

Various / The Hits Album - The Rock Album - CD2

Used drive : ATAPI iHAS124 Y Adapter: 1 ID: 0

Read mode : Secure
Utilize accurate stream : Yes
Defeat audio cache : No
Make use of C2 pointers : Yes

Read offset correction : 48
Overread into Lead-In and Lead-Out : No
Fill up missing offset samples with silence : Yes
Delete leading and trailing silent blocks : No
Null samples used in CRC calculations : Yes
Used interface : Native Win32 interface for Win NT & 2000
Gap handling : Not detected, thus appended to previous track

Used output format : User Defined Encoder
Selected bitrate : 768 kBit/s
Quality : High
Add ID3 tag : No
Command line compressor : C:\Program Files (x86)\Exact Audio Copy\FLAC\FLAC.EXE
Additional command line options : -6 -V -T "ARTIST=%artist%" -T "TITLE=%title%" -T "ALBUM=%albumtitle%" -T "DATE=%year%" -T "TRACKNUMBER=%tracknr%" -T "GENRE=%genre%" -T "COMMENT=%comment%" -T "BAND=%albuminterpret%" -T "ALBUMARTIST=%albuminterpret%" -T "COMPOSER=%composer%" %haslyrics%–tag-from-file=LYRICS="%lyricsfile%"%haslyrics% -T "DISCNUMBER=%cdnumber%" -T "TOTALDISCS=%totalcds%" -T "TOTALTRACKS=%numtracks%" %hascover%–picture="%coverfile%"%hascover% %source% -o %dest%


TOC of the extracted CD

Track | Start | Length | Start sector | End sector
––––––––––––––––––––––––––––-
1 | 0:00.00 | 4:21.00 | 0 | 19574
2 | 4:21.00 | 4:19.18 | 19575 | 39017
3 | 8:40.18 | 3:54.02 | 39018 | 56569
4 | 12:34.20 | 3:41.00 | 56570 | 73144
5 | 16:15.20 | 3:25.38 | 73145 | 88557
6 | 19:40.58 | 4:08.18 | 88558 | 107175
7 | 23:49.01 | 3:33.43 | 107176 | 123193
8 | 27:22.44 | 3:43.73 | 123194 | 139991
9 | 31:06.42 | 3:18.39 | 139992 | 154880
10 | 34:25.06 | 3:21.35 | 154881 | 169990
11 | 37:46.41 | 3:37.62 | 169991 | 186327
12 | 41:24.28 | 3:31.48 | 186328 | 202200
13 | 44:56.01 | 3:33.06 | 202201 | 218181
14 | 48:29.07 | 3:33.32 | 218182 | 234188
15 | 52:02.39 | 4:16.15 | 234189 | 253403
16 | 56:18.54 | 4:24.11 | 253404 | 273214
17 | 60:42.65 | 3:52.31 | 273215 | 290645
18 | 64:35.21 | 4:11.38 | 290646 | 309508
19 | 68:46.59 | 4:26.03 | 309509 | 329461
20 | 73:12.62 | 4:38.35 | 329462 | 350346


Track 1

Filename A:\PsPBuRnOuT's MUSIC\ROCK\THE HITS ALBUM - THE ROCK ALBUM\THE HITS ALBUM - THE ROCK ALBUM - CD2\01.Robbie Williams - Let Me Entertain You.wav

Peak level 79.4 %
Extraction speed 9.2 X
Track quality 99.9 %
Copy CRC D7AF47E3
Track not present in AccurateRip database
Copy OK

Track 2

Filename A:\PsPBuRnOuT's MUSIC\ROCK\THE HITS ALBUM - THE ROCK ALBUM\THE HITS ALBUM - THE ROCK ALBUM - CD2\02.Robert Palmer - Addicted To Love.wav

Peak level 92.7 %
Extraction speed 10.6 X
Track quality 100.0 %
Copy CRC E5284F28
Track not present in AccurateRip database
Copy OK

Track 3

Filename A:\PsPBuRnOuT's MUSIC\ROCK\THE HITS ALBUM - THE ROCK ALBUM\THE HITS ALBUM - THE ROCK ALBUM - CD2\03.Cher - If I Could Turn Back Time.wav

Peak level 100.0 %
Extraction speed 11.9 X
Track quality 100.0 %
Copy CRC D1D6DE1B
Track not present in AccurateRip database
Copy OK

Track 4

Filename A:\PsPBuRnOuT's MUSIC\ROCK\THE HITS ALBUM - THE ROCK ALBUM\THE HITS ALBUM - THE ROCK ALBUM - CD2\04.Pat Benatar - Shadows Of The Night.wav

Peak level 82.2 %
Extraction speed 12.2 X
Track quality 100.0 %
Copy CRC 6499325F
Track not present in AccurateRip database
Copy OK

Track 5

Filename A:\PsPBuRnOuT's MUSIC\ROCK\THE HITS ALBUM - THE ROCK ALBUM\THE HITS ALBUM - THE ROCK ALBUM - CD2\05.Blondie - One Way Or Another.wav

Peak level 97.8 %
Extraction speed 12.7 X
Track quality 99.8 %
Copy CRC C4273ABA
Track not present in AccurateRip database
Copy OK

Track 6

Filename A:\PsPBuRnOuT's MUSIC\ROCK\THE HITS ALBUM - THE ROCK ALBUM\THE HITS ALBUM - THE ROCK ALBUM - CD2\06.Billy Idol - Mony Mony.wav

Peak level 96.8 %
Extraction speed 13.4 X
Track quality 99.9 %
Copy CRC 2F9FAD7E
Track not present in AccurateRip database
Copy OK

Track 7

Filename A:\PsPBuRnOuT's MUSIC\ROCK\THE HITS ALBUM - THE ROCK ALBUM\THE HITS ALBUM - THE ROCK ALBUM - CD2\07.Iggy Pop - Real Wild Child (Wild One).wav

Peak level 88.6 %
Extraction speed 14.7 X
Track quality 100.0 %
Copy CRC 6B52139D
Track not present in AccurateRip database
Copy OK

Track 8

Filename A:\PsPBuRnOuT's MUSIC\ROCK\THE HITS ALBUM - THE ROCK ALBUM\THE HITS ALBUM - THE ROCK ALBUM - CD2\08.Poison - Unskinny Bop.wav

Peak level 68.6 %
Extraction speed 14.5 X
Track quality 100.0 %
Copy CRC 2D874648
Track not present in AccurateRip database
Copy OK

Track 9

Filename A:\PsPBuRnOuT's MUSIC\ROCK\THE HITS ALBUM - THE ROCK ALBUM\THE HITS ALBUM - THE ROCK ALBUM - CD2\09.Warrant - Cherry Pie.wav

Peak level 89.0 %
Extraction speed 15.1 X
Track quality 99.8 %
Copy CRC C0A2A201
Track not present in AccurateRip database
Copy OK

Track 10

Filename A:\PsPBuRnOuT's MUSIC\ROCK\THE HITS ALBUM - THE ROCK ALBUM\THE HITS ALBUM - THE ROCK ALBUM - CD2\10.Quiet Riot - Cum On Feel The Noize.wav

Peak level 100.0 %
Extraction speed 16.4 X
Track quality 100.0 %
Copy CRC 8824DD6A
Track not present in AccurateRip database
Copy OK

Track 11

Filename A:\PsPBuRnOuT's MUSIC\ROCK\THE HITS ALBUM - THE ROCK ALBUM\THE HITS ALBUM - THE ROCK ALBUM - CD2\11.Run D.M.C. Feat. Aerosmith - Walk This Way.wav

Peak level 82.2 %
Extraction speed 16.1 X
Track quality 100.0 %
Copy CRC AA1185D4
Track not present in AccurateRip database
Copy OK

Track 12

Filename A:\PsPBuRnOuT's MUSIC\ROCK\THE HITS ALBUM - THE ROCK ALBUM\THE HITS ALBUM - THE ROCK ALBUM - CD2\12.Lenny Kravitz - Are You Gonna Go My Way.wav

Peak level 93.2 %
Extraction speed 17.4 X
Track quality 100.0 %
Copy CRC A7FA16CC
Track not present in AccurateRip database
Copy OK

Track 13

Filename A:\PsPBuRnOuT's MUSIC\ROCK\THE HITS ALBUM - THE ROCK ALBUM\THE HITS ALBUM - THE ROCK ALBUM - CD2\13.Primal Scream - Rocks.wav

Peak level 100.0 %
Extraction speed 16.9 X
Track quality 100.0 %
Copy CRC 6DDF9E65
Track not present in AccurateRip database
Copy OK

Track 14

Filename A:\PsPBuRnOuT's MUSIC\ROCK\THE HITS ALBUM - THE ROCK ALBUM\THE HITS ALBUM - THE ROCK ALBUM - CD2\14.Manic Street Preachers - Motorcycle Emptiness.wav

Peak level 83.1 %
Extraction speed 17.5 X
Track quality 100.0 %
Copy CRC 858B1516
Track not present in AccurateRip database
Copy OK

Track 15

Filename A:\PsPBuRnOuT's MUSIC\ROCK\THE HITS ALBUM - THE ROCK ALBUM\THE HITS ALBUM - THE ROCK ALBUM - CD2\15.Deep Blue Something - Breakfast At Tiffany's.wav

Peak level 71.6 %
Extraction speed 18.0 X
Track quality 99.9 %
Copy CRC 36A86B78
Track not present in AccurateRip database
Copy OK

Track 16

Filename A:\PsPBuRnOuT's MUSIC\ROCK\THE HITS ALBUM - THE ROCK ALBUM\THE HITS ALBUM - THE ROCK ALBUM - CD2\16.Mr. Mister - Kyrie.wav

Peak level 100.0 %
Extraction speed 18.5 X
Track quality 99.9 %
Copy CRC CDB5691E
Track not present in AccurateRip database
Copy OK

Track 17

Filename A:\PsPBuRnOuT's MUSIC\ROCK\THE HITS ALBUM - THE ROCK ALBUM\THE HITS ALBUM - THE ROCK ALBUM - CD2\17.Richie Sambora - Ballad Of Youth.wav

Peak level 100.0 %
Extraction speed 19.9 X
Track quality 100.0 %
Copy CRC 0F069F62
Track not present in AccurateRip database
Copy OK

Track 18

Filename A:\PsPBuRnOuT's MUSIC\ROCK\THE HITS ALBUM - THE ROCK ALBUM\THE HITS ALBUM - THE ROCK ALBUM - CD2\18.The Jeff Healey Band - While My Guitar Gently Weeps.wav

Peak level 94.3 %
Extraction speed 16.4 X
Track quality 99.8 %
Copy CRC 026E0F51
Track not present in AccurateRip database
Copy OK

Track 19

Filename A:\PsPBuRnOuT's MUSIC\ROCK\THE HITS ALBUM - THE ROCK ALBUM\THE HITS ALBUM - THE ROCK ALBUM - CD2\19.Billy Joel - We Didn't Start The Fire.wav

Peak level 99.7 %
Extraction speed 18.5 X
Track quality 100.0 %
Copy CRC 604F536E
Track not present in AccurateRip database
Copy OK

Track 20

Filename A:\PsPBuRnOuT's MUSIC\ROCK\THE HITS ALBUM - THE ROCK ALBUM\THE HITS ALBUM - THE ROCK ALBUM - CD2\20.Bonnie Tyler - Faster Than The Speed Of Night.wav

Peak level 100.0 %
Extraction speed 17.6 X
Track quality 99.8 %
Copy CRC 58B928C2
Track not present in AccurateRip database
Copy OK


None of the tracks are present in the AccurateRip database

No errors occurred

End of status report

–– CUETools DB Plugin V2.1.6

[CTDB TOCID: 21TSNQpbc2gy2iQc1ibTqHH3pn0-] found
Submit result: 21TSNQpbc2gy2iQc1ibTqHH3pn0- has been confirmed
Track | CTDB Status
1 | (1/1) Accurately ripped
2 | (1/1) Accurately ripped
3 | (1/1) Accurately ripped
4 | (1/1) Accurately ripped
5 | (1/1) Accurately ripped
6 | (1/1) Accurately ripped
7 | (1/1) Accurately ripped
8 | (1/1) Accurately ripped
9 | (1/1) Accurately ripped
10 | (1/1) Accurately ripped
11 | (1/1) Accurately ripped
12 | (1/1) Accurately ripped
13 | (1/1) Accurately ripped
14 | (1/1) Accurately ripped
15 | (1/1) Accurately ripped
16 | (1/1) Accurately ripped
17 | (1/1) Accurately ripped
18 | (1/1) Accurately ripped
19 | (1/1) Accurately ripped
20 | (1/1) Accurately ripped

Exact Audio Copy V1.3 from 2. September 2016

EAC extraction logfile from 9. November 2019, 12:27

Various / The Hits Album - The Rock Album - CD3

Used drive : ATAPI iHAS124 Y Adapter: 1 ID: 0

Read mode : Secure
Utilize accurate stream : Yes
Defeat audio cache : No
Make use of C2 pointers : Yes

Read offset correction : 48
Overread into Lead-In and Lead-Out : No
Fill up missing offset samples with silence : Yes
Delete leading and trailing silent blocks : No
Null samples used in CRC calculations : Yes
Used interface : Native Win32 interface for Win NT & 2000
Gap handling : Not detected, thus appended to previous track

Used output format : User Defined Encoder
Selected bitrate : 768 kBit/s
Quality : High
Add ID3 tag : No
Command line compressor : C:\Program Files (x86)\Exact Audio Copy\FLAC\FLAC.EXE
Additional command line options : -6 -V -T "ARTIST=%artist%" -T "TITLE=%title%" -T "ALBUM=%albumtitle%" -T "DATE=%year%" -T "TRACKNUMBER=%tracknr%" -T "GENRE=%genre%" -T "COMMENT=%comment%" -T "BAND=%albuminterpret%" -T "ALBUMARTIST=%albuminterpret%" -T "COMPOSER=%composer%" %haslyrics%–tag-from-file=LYRICS="%lyricsfile%"%haslyrics% -T "DISCNUMBER=%cdnumber%" -T "TOTALDISCS=%totalcds%" -T "TOTALTRACKS=%numtracks%" %hascover%–picture="%coverfile%"%hascover% %source% -o %dest%


TOC of the extracted CD

Track | Start | Length | Start sector | End sector
––––––––––––––––––––––––––––-
1 | 0:00.00 | 3:54.47 | 0 | 17596
2 | 3:54.47 | 3:50.05 | 17597 | 34851
3 | 7:44.52 | 6:01.00 | 34852 | 61926
4 | 13:45.52 | 3:19.49 | 61927 | 76900
5 | 17:05.26 | 3:39.55 | 76901 | 93380
6 | 20:45.06 | 5:39.72 | 93381 | 118877
7 | 26:25.03 | 2:56.37 | 118878 | 132114
8 | 29:21.40 | 4:15.66 | 132115 | 151305
9 | 33:37.31 | 3:30.01 | 151306 | 167056
10 | 37:07.32 | 2:57.20 | 167057 | 180351
11 | 40:04.52 | 3:18.70 | 180352 | 195271
12 | 43:23.47 | 2:17.30 | 195272 | 205576
13 | 45:41.02 | 4:22.41 | 205577 | 225267
14 | 50:03.43 | 3:18.24 | 225268 | 240141
15 | 53:21.67 | 3:35.70 | 240142 | 256336
16 | 56:57.62 | 4:38.36 | 256337 | 277222
17 | 61:36.23 | 2:54.37 | 277223 | 290309
18 | 64:30.60 | 3:46.48 | 290310 | 307307
19 | 68:17.33 | 3:11.51 | 307308 | 321683
20 | 71:29.09 | 3:59.07 | 321684 | 339615
21 | 75:28.16 | 3:16.21 | 339616 | 354336


Track 1

Filename A:\PsPBuRnOuT's MUSIC\ROCK\THE HITS ALBUM - THE ROCK ALBUM\THE HITS ALBUM - THE ROCK ALBUM - CD3\01.Bachman-Turner Overdrive - You Ain't Seen Nothing Yet.wav

Peak level 85.5 %
Extraction speed 8.4 X
Track quality 100.0 %
Copy CRC 73627D7B
Track not present in AccurateRip database
Copy OK

Track 2

Filename A:\PsPBuRnOuT's MUSIC\ROCK\THE HITS ALBUM - THE ROCK ALBUM\THE HITS ALBUM - THE ROCK ALBUM - CD3\02.Status Quo - Down Down.wav

Peak level 100.0 %
Extraction speed 10.5 X
Track quality 99.9 %
Copy CRC 6ABE4741
Track not present in AccurateRip database
Copy OK

Track 3

Filename A:\PsPBuRnOuT's MUSIC\ROCK\THE HITS ALBUM - THE ROCK ALBUM\THE HITS ALBUM - THE ROCK ALBUM - CD3\03.Boston - Don't Look Back.wav

Peak level 100.0 %
Extraction speed 11.6 X
Track quality 100.0 %
Copy CRC 25197BBB
Track not present in AccurateRip database
Copy OK

Track 4

Filename A:\PsPBuRnOuT's MUSIC\ROCK\THE HITS ALBUM - THE ROCK ALBUM\THE HITS ALBUM - THE ROCK ALBUM - CD3\04.Rainbow - I Surrender.wav

Peak level 100.0 %
Extraction speed 12.5 X
Track quality 100.0 %
Copy CRC 9A50223F
Track not present in AccurateRip database
Copy OK

Track 5

Filename A:\PsPBuRnOuT's MUSIC\ROCK\THE HITS ALBUM - THE ROCK ALBUM\THE HITS ALBUM - THE ROCK ALBUM - CD3\05.Free - Wishing Well.wav

Peak level 76.4 %
Extraction speed 13.1 X
Track quality 100.0 %
Copy CRC 6AE5D2BA
Track not present in AccurateRip database
Copy OK

Track 6

Filename A:\PsPBuRnOuT's MUSIC\ROCK\THE HITS ALBUM - THE ROCK ALBUM\THE HITS ALBUM - THE ROCK ALBUM - CD3\06.Thin Lizzy - Whiskey In The Jar.wav

Peak level 94.4 %
Extraction speed 13.9 X
Track quality 100.0 %
Copy CRC 92BDC26B
Track not present in AccurateRip database
Copy OK

Track 7

Filename A:\PsPBuRnOuT's MUSIC\ROCK\THE HITS ALBUM - THE ROCK ALBUM\THE HITS ALBUM - THE ROCK ALBUM - CD3\07.Ike & Tina Turner - Nutbush City Limits.wav

Peak level 78.3 %
Extraction speed 14.5 X
Track quality 100.0 %
Copy CRC BF7FB134
Track not present in AccurateRip database
Copy OK

Track 8

Filename A:\PsPBuRnOuT's MUSIC\ROCK\THE HITS ALBUM - THE ROCK ALBUM\THE HITS ALBUM - THE ROCK ALBUM - CD3\08.Rod Stewart - You Wear It Well.wav

Peak level 88.9 %
Extraction speed 15.1 X
Track quality 99.9 %
Copy CRC CD17100B
Track not present in AccurateRip database
Copy OK

Track 9

Filename A:\PsPBuRnOuT's MUSIC\ROCK\THE HITS ALBUM - THE ROCK ALBUM\THE HITS ALBUM - THE ROCK ALBUM - CD3\09.Mott The Hoople - All The Young Dudes.wav

Peak level 94.4 %
Extraction speed 15.5 X
Track quality 99.8 %
Copy CRC 018C39B6
Track not present in AccurateRip database
Copy OK

Track 10

Filename A:\PsPBuRnOuT's MUSIC\ROCK\THE HITS ALBUM - THE ROCK ALBUM\THE HITS ALBUM - THE ROCK ALBUM - CD3\10.Roxy Music - Virginia Plain.wav

Peak level 100.0 %
Extraction speed 16.9 X
Track quality 100.0 %
Copy CRC 36D20E10
Track not present in AccurateRip database
Copy OK

Track 11

Filename A:\PsPBuRnOuT's MUSIC\ROCK\THE HITS ALBUM - THE ROCK ALBUM\THE HITS ALBUM - THE ROCK ALBUM - CD3\11.Sweet - Fox On The Run.wav

Peak level 100.0 %
Extraction speed 17.3 X
Track quality 100.0 %
Copy CRC 6BD344E6
Track not present in AccurateRip database
Copy OK

Track 12

Filename A:\PsPBuRnOuT's MUSIC\ROCK\THE HITS ALBUM - THE ROCK ALBUM\THE HITS ALBUM - THE ROCK ALBUM - CD3\12.The Runaways - Cherry Bomb.wav

Peak level 81.0 %
Extraction speed 18.0 X
Track quality 100.0 %
Copy CRC 96CC1670
Track not present in AccurateRip database
Copy OK

Track 13

Filename A:\PsPBuRnOuT's MUSIC\ROCK\THE HITS ALBUM - THE ROCK ALBUM\THE HITS ALBUM - THE ROCK ALBUM - CD3\13.Heart - Barracuda.wav

Peak level 83.3 %
Extraction speed 17.3 X
Track quality 99.9 %
Copy CRC 2FFC234E
Track not present in AccurateRip database
Copy OK

Track 14

Filename A:\PsPBuRnOuT's MUSIC\ROCK\THE HITS ALBUM - THE ROCK ALBUM\THE HITS ALBUM - THE ROCK ALBUM - CD3\14.Patti Smith Group - Because The Night.wav

Peak level 93.0 %
Extraction speed 18.7 X
Track quality 100.0 %
Copy CRC CF756959
Track not present in AccurateRip database
Copy OK

Track 15

Filename A:\PsPBuRnOuT's MUSIC\ROCK\THE HITS ALBUM - THE ROCK ALBUM\THE HITS ALBUM - THE ROCK ALBUM - CD3\15.Mink DeVille - Spanish Stroll.wav

Peak level 100.0 %
Extraction speed 18.2 X
Track quality 100.0 %
Copy CRC 8768DF09
Track not present in AccurateRip database
Copy OK

Track 16

Filename A:\PsPBuRnOuT's MUSIC\ROCK\THE HITS ALBUM - THE ROCK ALBUM\THE HITS ALBUM - THE ROCK ALBUM - CD3\16.Frijid Pink - House Of The Rising Sun.wav

Peak level 93.3 %
Extraction speed 18.7 X
Track quality 100.0 %
Copy CRC 78829474
Track not present in AccurateRip database
Copy OK

Track 17

Filename A:\PsPBuRnOuT's MUSIC\ROCK\THE HITS ALBUM - THE ROCK ALBUM\THE HITS ALBUM - THE ROCK ALBUM - CD3\17.The Spencer Davis Group - Gimme Some Lovin'.wav

Peak level 64.3 %
Extraction speed 19.3 X
Track quality 100.0 %
Copy CRC 2C35600F
Track not present in AccurateRip database
Copy OK

Track 18

Filename A:\PsPBuRnOuT's MUSIC\ROCK\THE HITS ALBUM - THE ROCK ALBUM\THE HITS ALBUM - THE ROCK ALBUM - CD3\18.The Guess Who - American Woman.wav

Peak level 86.1 %
Extraction speed 20.4 X
Track quality 100.0 %
Copy CRC 2B0FECB3
Track not present in AccurateRip database
Copy OK

Track 19

Filename A:\PsPBuRnOuT's MUSIC\ROCK\THE HITS ALBUM - THE ROCK ALBUM\THE HITS ALBUM - THE ROCK ALBUM - CD3\19.Santana - She's Not There.wav

Peak level 100.0 %
Extraction speed 19.8 X
Track quality 100.0 %
Copy CRC A95447A5
Track not present in AccurateRip database
Copy OK

Track 20

Filename A:\PsPBuRnOuT's MUSIC\ROCK\THE HITS ALBUM - THE ROCK ALBUM\THE HITS ALBUM - THE ROCK ALBUM - CD3\20.Argent - God Gave Rock 'N' Roll To You.wav

Peak level 100.0 %
Extraction speed 21.2 X
Track quality 100.0 %
Copy CRC 0DA9221B
Track not present in AccurateRip database
Copy OK

Track 21

Filename A:\PsPBuRnOuT's MUSIC\ROCK\THE HITS ALBUM - THE ROCK ALBUM\THE HITS ALBUM - THE ROCK ALBUM - CD3\21.Three Dog Night - Mama Told Me (Not To Come).wav

Peak level 95.9 %
Extraction speed 13.8 X
Track quality 99.6 %
Copy CRC 72BE977B
Track not present in AccurateRip database
Copy OK


None of the tracks are present in the AccurateRip database

No errors occurred

End of status report

–– CUETools DB Plugin V2.1.6

[CTDB TOCID: 0JLxecjyOGhDDftePmf4PmrLUls-] found
Submit result: 0JLxecjyOGhDDftePmf4PmrLUls- has been confirmed
Track | CTDB Status
1 | (1/1) Accurately ripped
2 | (1/1) Accurately ripped
3 | (1/1) Accurately ripped
4 | (1/1) Accurately ripped
5 | (1/1) Accurately ripped
6 | (1/1) Accurately ripped
7 | (1/1) Accurately ripped
8 | (1/1) Accurately ripped
9 | (1/1) Accurately ripped
10 | (1/1) Accurately ripped
11 | (1/1) Accurately ripped
12 | (1/1) Accurately ripped
13 | (1/1) Accurately ripped
14 | (1/1) Accurately ripped
15 | (1/1) Accurately ripped
16 | (1/1) Accurately ripped
17 | (1/1) Accurately ripped
18 | (1/1) Accurately ripped
19 | (1/1) Accurately ripped
20 | (1/1) Accurately ripped
21 | (1/1) Accurately ripped

Exact Audio Copy V1.3 from 2. September 2016

EAC extraction logfile from 9. November 2019, 13:03

Various / The Hits Album - The Rock Album - CD4

Used drive : ATAPI iHAS124 Y Adapter: 1 ID: 0

Read mode : Secure
Utilize accurate stream : Yes
Defeat audio cache : No
Make use of C2 pointers : Yes

Read offset correction : 48
Overread into Lead-In and Lead-Out : No
Fill up missing offset samples with silence : Yes
Delete leading and trailing silent blocks : No
Null samples used in CRC calculations : Yes
Used interface : Native Win32 interface for Win NT & 2000
Gap handling : Not detected, thus appended to previous track

Used output format : User Defined Encoder
Selected bitrate : 768 kBit/s
Quality : High
Add ID3 tag : No
Command line compressor : C:\Program Files (x86)\Exact Audio Copy\FLAC\FLAC.EXE
Additional command line options : -6 -V -T "ARTIST=%artist%" -T "TITLE=%title%" -T "ALBUM=%albumtitle%" -T "DATE=%year%" -T "TRACKNUMBER=%tracknr%" -T "GENRE=%genre%" -T "COMMENT=%comment%" -T "BAND=%albuminterpret%" -T "ALBUMARTIST=%albuminterpret%" -T "COMPOSER=%composer%" %haslyrics%–tag-from-file=LYRICS="%lyricsfile%"%haslyrics% -T "DISCNUMBER=%cdnumber%" -T "TOTALDISCS=%totalcds%" -T "TOTALTRACKS=%numtracks%" %hascover%–picture="%coverfile%"%hascover% %source% -o %dest%


TOC of the extracted CD

Track | Start | Length | Start sector | End sector
––––––––––––––––––––––––––––-
1 | 0:00.00 | 3:05.65 | 0 | 13939
2 | 3:05.65 | 4:22.20 | 13940 | 33609
3 | 7:28.10 | 4:02.47 | 33610 | 51806
4 | 11:30.57 | 3:40.32 | 51807 | 68338
5 | 15:11.14 | 4:25.71 | 68339 | 88284
6 | 19:37.10 | 4:15.52 | 88285 | 107461
7 | 23:52.62 | 3:55.37 | 107462 | 125123
8 | 27:48.24 | 4:21.43 | 125124 | 144741
9 | 32:09.67 | 6:01.63 | 144742 | 171879
10 | 38:11.55 | 4:07.25 | 171880 | 190429
11 | 42:19.05 | 3:35.62 | 190430 | 206616
12 | 45:54.67 | 3:59.39 | 206617 | 224580
13 | 49:54.31 | 3:11.58 | 224581 | 238963
14 | 53:06.14 | 3:52.40 | 238964 | 256403
15 | 56:58.54 | 3:32.48 | 256404 | 272351
16 | 60:31.27 | 3:32.37 | 272352 | 288288
17 | 64:03.64 | 3:14.64 | 288289 | 302902
18 | 67:18.53 | 2:50.38 | 302903 | 315690
19 | 70:09.16 | 4:00.47 | 315691 | 333737
20 | 74:09.63 | 4:14.22 | 333738 | 352809


Track 1

Filename A:\PsPBuRnOuT's MUSIC\ROCK\THE HITS ALBUM - THE ROCK ALBUM\THE HITS ALBUM - THE ROCK ALBUM - CD4\01.Electric Light Orchestra - Hold On Tight.wav

Peak level 99.4 %
Extraction speed 14.0 X
Track quality 100.0 %
Copy CRC 9ECE8AAE
Track not present in AccurateRip database
Copy OK

Track 2

Filename A:\PsPBuRnOuT's MUSIC\ROCK\THE HITS ALBUM - THE ROCK ALBUM\THE HITS ALBUM - THE ROCK ALBUM - CD4\02.Meat Loaf With Cher - Dead Ringer For Love.wav

Peak level 100.0 %
Extraction speed 17.9 X
Track quality 99.9 %
Copy CRC 65B28949
Track not present in AccurateRip database
Copy OK

Track 3

Filename A:\PsPBuRnOuT's MUSIC\ROCK\THE HITS ALBUM - THE ROCK ALBUM\THE HITS ALBUM - THE ROCK ALBUM - CD4\03.Survivor - Eye Of The Tiger.wav

Peak level 98.7 %
Extraction speed 17.9 X
Track quality 100.0 %
Copy CRC 682092CC
Track not present in AccurateRip database
Copy OK

Track 4

Filename A:\PsPBuRnOuT's MUSIC\ROCK\THE HITS ALBUM - THE ROCK ALBUM\THE HITS ALBUM - THE ROCK ALBUM - CD4\04.Kiss - Crazy Crazy Nights.wav

Peak level 99.8 %
Extraction speed 23.0 X
Track quality 100.0 %
Copy CRC 5EDC2E5D
Track not present in AccurateRip database
Copy OK

Track 5

Filename A:\PsPBuRnOuT's MUSIC\ROCK\THE HITS ALBUM - THE ROCK ALBUM\THE HITS ALBUM - THE ROCK ALBUM - CD4\05.Alice Cooper - Poison.wav

Peak level 92.7 %
Extraction speed 24.6 X
Track quality 100.0 %
Copy CRC CB599C26
Track not present in AccurateRip database
Copy OK

Track 6

Filename A:\PsPBuRnOuT's MUSIC\ROCK\THE HITS ALBUM - THE ROCK ALBUM\THE HITS ALBUM - THE ROCK ALBUM - CD4\06.Gary Moore & Phil Lynott - Out In The Fields.wav

Peak level 88.5 %
Extraction speed 27.0 X
Track quality 100.0 %
Copy CRC 5326738E
Track not present in AccurateRip database
Copy OK

Track 7

Filename A:\PsPBuRnOuT's MUSIC\ROCK\THE HITS ALBUM - THE ROCK ALBUM\THE HITS ALBUM - THE ROCK ALBUM - CD4\07.Europe - The Final Countdown.wav

Peak level 100.0 %
Extraction speed 23.4 X
Track quality 99.9 %
Copy CRC B8222B2A
Track not present in AccurateRip database
Copy OK

Track 8

Filename A:\PsPBuRnOuT's MUSIC\ROCK\THE HITS ALBUM - THE ROCK ALBUM\THE HITS ALBUM - THE ROCK ALBUM - CD4\08.Bonnie Tyler - Holding Out For A Hero.wav

Peak level 83.7 %
Extraction speed 23.5 X
Track quality 100.0 %
Copy CRC E0B32B44
Track not present in AccurateRip database
Copy OK

Track 9

Filename A:\PsPBuRnOuT's MUSIC\ROCK\THE HITS ALBUM - THE ROCK ALBUM\THE HITS ALBUM - THE ROCK ALBUM - CD4\09.Fire Inc. - Nowhere Fast.wav

Peak level 100.0 %
Extraction speed 31.0 X
Track quality 100.0 %
Copy CRC 49256781
Track not present in AccurateRip database
Copy OK

Track 10

Filename A:\PsPBuRnOuT's MUSIC\ROCK\THE HITS ALBUM - THE ROCK ALBUM\THE HITS ALBUM - THE ROCK ALBUM - CD4\10.Pat Benatar - Love Is A Battlefield.wav

Peak level 77.6 %
Extraction speed 32.6 X
Track quality 100.0 %
Copy CRC E66628AD
Track not present in AccurateRip database
Copy OK

Track 11

Filename A:\PsPBuRnOuT's MUSIC\ROCK\THE HITS ALBUM - THE ROCK ALBUM\THE HITS ALBUM - THE ROCK ALBUM - CD4\11.Heart - Alone.wav

Peak level 98.8 %
Extraction speed 20.2 X
Track quality 99.9 %
Copy CRC 74424DB5
Track not present in AccurateRip database
Copy OK

Track 12

Filename A:\PsPBuRnOuT's MUSIC\ROCK\THE HITS ALBUM - THE ROCK ALBUM\THE HITS ALBUM - THE ROCK ALBUM - CD4\12.Toto - Rosanna.wav

Peak level 100.0 %
Extraction speed 25.1 X
Track quality 100.0 %
Copy CRC 356B1A97
Track not present in AccurateRip database
Copy OK

Track 13

Filename A:\PsPBuRnOuT's MUSIC\ROCK\THE HITS ALBUM - THE ROCK ALBUM\THE HITS ALBUM - THE ROCK ALBUM - CD4\13.Rick Springfield - Jessie's Girl.wav

Peak level 98.8 %
Extraction speed 32.0 X
Track quality 100.0 %
Copy CRC 45EAE7BF
Track not present in AccurateRip database
Copy OK

Track 14

Filename A:\PsPBuRnOuT's MUSIC\ROCK\THE HITS ALBUM - THE ROCK ALBUM\THE HITS ALBUM - THE ROCK ALBUM - CD4\14.Huey Lewis & The News - The Power Of Love.wav

Peak level 100.0 %
Extraction speed 11.8 X
Track quality 99.7 %
Copy CRC 017A8F45
Track not present in AccurateRip database
Copy OK

Track 15

Filename A:\PsPBuRnOuT's MUSIC\ROCK\THE HITS ALBUM - THE ROCK ALBUM\THE HITS ALBUM - THE ROCK ALBUM - CD4\15.Kenny Loggins - Danger Zone.wav

Peak level 100.0 %
Extraction speed 28.0 X
Track quality 100.0 %
Copy CRC 600A203B
Track not present in AccurateRip database
Copy OK

Track 16

Filename A:\PsPBuRnOuT's MUSIC\ROCK\THE HITS ALBUM - THE ROCK ALBUM\THE HITS ALBUM - THE ROCK ALBUM - CD4\16.Loverboy - Lovin' Every Minute Of It.wav

Peak level 100.0 %
Extraction speed 35.9 X
Track quality 100.0 %
Copy CRC E7FFCDD3
Track not present in AccurateRip database
Copy OK

Track 17

Filename A:\PsPBuRnOuT's MUSIC\ROCK\THE HITS ALBUM - THE ROCK ALBUM\THE HITS ALBUM - THE ROCK ALBUM - CD4\17.The Alarm - Sixty Eight Guns.wav

Peak level 89.1 %
Extraction speed 39.2 X
Track quality 100.0 %
Copy CRC 1E2E58B1
Track not present in AccurateRip database
Copy OK

Track 18

Filename A:\PsPBuRnOuT's MUSIC\ROCK\THE HITS ALBUM - THE ROCK ALBUM\THE HITS ALBUM - THE ROCK ALBUM - CD4\18.John Mellencamp - R.O.C.K. In The U.S.A. (A Salute To 60's Rock).wav

Peak level 83.1 %
Extraction speed 27.7 X
Track quality 99.8 %
Copy CRC 409110DA
Track not present in AccurateRip database
Copy OK

Track 19

Filename A:\PsPBuRnOuT's MUSIC\ROCK\THE HITS ALBUM - THE ROCK ALBUM\THE HITS ALBUM - THE ROCK ALBUM - CD4\19.Reo Speedwagon - Take It On The Run.wav

Peak level 100.0 %
Extraction speed 30.8 X
Track quality 100.0 %
Copy CRC DFF7B567
Track not present in AccurateRip database
Copy OK

Track 20

Filename A:\PsPBuRnOuT's MUSIC\ROCK\THE HITS ALBUM - THE ROCK ALBUM\THE HITS ALBUM - THE ROCK ALBUM - CD4\20.John Farnham - You're The Voice.wav

Peak level 99.5 %
Extraction speed 5.6 X
Track quality 99.4 %
Copy CRC BFAF09E6
Track not present in AccurateRip database
Copy OK


None of the tracks are present in the AccurateRip database

No errors occurred

End of status report

–– CUETools DB Plugin V2.1.6

[CTDB TOCID: NM9alqxFwLBOU6N1Yy4LrZWIWUo-] found
Submit result: NM9alqxFwLBOU6N1Yy4LrZWIWUo- has been uploaded
Track | CTDB Status
1 | (1/1) Accurately ripped
2 | (1/1) Accurately ripped
3 | (1/1) Accurately ripped
4 | (1/1) Accurately ripped
5 | (1/1) Accurately ripped
6 | (1/1) Accurately ripped
7 | (1/1) Accurately ripped
8 | (1/1) Accurately ripped
9 | (0/1) No match
10 | (1/1) Accurately ripped
11 | (1/1) Accurately ripped
12 | (1/1) Accurately ripped
13 | (1/1) Accurately ripped
14 | (1/1) Accurately ripped
15 | (1/1) Accurately ripped
16 | (1/1) Accurately ripped
17 | (1/1) Accurately ripped
18 | (1/1) Accurately ripped
19 | (1/1) Accurately ripped
20 | (0/1) No match