Subcategories
Tags
Language
Tags

VA - The Ultimate Christmas Album, WCBS-FM 101.1, Vol. 5 (2000)

Posted By: Designol
VA - The Ultimate Christmas Album, WCBS-FM 101.1, Vol. 5 (2000)

VA - The Ultimate Christmas Album, WCBS-FM 101.1, Vol. 5 (2000)
25 MORE Great Songs for the 25th of December

EAC | FLAC | Tracks (Cue&Log) ~ 449 Mb | Mp3 (CBR320) ~ 181 Mb | Scans ~ 41 Mb
Label: Collectables Records | # COL-CD-2522 | Time: 01:19:08
Holidays, Pop, Rock, Vocal Pop, R&B

The Ultimate Christmas Album, Vol. 5 collects more pop and rock holiday tunes, this time venturing further into the '70s and '80s with songs like Paul McCartney & Wings' "Wonderful Christmastime," Hall & Oates' "Jingle Bell Rock," and Barry Manilow's "It's Just Another New Year's Eve." The collection still features traditional pop chestnuts, including Dean Martin's "A Marshmallow World," Johnny Mathis' "The Christmas Song (Merry Christmas to You)," and Andy Williams' "Sleigh Ride," but this volume's overall feel is more contemporary than classic. Other highlights include Manhattan Transfer's "A Christmas Love Song," the Waitresses' "Christmas Wrapping," the Tokens' "Little Drummer Boy," and the Jackson 5's "I Saw Mommy Kissing Santa Claus." If The Ultimate Christmas Album, Vol. 5 isn't necessarily the most coherent volume in the series, it's certainly one of the most interesting.

Heather Phares, All Music Guide

Tracklist:

01. Paul McCartney & Wings - A Wonderful Christmas Time (03:46)
02. The Tokens - The Little Drummer Boy (03:32)
03. Elvis Presley - Silver Bells (02:28)
04. Pointer Sisters - Santa Claus Is Coming To Town (03:21)
05. The Vince Guaraldi Trio - Christmas Time Is Here (Vocal Version) (02:45)
06. Johnny Mathis - The Christmas Song (04:17)
07. Hall & Oates - Jingle Bell Rock (02:05)
08. The Shirelles - Blue Holiday (03:20)
09. Andy Williams - Sleigh Ride (02:06)
10. The Manhattan Transfer - A Christmas Love Song (04:07)
11. Harry Belafonte - Mary's Boy Child (03:01)
12. The Waitresses - Christmas Wrapping (05:20)
13. Perry Como - There Is No Christmas Like A Home Christmas (02:47)
14. The Beach Boys - I'll Be Home For Christmas (02:43)
15. The Four Tops - Christmas Delight (03:45)
16. Nat King Cole - Deck The Halls (01:07)
17. Elvis Presley - If Every Day Was Like Christmas (02:54)
18. Bing Crosby (with Carol Richards) - Silver Bells (03:04)
19. The Jackson 5 - I Saw Mommy Kissing Santa Claus (03:00)
20. The Temptations - White Christmas (04:25)
21. Dean Martin - A Marshmallow World (02:47)
22. Gladys Knight & The Pips - Silent Night (02:45)
23. Ray Stevens - Santa Claus Is Watching You (02:18)
24. The Orioles - What Are You Doing New Years Eve? (02:54)
25. Barry Manilow - It's Just Another New Years Eve (04:18)


Exact Audio Copy V1.0 beta 6 from 9. April 2015

EAC extraction logfile from 3. December 2015, 22:03

Various Artists / The Ultimate Christmas Album Volume 5

Used drive : hp DVD-RAM GH82N Adapter: 1 ID: 0

Read mode : Secure
Utilize accurate stream : Yes
Defeat audio cache : Yes
Make use of C2 pointers : No

Read offset correction : 667
Overread into Lead-In and Lead-Out : No
Fill up missing offset samples with silence : Yes
Delete leading and trailing silent blocks : No
Null samples used in CRC calculations : Yes
Used interface : Native Win32 interface for Win NT & 2000
Gap handling : Appended to previous track

Used output format : User Defined Encoder
Selected bitrate : 1024 kBit/s
Quality : High
Add ID3 tag : No
Command line compressor : C:\Program Files (x86)\Exact Audio Copy\Flac\flac.exe
Additional command line options : -8 -V -T "ARTIST=%artist%" -T "TITLE=%title%" -T "ALBUM=%albumtitle%" -T "DATE=%year%" -T "TRACKNUMBER=%tracknr%" -T "TOTALTRACKS=%numtracks%" -T "GENRE=%genre%" -T "ALBUMARTIST=%albumartist%" -T "ALBUM ARTIST=%albumartist%" -T "COMMENT=EAC Secure Mode, Test & Copy, AccurateRip, FLAC -8" %source%


TOC of the extracted CD

Track | Start | Length | Start sector | End sector
––––––––––––––––––––––––––––-
1 | 0:00.00 | 3:46.73 | 0 | 17022
2 | 3:46.73 | 3:32.21 | 17023 | 32943
3 | 7:19.19 | 2:28.16 | 32944 | 44059
4 | 9:47.35 | 3:21.09 | 44060 | 59143
5 | 13:08.44 | 2:45.17 | 59144 | 71535
6 | 15:53.61 | 4:17.74 | 71536 | 90884
7 | 20:11.60 | 2:05.04 | 90885 | 100263
8 | 22:16.64 | 3:20.16 | 100264 | 115279
9 | 25:37.05 | 2:06.70 | 115280 | 124799
10 | 27:44.00 | 4:07.48 | 124800 | 143372
11 | 31:51.48 | 3:01.35 | 143373 | 156982
12 | 34:53.08 | 5:20.32 | 156983 | 181014
13 | 40:13.40 | 2:47.62 | 181015 | 193601
14 | 43:01.27 | 2:43.68 | 193602 | 205894
15 | 45:45.20 | 3:45.51 | 205895 | 222820
16 | 49:30.71 | 1:07.59 | 222821 | 227904
17 | 50:38.55 | 2:54.34 | 227905 | 240988
18 | 53:33.14 | 3:04.00 | 240989 | 254788
19 | 56:37.14 | 3:00.59 | 254789 | 268347
20 | 59:37.73 | 4:25.09 | 268348 | 288231
21 | 64:03.07 | 2:47.52 | 288232 | 300808
22 | 66:50.59 | 2:45.26 | 300809 | 313209
23 | 69:36.10 | 2:18.55 | 313210 | 323614
24 | 71:54.65 | 2:54.65 | 323615 | 336729
25 | 74:49.55 | 4:18.10 | 336730 | 356089


Track 1

Filename C:\EAC\01 - Paul McCartney & Wings - A Wonderful Christmas Time.wav

Pre-gap length 0:00:02.00

Peak level 100.0 %
Extraction speed 1.8 X
Track quality 100.0 %
Test CRC A22CAAD7
Copy CRC A22CAAD7
Accurately ripped (confidence 16) [882A1FE0] (AR v2)
Copy OK

Track 2

Filename C:\EAC\02 - The Tokens - The Little Drummer Boy.wav

Pre-gap length 0:00:02.00

Peak level 100.0 %
Extraction speed 2.0 X
Track quality 100.0 %
Test CRC D9817976
Copy CRC D9817976
Accurately ripped (confidence 15) [B139BDDC] (AR v2)
Copy OK

Track 3

Filename C:\EAC\03 - Elvis Presley - Silver Bells.wav

Pre-gap length 0:00:02.00

Peak level 100.0 %
Extraction speed 1.9 X
Track quality 100.0 %
Test CRC EAC0ADA5
Copy CRC EAC0ADA5
Accurately ripped (confidence 15) [FD584460] (AR v2)
Copy OK

Track 4

Filename C:\EAC\04 - Pointer Sisters - Santa Claus Is Coming To Town.wav

Pre-gap length 0:00:02.00

Peak level 100.0 %
Extraction speed 2.1 X
Track quality 100.0 %
Test CRC 9F5C7816
Copy CRC 9F5C7816
Accurately ripped (confidence 15) [45D1DE8B] (AR v2)
Copy OK

Track 5

Filename C:\EAC\05 - The Vince Guaraldi Trio - Christmas Time Is Here (Vocal Version).wav

Pre-gap length 0:00:02.01

Peak level 100.0 %
Extraction speed 2.1 X
Track quality 100.0 %
Test CRC 5506C8E4
Copy CRC 5506C8E4
Accurately ripped (confidence 15) [633CFC6B] (AR v2)
Copy OK

Track 6

Filename C:\EAC\06 - Johnny Mathis - The Christmas Song.wav

Pre-gap length 0:00:02.00

Peak level 99.9 %
Extraction speed 2.2 X
Track quality 99.9 %
Test CRC 1FEE4150
Copy CRC 1FEE4150
Accurately ripped (confidence 15) [D05E9135] (AR v2)
Copy OK

Track 7

Filename C:\EAC\07 - Hall & Oates - Jingle Bell Rock.wav

Pre-gap length 0:00:02.01

Peak level 97.9 %
Extraction speed 2.2 X
Track quality 100.0 %
Test CRC F6DB19B8
Copy CRC F6DB19B8
Accurately ripped (confidence 15) [CC0707FF] (AR v2)
Copy OK

Track 8

Filename C:\EAC\08 - The Shirelles - Blue Holiday.wav

Pre-gap length 0:00:02.01

Peak level 100.0 %
Extraction speed 2.5 X
Track quality 100.0 %
Test CRC 27D15CE8
Copy CRC 27D15CE8
Accurately ripped (confidence 15) [5E5C1E06] (AR v2)
Copy OK

Track 9

Filename C:\EAC\09 - Andy Williams - Sleigh Ride.wav

Pre-gap length 0:00:02.00

Peak level 100.0 %
Extraction speed 2.4 X
Track quality 100.0 %
Test CRC 34207CC7
Copy CRC 34207CC7
Accurately ripped (confidence 15) [E61D6B98] (AR v2)
Copy OK

Track 10

Filename C:\EAC\10 - The Manhattan Transfer - A Christmas Love Song.wav

Pre-gap length 0:00:02.01

Peak level 100.0 %
Extraction speed 2.4 X
Track quality 99.9 %
Test CRC 9E611577
Copy CRC 9E611577
Accurately ripped (confidence 15) [24ED0813] (AR v2)
Copy OK

Track 11

Filename C:\EAC\11 - Harry Belafonte - Mary's Boy Child.wav

Pre-gap length 0:00:02.01

Peak level 100.0 %
Extraction speed 2.7 X
Track quality 100.0 %
Test CRC 371F7408
Copy CRC 371F7408
Accurately ripped (confidence 15) [DCDE2DAA] (AR v2)
Copy OK

Track 12

Filename C:\EAC\12 - The Waitresses - Christmas Wrapping.wav

Pre-gap length 0:00:02.00

Peak level 94.6 %
Extraction speed 3.1 X
Track quality 100.0 %
Test CRC 3EE3F5B0
Copy CRC 3EE3F5B0
Accurately ripped (confidence 15) [7F9930D9] (AR v2)
Copy OK

Track 13

Filename C:\EAC\13 - Perry Como - There Is No Christmas Like A Home Christmas.wav

Pre-gap length 0:00:02.01

Peak level 100.0 %
Extraction speed 2.8 X
Track quality 100.0 %
Test CRC 037EFE83
Copy CRC 037EFE83
Accurately ripped (confidence 15) [7DD1124E] (AR v2)
Copy OK

Track 14

Filename C:\EAC\14 - The Beach Boys - I'll Be Home For Christmas.wav

Pre-gap length 0:00:02.01

Peak level 100.0 %
Extraction speed 2.9 X
Track quality 100.0 %
Test CRC BC59D915
Copy CRC BC59D915
Accurately ripped (confidence 15) [B3E5E4D0] (AR v2)
Copy OK

Track 15

Filename C:\EAC\15 - The Four Tops - Christmas Delight.wav

Pre-gap length 0:00:02.00

Peak level 98.7 %
Extraction speed 3.2 X
Track quality 100.0 %
Test CRC 75C66934
Copy CRC 75C66934
Accurately ripped (confidence 15) [AF3E55B1] (AR v2)
Copy OK

Track 16

Filename C:\EAC\16 - Nat King Cole - Deck The Halls.wav

Pre-gap length 0:00:02.01

Peak level 100.0 %
Extraction speed 2.4 X
Track quality 100.0 %
Test CRC 0E121F40
Copy CRC 0E121F40
Accurately ripped (confidence 15) [51158F6E] (AR v2)
Copy OK

Track 17

Filename C:\EAC\17 - Elvis Presley - If Every Day Was Like Christmas.wav

Pre-gap length 0:00:02.00

Peak level 100.0 %
Extraction speed 3.2 X
Track quality 100.0 %
Test CRC 1AD6FE5A
Copy CRC 1AD6FE5A
Accurately ripped (confidence 15) [6A95E45B] (AR v2)
Copy OK

Track 18

Filename C:\EAC\18 - Bing Crosby (with Carol Richards) - Silver Bells.wav

Pre-gap length 0:00:02.00

Peak level 100.0 %
Extraction speed 3.3 X
Track quality 100.0 %
Test CRC DAE8E274
Copy CRC DAE8E274
Accurately ripped (confidence 15) [1CBF9D2E] (AR v2)
Copy OK

Track 19

Filename C:\EAC\19 - The Jackson 5 - I Saw Mommy Kissing Santa Claus.wav

Pre-gap length 0:00:02.00

Peak level 100.0 %
Extraction speed 3.2 X
Track quality 100.0 %
Test CRC 9788DA6B
Copy CRC 9788DA6B
Accurately ripped (confidence 15) [4C955EE7] (AR v2)
Copy OK

Track 20

Filename C:\EAC\20 - The Temptations - White Christmas.wav

Pre-gap length 0:00:02.01

Peak level 100.0 %
Extraction speed 3.5 X
Track quality 100.0 %
Test CRC 63DFE26F
Copy CRC 63DFE26F
Accurately ripped (confidence 15) [BA4C5810] (AR v2)
Copy OK

Track 21

Filename C:\EAC\21 - Dean Martin - A Marshmallow World.wav

Pre-gap length 0:00:02.00

Peak level 100.0 %
Extraction speed 3.4 X
Track quality 100.0 %
Test CRC E9B88A3D
Copy CRC E9B88A3D
Accurately ripped (confidence 15) [110CE428] (AR v2)
Copy OK

Track 22

Filename C:\EAC\22 - Gladys Knight & The Pips - Silent Night.wav

Pre-gap length 0:00:02.00

Peak level 100.0 %
Extraction speed 2.9 X
Track quality 99.9 %
Test CRC CD81D3D0
Copy CRC CD81D3D0
Accurately ripped (confidence 15) [7BB712F1] (AR v2)
Copy OK

Track 23

Filename C:\EAC\23 - Ray Stevens - Santa Claus Is Watching You.wav

Pre-gap length 0:00:02.01

Peak level 100.0 %
Extraction speed 3.3 X
Track quality 100.0 %
Test CRC 03D9C29B
Copy CRC 03D9C29B
Accurately ripped (confidence 15) [B30290E8] (AR v2)
Copy OK

Track 24

Filename C:\EAC\24 - The Orioles - What Are You Doing New Years Eve.wav

Pre-gap length 0:00:02.00

Peak level 100.0 %
Extraction speed 3.5 X
Track quality 100.0 %
Test CRC ED902761
Copy CRC ED902761
Accurately ripped (confidence 15) [B2E6BBFD] (AR v2)
Copy OK

Track 25

Filename C:\EAC\25 - Barry Manilow - It's Just Another New Years Eve.wav

Pre-gap length 0:00:02.01

Peak level 100.0 %
Extraction speed 4.0 X
Track quality 100.0 %
Test CRC D793F716
Copy CRC D793F716
Accurately ripped (confidence 14) [5579281D] (AR v2)
Copy OK


All tracks accurately ripped

No errors occurred

End of status report

–– CUETools DB Plugin V2.1.6

[CTDB TOCID: OUHi1memza9sfgno5_QWH.SvXMU-] found
Submit result: OUHi1memza9sfgno5_QWH.SvXMU- has been confirmed
Track | CTDB Status
1 | (11/11) Accurately ripped
2 | (11/11) Accurately ripped
3 | (11/11) Accurately ripped
4 | (11/11) Accurately ripped
5 | (10/11) Accurately ripped
6 | (11/11) Accurately ripped
7 | (11/11) Accurately ripped
8 | (11/11) Accurately ripped
9 | (11/11) Accurately ripped
10 | (11/11) Accurately ripped
11 | (11/11) Accurately ripped
12 | (11/11) Accurately ripped
13 | (11/11) Accurately ripped
14 | (11/11) Accurately ripped
15 | (11/11) Accurately ripped
16 | (11/11) Accurately ripped
17 | (11/11) Accurately ripped
18 | (11/11) Accurately ripped
19 | (11/11) Accurately ripped
20 | (11/11) Accurately ripped
21 | (11/11) Accurately ripped
22 | (11/11) Accurately ripped
23 | (11/11) Accurately ripped
24 | (11/11) Accurately ripped
25 | ( 9/11) Accurately ripped


==== Log checksum F206BFDEECFF36265A2C1D6FC24E79DEE67F228E6189972EC0796D78B0F22CC3 ====

foobar2000 1.2 / Dynamic Range Meter 1.1.1
log date: 2016-12-12 22:29:27

––––––––––––––––––––––––––––––––––––––––
Analyzed: Andy Williams / The Ultimate Christmas Album Volume 5 (1)
Barry Manilow / The Ultimate Christmas Album Volume 5 (2)
Bing Crosby (with Carol Richards) / The Ultimate Christmas Album Volume 5 (3)
Dean Martin / The Ultimate Christmas Album Volume 5 (4)
Elvis Presley / The Ultimate Christmas Album Volume 5 (5-6)
Gladys Knight & The Pips / The Ultimate Christmas Album Volume 5 (7)
Hall & Oates / The Ultimate Christmas Album Volume 5 (8)
Harry Belafonte / The Ultimate Christmas Album Volume 5 (9)
Johnny Mathis / The Ultimate Christmas Album Volume 5 (10)
Nat King Cole / The Ultimate Christmas Album Volume 5 (11)
Paul McCartney & Wings / The Ultimate Christmas Album Volume 5 (12)
Perry Como / The Ultimate Christmas Album Volume 5 (13)
Pointer Sisters / The Ultimate Christmas Album Volume 5 (14)
Ray Stevens / The Ultimate Christmas Album Volume 5 (15)
The Beach Boys / The Ultimate Christmas Album Volume 5 (16)
The Four Tops / The Ultimate Christmas Album Volume 5 (17)
The Jackson 5 / The Ultimate Christmas Album Volume 5 (18)
The Manhattan Transfer / The Ultimate Christmas Album Volume 5 (19)
The Orioles / The Ultimate Christmas Album Volume 5 (20)
The Shirelles / The Ultimate Christmas Album Volume 5 (21)
The Temptations / The Ultimate Christmas Album Volume 5 (22)
The Tokens / The Ultimate Christmas Album Volume 5 (23)
The Vince Guaraldi Trio / The Ultimate Christmas Album Volume 5 (24)
The Waitresses / The Ultimate Christmas Album Volume 5 (25)
––––––––––––––––––––––––––––––––––––––––

DR Peak RMS Duration Track
––––––––––––––––––––––––––––––––––––––––
DR11 0.00 dB -12.77 dB 2:07 09-Sleigh Ride
DR12 0.00 dB -15.39 dB 4:18 25-It's Just Another New Years Eve
DR13 0.00 dB -15.62 dB 3:04 18-Silver Bells
DR9 0.00 dB -11.81 dB 2:48 21-A Marshmallow World
DR12 0.00 dB -14.42 dB 2:28 03-Silver Bells
DR10 0.00 dB -13.19 dB 2:54 17-If Every Day Was Like Christmas
DR10 0.00 dB -13.13 dB 2:45 22-Silent Night
DR12 -0.18 dB -13.35 dB 2:05 07-Jingle Bell Rock
DR10 0.00 dB -13.65 dB 3:01 11-Mary's Boy Child
DR11 0.00 dB -14.71 dB 4:18 06-The Christmas Song
DR11 0.00 dB -12.86 dB 1:08 16-Deck The Halls
DR12 0.00 dB -13.66 dB 3:47 01-A Wonderful Christmas Time
DR11 0.00 dB -13.29 dB 2:48 13-There Is No Christmas Like A Home Christmas
DR13 0.00 dB -15.09 dB 3:21 04-Santa Claus Is Coming To Town
DR10 0.00 dB -11.78 dB 2:19 23-Santa Claus Is Watching You
DR11 0.00 dB -14.12 dB 2:44 14-I'll Be Home For Christmas
DR10 -0.11 dB -11.13 dB 3:46 15-Christmas Delight
DR10 0.00 dB -12.33 dB 3:01 19-I Saw Mommy Kissing Santa Claus
DR11 0.00 dB -14.47 dB 4:08 10-A Christmas Love Song
DR12 0.00 dB -15.69 dB 2:55 24-What Are You Doing New Years Eve?
DR12 0.00 dB -14.92 dB 3:20 08-Blue Holiday
DR14 0.00 dB -17.05 dB 4:25 20-White Christmas
DR12 0.00 dB -14.47 dB 3:32 02-The Little Drummer Boy
DR12 0.00 dB -16.81 dB 2:45 05-Christmas Time Is Here (Vocal Version)
DR13 -0.48 dB -14.76 dB 5:20 12-Christmas Wrapping
––––––––––––––––––––––––––––––––––––––––

Number of tracks: 25
Official DR value: DR11

Samplerate: 44100 Hz
Channels: 2
Bits per sample: 16
Bitrate: 894 kbps
Codec: FLAC
================================================================================

VA - The Ultimate Christmas Album, WCBS-FM 101.1, Vol. 5 (2000)

VA - The Ultimate Christmas Album, WCBS-FM 101.1, Vol. 5 (2000)