Subcategories

VA - Third Noise Principle: Formative North American Electronica 1975-1984 (2019)

Posted By: ciklon5
VA - Third Noise Principle: Formative North American Electronica 1975-1984 (2019)

VA - Third Noise Principle: Formative North American Electronica 1975-1984 (2019)
FLAC tracks +cue+log | 04:41:54 | 1,5 Gb
Genre: Pop, Punk, Electronic, Ambient / Label: Cherry Red Records

THIRD NOISE PRINCIPLE: aka CLOSE TO THE NOISE FLOOR VOLUME 3.The third in our 'Close To The Noise Floor' early electronica series - this time exploring the USA and Canada. Includes legendary artists Suicide, The Residents (a previously unreleased track), Philip Glass, Terry Riley, Patrick Cowley, NON, Laurie Spiegel, Chrome, Ministry, Moev and dozens more. Journey into the origins of electronica in North America - from early techno and electro to synth-pop, industrial music, ambient soundscapes and noise experiments..60 tracks across 4CDs in a 48pp hard-back book format. Over 10,000 words of artists' sleevenotes and introductory essay by Dave Henderson (Sounds/Wild Planet/MOJO)..Packed with previously unreleased tracks, lost gems and underground classics from lesser known artists, experimenters, innovators and outsiders..Part primitive rave, part synthesiser porn, part history lesson!A year in the making, Third Noise Principle reaches out to North America, taking in tracks from key figures on the early US and Canadian electronica underground, alongside releases by ground-breaking innovators, seminal composers and countless lesser known artists.Enthralled by the mysterious synthesiser and inspired by the DIY ethos of punk, a quiet musical revolution took place across the western world in the late 1970s and early 1980s. Inspired by the microchip and affordable electronics, artists for whom guitars, drums and bass had become old hat began to spread their wings and breach the boundaries of sonic experimentation. Some wanted to dance, some to relax and others to confuse and confront - all are represented here.

Track List:
Disc: 1
1. The Devil Makes The Loudest Noise - Tone Set - Tone Set
2. Creators - Data-Bank-A - Data-Bank-A
3. Mambopolis - Richard Bone - Richard Bone
4. Logarithms - Geoffrey Landers - Geoffrey Landers
5. Current Slaughter - Rhythm And Noise - Rhythm and Noise
6. The Metal Benders - Dark Day - Dark Day
7. Push Me, Pull You (Pt 2) - Futurisk - Futurisk
8. Dancing Hairpiece Wears Two Left Shoes - Smegma - Smegma
9. Rocket Usa - Suicide - Suicide
10. Intermission - Lon C. Diehl - Lon C. Diehl
11. First Mutation - Kevin Lazar - Kevin Lazar
12. Am City - Voice Farm - Voice Farm
13. Donkeys Bearing Cups - Craig Leon - Craig Leon
14. I Adore You - German Shepherds - German Shepherds
15. Slabyard - Psyclones - Psyclones

Disc: 2
1. 99 Space Music - The Residents - The Residents
2. Hands Across The Sea (Pt 2) - K7ss - K7SS
3. Archie's Dub - K Leimer - K Leimer
4. Simulation/Stimulation - Hunting Lodge - Hunting Lodge
5. Hello Grieg - Short-Term Memory - Short-Term Memory
6. Be Good - Blackhouse - Blackhouse
7. Ange Des Orages - Philip Glass - Philip Glass
8. Primordial Landscape - Patrick Cowley - Patrick Cowley
9. Mind Over Matter (Demo) - Psyche - Psyche
10. Lowdown - Galen Herod - Galen Herod
11. Max Pale Red - Cyrnai - Cyrnai
12. Mode Of Infection - Non - Non
13. Oleo Strut - Marc Barreca - Marc Barreca
14. Electric Piece - F/I - F/i
15. Drums - Laurie Spiegel - Laurie Spiegel

Disc: 3
1. Across The Lake Of The Ancient Word - Terry Riley - Terry Riley
2. Unwinding - Michael William Gilbert - Michael William Gilbert
3. Mrs Laura - If, Bwana - If, Bwana
4. Inacontact - Chrome - Chrome
5. Slimy Stew And Pussy Gruel (Extract) - Dog As Master - Dog As Master
6. Evening Thoughts - Anode - Anode
7. Xx Committee - Damarc - Damarc
8. Cat Vomit Punk House - Girls On Fire - Girls on Fire
9. United We Fall - Problemist - Problemist
10. 1981-83 Source Mix - Mystery Hearsay - Mystery Hearsay
11. What The Peeper Saw - Smersh - Smersh
12. Catalyze (Subjection To Catalyst) - Boy Dirt Car - Boy Dirt Car
13. Ao 01 âËreagentâ⢠- Architects Office - Architects Office
14. Sad Horror Film - Mental Anguish - Mental Anguish
15. Untitled #3 - Controlled Bleeding - Controlled Bleeding

Disc: 4
1. Geomancy - Joel Graham - Joel Graham
2. Executive Slacks - Thirty Years - Thirty Years
3. Madness - Lou Champagne System - Lou Champagne System
4. Nite And Day (Homage à Cole Porter) - Tuxedomoon - Tuxedomoon
5. Anemone Housing - Factrix - Factrix
6. Womble - Nash The Slash - Nash the Slash
7. Police Story - Sequencer People - Sequencer People
8. Dancing On The Berlin Wall (Demo) - Rational Youth - Rational Youth
9. Untitled - F/I And Boy Dirt Car - F/i and Boy Dirt Car
10. Possibly Winston - Isosceles - Isosceles
11. Worlds - Steve Roach - Steve Roach
12. Ice Floe - Young Scientist - Young Scientist
13. 36a3 - John Bender - John Bender
14. Work For Love (Dub) - Ministry - Ministry
15. Clerk Charade - Moev - Moev

Exact Audio Copy V1.3 from 2. September 2016

EAC extraction logfile from 26. June 2019, 20:21

Various Artists / Third Noise Principle (Formative North American Electronica 1975-1984)

Used drive : TSSTcorpCDDVDW SH-S203N Adapter: 1 ID: 0

Read mode : Secure
Utilize accurate stream : Yes
Defeat audio cache : Yes
Make use of C2 pointers : No

Read offset correction : 6
Overread into Lead-In and Lead-Out : No
Fill up missing offset samples with silence : Yes
Delete leading and trailing silent blocks : No
Null samples used in CRC calculations : Yes
Used interface : Native Win32 interface for Win NT & 2000
Gap handling : Appended to previous track

Used output format : User Defined Encoder
Selected bitrate : 896 kBit/s
Quality : High
Add ID3 tag : No
Command line compressor : C:\Program Files\Exact Audio Copy\Flac\flac.exe
Additional command line options : -8 -V -T "ARTIST=%artist%" -T "TITLE=%title%" -T "ALBUM=%albumtitle%" -T "DATE=%year%" -T "TRACKNUMBER=%tracknr%" -T "GENRE=%genre%" -T "PERFORMER=%albuminterpret%" -T "COMPOSER=%composer%" %haslyrics%–tag-from-file=LYRICS="%lyricsfile%"%haslyrics% -T "ALBUMARTIST=%albumartist%" -T "DISCNUMBER=%cdnumber%" -T "TOTALDISCS=%totalcds%" -T "TOTALTRACKS=%numtracks%" -T "COMMENT=%comment%" %source% -o %dest%


TOC of the extracted CD

Track | Start | Length | Start sector | End sector
––––––––––––––––––––––––––––-
1 | 0:00.00 | 6:52.50 | 0 | 30949
2 | 6:52.50 | 3:57.50 | 30950 | 48774
3 | 10:50.25 | 4:07.32 | 48775 | 67331
4 | 14:57.57 | 3:57.69 | 67332 | 85175
5 | 18:55.51 | 3:28.16 | 85176 | 100791
6 | 22:23.67 | 2:49.26 | 100792 | 113492
7 | 25:13.18 | 2:22.22 | 113493 | 124164
8 | 27:35.40 | 3:04.25 | 124165 | 137989
9 | 30:39.65 | 4:16.10 | 137990 | 157199
10 | 34:56.00 | 4:49.54 | 157200 | 178928
11 | 39:45.54 | 6:34.57 | 178929 | 208535
12 | 46:20.36 | 2:51.58 | 208536 | 221418
13 | 49:12.19 | 6:22.17 | 221419 | 250085
14 | 55:34.36 | 4:00.05 | 250086 | 268090
15 | 59:34.41 | 6:40.57 | 268091 | 298147


Track 1

Filename D:\My Rips\Various Artists - Third Noise Principle - Formative North American Electronica 1975-1984 [FLAC]\CD1\01 - Tone Set - The Devil Makes The Loudest Noise.wav

Pre-gap length 0:00:02.00

Peak level 97.4 %
Extraction speed 1.7 X
Track quality 99.9 %
Test CRC ECA41DE0
Copy CRC ECA41DE0
Accurately ripped (confidence 4) [6B273224] (AR v2)
Copy OK

Track 2

Filename D:\My Rips\Various Artists - Third Noise Principle - Formative North American Electronica 1975-1984 [FLAC]\CD1\02 - Data-Bank-A - Creators.wav

Pre-gap length 0:00:02.76

Peak level 97.4 %
Extraction speed 2.0 X
Track quality 100.0 %
Test CRC 860E0003
Copy CRC 860E0003
Accurately ripped (confidence 4) [7FAC9302] (AR v2)
Copy OK

Track 3

Filename D:\My Rips\Various Artists - Third Noise Principle - Formative North American Electronica 1975-1984 [FLAC]\CD1\03 - Richard Bone - Mambopolis.wav

Pre-gap length 0:00:01.84

Peak level 94.1 %
Extraction speed 2.1 X
Track quality 100.0 %
Test CRC 462DA75D
Copy CRC 462DA75D
Accurately ripped (confidence 4) [F2B583CA] (AR v2)
Copy OK

Track 4

Filename D:\My Rips\Various Artists - Third Noise Principle - Formative North American Electronica 1975-1984 [FLAC]\CD1\04 - Geoffrey Landers - Logarithms.wav

Pre-gap length 0:00:01.56

Peak level 94.4 %
Extraction speed 2.3 X
Track quality 100.0 %
Test CRC B0A60EE8
Copy CRC B0A60EE8
Accurately ripped (confidence 4) [466EDD9A] (AR v2)
Copy OK

Track 5

Filename D:\My Rips\Various Artists - Third Noise Principle - Formative North American Electronica 1975-1984 [FLAC]\CD1\05 - Rhythm & Noise - Current Slaughter.wav

Pre-gap length 0:00:00.86

Peak level 97.4 %
Extraction speed 2.3 X
Track quality 100.0 %
Test CRC 967DA1F7
Copy CRC 967DA1F7
Accurately ripped (confidence 4) [8679940A] (AR v2)
Copy OK

Track 6

Filename D:\My Rips\Various Artists - Third Noise Principle - Formative North American Electronica 1975-1984 [FLAC]\CD1\06 - Dark Day - The Metal Benders.wav

Pre-gap length 0:00:01.38

Peak level 89.0 %
Extraction speed 2.3 X
Track quality 100.0 %
Test CRC CF37FD7E
Copy CRC CF37FD7E
Accurately ripped (confidence 4) [B05C7636] (AR v2)
Copy OK

Track 7

Filename D:\My Rips\Various Artists - Third Noise Principle - Formative North American Electronica 1975-1984 [FLAC]\CD1\07 - Futurisk - Push Me, Pull You (Pt. 2).wav

Pre-gap length 0:00:02.40

Peak level 92.8 %
Extraction speed 2.3 X
Track quality 100.0 %
Test CRC C4A33031
Copy CRC C4A33031
Accurately ripped (confidence 4) [76A33E83] (AR v2)
Copy OK

Track 8

Filename D:\My Rips\Various Artists - Third Noise Principle - Formative North American Electronica 1975-1984 [FLAC]\CD1\08 - Smegma - Dancing Hairpiece Wears Two Left Shoes.wav

Pre-gap length 0:00:02.70

Peak level 87.0 %
Extraction speed 2.6 X
Track quality 100.0 %
Test CRC B2CD80E7
Copy CRC B2CD80E7
Accurately ripped (confidence 4) [4AC07E4A] (AR v2)
Copy OK

Track 9

Filename D:\My Rips\Various Artists - Third Noise Principle - Formative North American Electronica 1975-1984 [FLAC]\CD1\09 - Suicide - Rocket USA.wav

Pre-gap length 0:00:01.94

Peak level 97.4 %
Extraction speed 2.7 X
Track quality 100.0 %
Test CRC D7F105B7
Copy CRC D7F105B7
Accurately ripped (confidence 4) [ED5EBB4D] (AR v2)
Copy OK

Track 10

Filename D:\My Rips\Various Artists - Third Noise Principle - Formative North American Electronica 1975-1984 [FLAC]\CD1\10 - Lon C. Diehl - Intermission- ''Pop''.wav

Pre-gap length 0:00:01.89

Peak level 97.4 %
Extraction speed 2.9 X
Track quality 100.0 %
Test CRC E16B2D93
Copy CRC E16B2D93
Accurately ripped (confidence 4) [4D81C462] (AR v2)
Copy OK

Track 11

Filename D:\My Rips\Various Artists - Third Noise Principle - Formative North American Electronica 1975-1984 [FLAC]\CD1\11 - Kevin Lazar - First Mutation.wav

Pre-gap length 0:00:01.17

Peak level 65.1 %
Extraction speed 2.7 X
Track quality 99.9 %
Test CRC AB1C17F0
Copy CRC AB1C17F0
Accurately ripped (confidence 4) [51C72806] (AR v2)
Copy OK

Track 12

Filename D:\My Rips\Various Artists - Third Noise Principle - Formative North American Electronica 1975-1984 [FLAC]\CD1\12 - Voice Farm - AM City.wav

Pre-gap length 0:00:03.00

Peak level 79.7 %
Extraction speed 3.0 X
Track quality 100.0 %
Test CRC CC0F93A0
Copy CRC CC0F93A0
Accurately ripped (confidence 4) [3B1D9771] (AR v2)
Copy OK

Track 13

Filename D:\My Rips\Various Artists - Third Noise Principle - Formative North American Electronica 1975-1984 [FLAC]\CD1\13 - Craig Leon - Donkeys Bearing Cups.wav

Pre-gap length 0:00:01.61

Peak level 97.4 %
Extraction speed 3.4 X
Track quality 100.0 %
Test CRC C209102F
Copy CRC C209102F
Accurately ripped (confidence 4) [878E7590] (AR v2)
Copy OK

Track 14

Filename D:\My Rips\Various Artists - Third Noise Principle - Formative North American Electronica 1975-1984 [FLAC]\CD1\14 - German Shepherds - I Adore You.wav

Pre-gap length 0:00:02.73

Peak level 97.4 %
Extraction speed 3.3 X
Track quality 100.0 %
Test CRC BF749F2C
Copy CRC BF749F2C
Accurately ripped (confidence 4) [0ABADFDB] (AR v2)
Copy OK

Track 15

Filename D:\My Rips\Various Artists - Third Noise Principle - Formative North American Electronica 1975-1984 [FLAC]\CD1\15 - Psyclones - SlabYard.wav

Pre-gap length 0:00:02.61

Peak level 97.4 %
Extraction speed 3.6 X
Track quality 100.0 %
Test CRC BD879805
Copy CRC BD879805
Accurately ripped (confidence 4) [6C502C69] (AR v2)
Copy OK


All tracks accurately ripped

No errors occurred

End of status report

–– CUETools DB Plugin V2.1.6

[CTDB TOCID: 0BHmMnjkFm1hdB5dFfIZKSbCl0s-] found
Submit result: 0BHmMnjkFm1hdB5dFfIZKSbCl0s- has been confirmed
Track | CTDB Status
1 | (11/11) Accurately ripped
2 | (11/11) Accurately ripped
3 | (11/11) Accurately ripped
4 | (11/11) Accurately ripped
5 | (11/11) Accurately ripped
6 | (11/11) Accurately ripped
7 | (11/11) Accurately ripped
8 | (11/11) Accurately ripped
9 | (11/11) Accurately ripped
10 | (11/11) Accurately ripped
11 | (11/11) Accurately ripped
12 | (11/11) Accurately ripped
13 | (11/11) Accurately ripped
14 | (10/11) Accurately ripped
15 | (10/11) Accurately ripped


==== Log checksum 62A78574BE66868BD99FE8510AE25370388AD1AAA632E70AF9BEE36DA7BEA4AB ====

Exact Audio Copy V1.3 from 2. September 2016

EAC extraction logfile from 26. June 2019, 20:59

Various Artists / Third Noise Principle - Formative North American Electronica 1975-1984

Used drive : TSSTcorpCDDVDW SH-S203N Adapter: 1 ID: 0

Read mode : Secure
Utilize accurate stream : Yes
Defeat audio cache : Yes
Make use of C2 pointers : No

Read offset correction : 6
Overread into Lead-In and Lead-Out : No
Fill up missing offset samples with silence : Yes
Delete leading and trailing silent blocks : No
Null samples used in CRC calculations : Yes
Used interface : Native Win32 interface for Win NT & 2000
Gap handling : Appended to previous track

Used output format : User Defined Encoder
Selected bitrate : 896 kBit/s
Quality : High
Add ID3 tag : No
Command line compressor : C:\Program Files\Exact Audio Copy\Flac\flac.exe
Additional command line options : -8 -V -T "ARTIST=%artist%" -T "TITLE=%title%" -T "ALBUM=%albumtitle%" -T "DATE=%year%" -T "TRACKNUMBER=%tracknr%" -T "GENRE=%genre%" -T "PERFORMER=%albuminterpret%" -T "COMPOSER=%composer%" %haslyrics%–tag-from-file=LYRICS="%lyricsfile%"%haslyrics% -T "ALBUMARTIST=%albumartist%" -T "DISCNUMBER=%cdnumber%" -T "TOTALDISCS=%totalcds%" -T "TOTALTRACKS=%numtracks%" -T "COMMENT=%comment%" %source% -o %dest%


TOC of the extracted CD

Track | Start | Length | Start sector | End sector
––––––––––––––––––––––––––––-
1 | 0:00.00 | 5:42.34 | 0 | 25683
2 | 5:42.34 | 4:20.39 | 25684 | 45222
3 | 10:02.73 | 3:33.06 | 45223 | 61203
4 | 13:36.04 | 6:10.61 | 61204 | 89014
5 | 19:46.65 | 6:19.03 | 89015 | 117442
6 | 26:05.68 | 5:31.28 | 117443 | 142295
7 | 31:37.21 | 3:42.48 | 142296 | 158993
8 | 35:19.69 | 10:46.29 | 158994 | 207472
9 | 46:06.23 | 3:32.27 | 207473 | 223399
10 | 49:38.50 | 3:44.28 | 223400 | 240227
11 | 53:23.03 | 1:50.41 | 240228 | 248518
12 | 55:13.44 | 2:14.31 | 248519 | 258599
13 | 57:28.00 | 3:26.63 | 258600 | 274112
14 | 60:54.63 | 2:41.49 | 274113 | 286236
15 | 63:36.37 | 7:08.42 | 286237 | 318378


Track 1

Filename D:\My Rips\Various Artists - Third Noise Principle - Formative North American Electronica 1975-1984 [FLAC]\CD2\01 - The Residents - 99 Space Music.wav

Pre-gap length 0:00:02.00

Peak level 97.4 %
Extraction speed 4.6 X
Track quality 100.0 %
Test CRC 1B4BD332
Copy CRC 1B4BD332
Accurately ripped (confidence 4) [94CF54BF] (AR v2)
Copy OK

Track 2

Filename D:\My Rips\Various Artists - Third Noise Principle - Formative North American Electronica 1975-1984 [FLAC]\CD2\02 - K7SS - Hands Across The Sea (Pt. 2).wav

Pre-gap length 0:00:00.26

Peak level 97.4 %
Extraction speed 5.0 X
Track quality 100.0 %
Test CRC FB3BA5EA
Copy CRC FB3BA5EA
Accurately ripped (confidence 4) [78A0B1F8] (AR v2)
Copy OK

Track 3

Filename D:\My Rips\Various Artists - Third Noise Principle - Formative North American Electronica 1975-1984 [FLAC]\CD2\03 - K. Leimer - Archie's Dub.wav

Pre-gap length 0:00:02.36

Peak level 97.3 %
Extraction speed 5.2 X
Track quality 100.0 %
Test CRC FB0EEA29
Copy CRC FB0EEA29
Accurately ripped (confidence 4) [A9BCB003] (AR v2)
Copy OK

Track 4

Filename D:\My Rips\Various Artists - Third Noise Principle - Formative North American Electronica 1975-1984 [FLAC]\CD2\04 - Hunting Lodge - Simulation,Stimulation.wav

Pre-gap length 0:00:01.50

Peak level 97.4 %
Extraction speed 5.2 X
Track quality 99.9 %
Test CRC B9DC8E4C
Copy CRC B9DC8E4C
Accurately ripped (confidence 4) [575668CB] (AR v2)
Copy OK

Track 5

Filename D:\My Rips\Various Artists - Third Noise Principle - Formative North American Electronica 1975-1984 [FLAC]\CD2\05 - Short-Term Memory - Hello Greg.wav

Pre-gap length 0:00:00.78

Peak level 97.4 %
Extraction speed 6.5 X
Track quality 100.0 %
Test CRC 5365B719
Copy CRC 5365B719
Accurately ripped (confidence 4) [4FB379A0] (AR v2)
Copy OK

Track 6

Filename D:\My Rips\Various Artists - Third Noise Principle - Formative North American Electronica 1975-1984 [FLAC]\CD2\06 - Blackhouse - Be Good.wav

Pre-gap length 0:00:00.57

Peak level 80.4 %
Extraction speed 6.8 X
Track quality 100.0 %
Test CRC EDE5A55F
Copy CRC EDE5A55F
Accurately ripped (confidence 4) [FF6A8266] (AR v2)
Copy OK

Track 7

Filename D:\My Rips\Various Artists - Third Noise Principle - Formative North American Electronica 1975-1984 [FLAC]\CD2\07 - Philip Glass - Ange Des Orages.wav

Pre-gap length 0:00:02.52

Peak level 97.4 %
Extraction speed 6.7 X
Track quality 100.0 %
Test CRC CCFB09CD
Copy CRC CCFB09CD
Accurately ripped (confidence 4) [86A15365] (AR v2)
Copy OK

Track 8

Filename D:\My Rips\Various Artists - Third Noise Principle - Formative North American Electronica 1975-1984 [FLAC]\CD2\08 - Patrick Coleman - Primordial Landscape.wav

Pre-gap length 0:00:01.78

Peak level 97.4 %
Extraction speed 7.2 X
Track quality 99.9 %
Test CRC A5E778AF
Copy CRC A5E778AF
Accurately ripped (confidence 4) [CE3AC2D2] (AR v2)
Copy OK

Track 9

Filename D:\My Rips\Various Artists - Third Noise Principle - Formative North American Electronica 1975-1984 [FLAC]\CD2\09 - Psyche - Mind Over Matter (Demo).wav

Pre-gap length 0:00:01.86

Peak level 97.4 %
Extraction speed 7.5 X
Track quality 100.0 %
Test CRC 1300049B
Copy CRC 1300049B
Accurately ripped (confidence 4) [7625943D] (AR v2)
Copy OK

Track 10

Filename D:\My Rips\Various Artists - Third Noise Principle - Formative North American Electronica 1975-1984 [FLAC]\CD2\10 - Galen Herod - Lowdown.wav

Pre-gap length 0:00:01.80

Peak level 97.4 %
Extraction speed 7.8 X
Track quality 100.0 %
Test CRC 8F08571B
Copy CRC 8F08571B
Accurately ripped (confidence 4) [B7D6EF2A] (AR v2)
Copy OK

Track 11

Filename D:\My Rips\Various Artists - Third Noise Principle - Formative North American Electronica 1975-1984 [FLAC]\CD2\11 - Cyrnai - Max Pale Red.wav

Pre-gap length 0:00:01.89

Peak level 97.4 %
Extraction speed 4.3 X
Track quality 99.9 %
Test CRC 4E1D9AF9
Copy CRC 4E1D9AF9
Accurately ripped (confidence 4) [65D1C187] (AR v2)
Copy OK

Track 12

Filename D:\My Rips\Various Artists - Third Noise Principle - Formative North American Electronica 1975-1984 [FLAC]\CD2\12 - NON - Mode Of Infection.wav

Pre-gap length 0:00:02.65

Peak level 97.4 %
Extraction speed 4.9 X
Track quality 99.9 %
Test CRC 25D5B600
Copy CRC 25D5B600
Accurately ripped (confidence 4) [4F188C5C] (AR v2)
Copy OK

Track 13

Filename D:\My Rips\Various Artists - Third Noise Principle - Formative North American Electronica 1975-1984 [FLAC]\CD2\13 - Marc Barreca - Oleo Strut.wav

Pre-gap length 0:00:02.69

Peak level 97.4 %
Extraction speed 6.2 X
Track quality 99.9 %
Test CRC 6CAB6507
Copy CRC 6CAB6507
Accurately ripped (confidence 4) [00CAB0E1] (AR v2)
Copy OK

Track 14

Filename D:\My Rips\Various Artists - Third Noise Principle - Formative North American Electronica 1975-1984 [FLAC]\CD2\14 - F,i - Electric Piece.wav

Pre-gap length 0:00:02.81

Peak level 97.4 %
Extraction speed 5.7 X
Track quality 99.9 %
Test CRC 56704A20
Copy CRC 56704A20
Accurately ripped (confidence 4) [95BCD0CE] (AR v2)
Copy OK

Track 15

Filename D:\My Rips\Various Artists - Third Noise Principle - Formative North American Electronica 1975-1984 [FLAC]\CD2\15 - Laurie Spiegel - Drums.wav

Pre-gap length 0:00:02.40

Peak level 97.0 %
Extraction speed 9.0 X
Track quality 100.0 %
Test CRC 24BE3E17
Copy CRC 24BE3E17
Accurately ripped (confidence 4) [FDDB837E] (AR v2)
Copy OK


All tracks accurately ripped

No errors occurred

End of status report

–– CUETools DB Plugin V2.1.6

[CTDB TOCID: N2abDMTHkwE6zxzY8kYd1.CD5FM-] found
Submit result: N2abDMTHkwE6zxzY8kYd1.CD5FM- has been confirmed
Track | CTDB Status
1 | (10/10) Accurately ripped
2 | (10/10) Accurately ripped
3 | (10/10) Accurately ripped
4 | (10/10) Accurately ripped
5 | (10/10) Accurately ripped
6 | (10/10) Accurately ripped
7 | (10/10) Accurately ripped
8 | (10/10) Accurately ripped
9 | (10/10) Accurately ripped
10 | (10/10) Accurately ripped
11 | (10/10) Accurately ripped
12 | (10/10) Accurately ripped
13 | (10/10) Accurately ripped
14 | (10/10) Accurately ripped
15 | (10/10) Accurately ripped


==== Log checksum C0628BF89E909BABAAA83DACE40F6DE7A76F4244B1A09E5422E8A0D19ABCFE16 ====

Exact Audio Copy V1.3 from 2. September 2016

EAC extraction logfile from 27. June 2019, 23:17

Various Artists / Third Noise Principle - Formative North American Electronica 1975-1984

Used drive : TSSTcorpCDDVDW SH-S203N Adapter: 1 ID: 0

Read mode : Secure
Utilize accurate stream : Yes
Defeat audio cache : Yes
Make use of C2 pointers : No

Read offset correction : 6
Overread into Lead-In and Lead-Out : No
Fill up missing offset samples with silence : Yes
Delete leading and trailing silent blocks : No
Null samples used in CRC calculations : Yes
Used interface : Native Win32 interface for Win NT & 2000
Gap handling : Appended to previous track

Used output format : User Defined Encoder
Selected bitrate : 896 kBit/s
Quality : High
Add ID3 tag : No
Command line compressor : C:\Program Files\Exact Audio Copy\Flac\flac.exe
Additional command line options : -8 -V -T "ARTIST=%artist%" -T "TITLE=%title%" -T "ALBUM=%albumtitle%" -T "DATE=%year%" -T "TRACKNUMBER=%tracknr%" -T "GENRE=%genre%" -T "PERFORMER=%albuminterpret%" -T "COMPOSER=%composer%" %haslyrics%–tag-from-file=LYRICS="%lyricsfile%"%haslyrics% -T "ALBUMARTIST=%albumartist%" -T "DISCNUMBER=%cdnumber%" -T "TOTALDISCS=%totalcds%" -T "TOTALTRACKS=%numtracks%" -T "COMMENT=%comment%" %source% -o %dest%


TOC of the extracted CD

Track | Start | Length | Start sector | End sector
––––––––––––––––––––––––––––-
1 | 0:00.00 | 7:28.43 | 0 | 33642
2 | 7:28.43 | 6:21.04 | 33643 | 62221
3 | 13:49.47 | 3:37.04 | 62222 | 78500
4 | 17:26.51 | 5:17.28 | 78501 | 102303
5 | 22:44.04 | 4:25.41 | 102304 | 122219
6 | 27:09.45 | 8:48.13 | 122220 | 161832
7 | 35:57.58 | 4:27.25 | 161833 | 181882
8 | 40:25.08 | 3:47.69 | 181883 | 198976
9 | 44:13.02 | 2:56.25 | 198977 | 212201
10 | 47:09.27 | 5:11.06 | 212202 | 235532
11 | 52:20.33 | 7:24.25 | 235533 | 268857
12 | 59:44.58 | 4:02.25 | 268858 | 287032
13 | 63:47.08 | 4:08.23 | 287033 | 305655
14 | 67:55.31 | 4:32.55 | 305656 | 326110
15 | 72:28.11 | 3:32.73 | 326111 | 342083


Track 1

Filename D:\My Rips\Various Artists - Third Noise Principle - Formative North American Electronica 1975-1984 [FLAC]\CD3\01 - Terry Riley - Across The Lake Of The Ancient World.wav

Pre-gap length 0:00:02.00

Peak level 88.7 %
Extraction speed 2.0 X
Track quality 100.0 %
Test CRC 5A5F5157
Copy CRC 5A5F5157
Accurately ripped (confidence 4) [BDAB5ADA] (AR v2)
Copy OK

Track 2

Filename D:\My Rips\Various Artists - Third Noise Principle - Formative North American Electronica 1975-1984 [FLAC]\CD3\02 - Michael William Gilbert - Unwinding.wav

Pre-gap length 0:00:00.13

Peak level 97.4 %
Extraction speed 2.3 X
Track quality 100.0 %
Test CRC 3FC23634
Copy CRC 3FC23634
Accurately ripped (confidence 4) [AF97288C] (AR v2)
Copy OK

Track 3

Filename D:\My Rips\Various Artists - Third Noise Principle - Formative North American Electronica 1975-1984 [FLAC]\CD3\03 - If, Bwana - Mrs Laura.wav

Pre-gap length 0:00:00.93

Peak level 70.5 %
Extraction speed 2.3 X
Track quality 100.0 %
Test CRC 6B52FB83
Copy CRC 6B52FB83
Accurately ripped (confidence 4) [6C74AC08] (AR v2)
Copy OK

Track 4

Filename D:\My Rips\Various Artists - Third Noise Principle - Formative North American Electronica 1975-1984 [FLAC]\CD3\04 - Chrome - Inacontact.wav

Pre-gap length 0:00:01.24

Peak level 97.4 %
Extraction speed 2.3 X
Track quality 99.9 %
Test CRC 6EF5F241
Copy CRC 6EF5F241
Accurately ripped (confidence 4) [9685F71D] (AR v2)
Copy OK

Track 5

Filename D:\My Rips\Various Artists - Third Noise Principle - Formative North American Electronica 1975-1984 [FLAC]\CD3\05 - Dog As Master - Slimy Stew And Pussy Gruel (Extract).wav

Pre-gap length 0:00:02.00

Peak level 97.4 %
Extraction speed 2.7 X
Track quality 100.0 %
Test CRC 7CF07C7B
Copy CRC 7CF07C7B
Accurately ripped (confidence 4) [433B8874] (AR v2)
Copy OK

Track 6

Filename D:\My Rips\Various Artists - Third Noise Principle - Formative North American Electronica 1975-1984 [FLAC]\CD3\06 - Anode - Evening Thoughts.wav

Pre-gap length 0:00:00.57

Peak level 97.4 %
Extraction speed 2.8 X
Track quality 99.9 %
Test CRC DB94225A
Copy CRC DB94225A
Accurately ripped (confidence 4) [D399BB1B] (AR v2)
Copy OK

Track 7

Filename D:\My Rips\Various Artists - Third Noise Principle - Formative North American Electronica 1975-1984 [FLAC]\CD3\07 - XX Committee - Damarc.wav

Pre-gap length 0:00:00.26

Peak level 96.2 %
Extraction speed 3.1 X
Track quality 100.0 %
Test CRC 217094C7
Copy CRC 217094C7
Accurately ripped (confidence 4) [638C8EE3] (AR v2)
Copy OK

Track 8

Filename D:\My Rips\Various Artists - Third Noise Principle - Formative North American Electronica 1975-1984 [FLAC]\CD3\08 - Girls On Fire - Cat Vomit Punk House.wav

Pre-gap length 0:00:01.00

Peak level 62.2 %
Extraction speed 3.1 X
Track quality 100.0 %
Test CRC 540FF77D
Copy CRC 540FF77D
Accurately ripped (confidence 4) [A93B7BF6] (AR v2)
Copy OK

Track 9

Filename D:\My Rips\Various Artists - Third Noise Principle - Formative North American Electronica 1975-1984 [FLAC]\CD3\09 - Problemist - United We Fall.wav

Pre-gap length 0:00:01.56

Peak level 97.4 %
Extraction speed 3.1 X
Track quality 100.0 %
Test CRC FB86DDA3
Copy CRC FB86DDA3
Accurately ripped (confidence 4) [D60DB74F] (AR v2)
Copy OK

Track 10

Filename D:\My Rips\Various Artists - Third Noise Principle - Formative North American Electronica 1975-1984 [FLAC]\CD3\10 - Mystery Hearsay - 1981-83 Source Mix.wav

Pre-gap length 0:00:02.68

Peak level 97.4 %
Extraction speed 2.8 X
Track quality 99.9 %
Test CRC 7916891C
Copy CRC 7916891C
Accurately ripped (confidence 4) [0588DD36] (AR v2)
Copy OK

Track 11

Filename D:\My Rips\Various Artists - Third Noise Principle - Formative North American Electronica 1975-1984 [FLAC]\CD3\11 - Smersh - What The Peeper Saw.wav

Pre-gap length 0:00:01.38

Peak level 97.4 %
Extraction speed 3.8 X
Track quality 100.0 %
Test CRC DDB64757
Copy CRC DDB64757
Accurately ripped (confidence 4) [0A0F441A] (AR v2)
Copy OK

Track 12

Filename D:\My Rips\Various Artists - Third Noise Principle - Formative North American Electronica 1975-1984 [FLAC]\CD3\12 - Boy Dirt Car - Catalyze (Subjection To Catalyst).wav

Pre-gap length 0:00:01.52

Peak level 97.4 %
Extraction speed 2.7 X
Track quality 99.9 %
Test CRC 64CA644E
Copy CRC 64CA644E
Accurately ripped (confidence 4) [382385D2] (AR v2)
Copy OK

Track 13

Filename D:\My Rips\Various Artists - Third Noise Principle - Formative North American Electronica 1975-1984 [FLAC]\CD3\13 - Architects Office - AO 01 'Reagent'.wav

Pre-gap length 0:00:01.82

Peak level 97.4 %
Extraction speed 2.7 X
Track quality 99.9 %
Test CRC E0888951
Copy CRC E0888951
Accurately ripped (confidence 4) [7C20578C] (AR v2)
Copy OK

Track 14

Filename D:\My Rips\Various Artists - Third Noise Principle - Formative North American Electronica 1975-1984 [FLAC]\CD3\14 - Mental Anguish - Sad Horror Film.wav

Pre-gap length 0:00:02.81

Peak level 89.1 %
Extraction speed 3.8 X
Track quality 100.0 %
Test CRC 9587F8CA
Copy CRC 9587F8CA
Accurately ripped (confidence 4) [5F86B1B2] (AR v2)
Copy OK

Track 15

Filename D:\My Rips\Various Artists - Third Noise Principle - Formative North American Electronica 1975-1984 [FLAC]\CD3\15 - Controlled Bleeding - Untitled #3.wav

Pre-gap length 0:00:01.37

Peak level 56.5 %
Extraction speed 3.8 X
Track quality 100.0 %
Test CRC 3AD99A85
Copy CRC 3AD99A85
Accurately ripped (confidence 4) [08E0BBF7] (AR v2)
Copy OK


All tracks accurately ripped

No errors occurred

End of status report

–– CUETools DB Plugin V2.1.6

[CTDB TOCID: ikLRqzURBtD5Oymrh.X0u6rh70M-] found
Submit result: ikLRqzURBtD5Oymrh.X0u6rh70M- has been confirmed
Track | CTDB Status
1 | (10/10) Accurately ripped
2 | (10/10) Accurately ripped
3 | (10/10) Accurately ripped
4 | (10/10) Accurately ripped
5 | (10/10) Accurately ripped
6 | (10/10) Accurately ripped
7 | (10/10) Accurately ripped
8 | (10/10) Accurately ripped
9 | (10/10) Accurately ripped
10 | (10/10) Accurately ripped
11 | (10/10) Accurately ripped
12 | (10/10) Accurately ripped
13 | (10/10) Accurately ripped
14 | (10/10) Accurately ripped
15 | (10/10) Accurately ripped


==== Log checksum 07502A0E93CBC0410AFDD176FEF4DA381807E96DB8B2BE824AFF85A473D6E2B7 ====

Exact Audio Copy V1.3 from 2. September 2016

EAC extraction logfile from 28. June 2019, 20:10

Various Artists / Third Noise Principle - Formative North American Electronica 1975-1984

Used drive : TSSTcorpCDDVDW SH-S203N Adapter: 1 ID: 0

Read mode : Secure
Utilize accurate stream : Yes
Defeat audio cache : Yes
Make use of C2 pointers : No

Read offset correction : 6
Overread into Lead-In and Lead-Out : No
Fill up missing offset samples with silence : Yes
Delete leading and trailing silent blocks : No
Null samples used in CRC calculations : Yes
Used interface : Native Win32 interface for Win NT & 2000
Gap handling : Appended to previous track

Used output format : User Defined Encoder
Selected bitrate : 896 kBit/s
Quality : High
Add ID3 tag : No
Command line compressor : C:\Program Files\Exact Audio Copy\Flac\flac.exe
Additional command line options : -8 -V -T "ARTIST=%artist%" -T "TITLE=%title%" -T "ALBUM=%albumtitle%" -T "DATE=%year%" -T "TRACKNUMBER=%tracknr%" -T "GENRE=%genre%" -T "PERFORMER=%albuminterpret%" -T "COMPOSER=%composer%" %haslyrics%–tag-from-file=LYRICS="%lyricsfile%"%haslyrics% -T "ALBUMARTIST=%albumartist%" -T "DISCNUMBER=%cdnumber%" -T "TOTALDISCS=%totalcds%" -T "TOTALTRACKS=%numtracks%" -T "COMMENT=%comment%" %source% -o %dest%


TOC of the extracted CD

Track | Start | Length | Start sector | End sector
––––––––––––––––––––––––––––-
1 | 0:00.00 | 6:43.49 | 0 | 30273
2 | 6:43.49 | 3:31.48 | 30274 | 46146
3 | 10:15.22 | 3:32.52 | 46147 | 62098
4 | 13:47.74 | 5:10.06 | 62099 | 85354
5 | 18:58.05 | 2:22.07 | 85355 | 96011
6 | 21:20.12 | 6:57.61 | 96012 | 127347
7 | 28:17.73 | 2:52.37 | 127348 | 140284
8 | 31:10.35 | 3:11.45 | 140285 | 154654
9 | 34:22.05 | 2:12.13 | 154655 | 164567
10 | 36:34.18 | 4:33.20 | 164568 | 185062
11 | 41:07.38 | 3:17.53 | 185063 | 199890
12 | 44:25.16 | 7:53.31 | 199891 | 235396
13 | 52:18.47 | 5:05.12 | 235397 | 258283
14 | 57:23.59 | 6:13.07 | 258284 | 286265
15 | 63:36.66 | 5:42.56 | 286266 | 311971


Track 1

Filename D:\My Rips\Various Artists - Third Noise Principle - Formative North American Electronica 1975-1984 [FLAC]\CD4\01 - Joel Graham - Geomancy.wav

Pre-gap length 0:00:02.00

Peak level 94.7 %
Extraction speed 1.8 X
Track quality 100.0 %
Test CRC 8AF3B0A3
Copy CRC 8AF3B0A3
Accurately ripped (confidence 4) [58CA53A0] (AR v2)
Copy OK

Track 2

Filename D:\My Rips\Various Artists - Third Noise Principle - Formative North American Electronica 1975-1984 [FLAC]\CD4\02 - Executive Slacks - Thirty Years.wav

Pre-gap length 0:00:00.12

Peak level 97.4 %
Extraction speed 1.9 X
Track quality 100.0 %
Test CRC 07C120EF
Copy CRC 07C120EF
Accurately ripped (confidence 4) [505BAF4F] (AR v2)
Copy OK

Track 3

Filename D:\My Rips\Various Artists - Third Noise Principle - Formative North American Electronica 1975-1984 [FLAC]\CD4\03 - Lou Champagne System - Madness.wav

Pre-gap length 0:00:02.28

Peak level 97.4 %
Extraction speed 2.1 X
Track quality 100.0 %
Test CRC 80DFFC18
Copy CRC 80DFFC18
Accurately ripped (confidence 4) [6FA725BF] (AR v2)
Copy OK

Track 4

Filename D:\My Rips\Various Artists - Third Noise Principle - Formative North American Electronica 1975-1984 [FLAC]\CD4\04 - Tuxedomoon - Nite And Day (Homage À Cole Porter).wav

Pre-gap length 0:00:01.53

Peak level 97.4 %
Extraction speed 2.0 X
Track quality 99.9 %
Test CRC DDC4F56A
Copy CRC DDC4F56A
Accurately ripped (confidence 4) [AF6589B4] (AR v2)
Copy OK

Track 5

Filename D:\My Rips\Various Artists - Third Noise Principle - Formative North American Electronica 1975-1984 [FLAC]\CD4\05 - Factrix - Anemone Housing.wav

Pre-gap length 0:00:00.36

Peak level 95.2 %
Extraction speed 1.7 X
Track quality 99.9 %
Test CRC B07F4802
Copy CRC B07F4802
Accurately ripped (confidence 4) [12B463A2] (AR v2)
Copy OK

Track 6

Filename D:\My Rips\Various Artists - Third Noise Principle - Formative North American Electronica 1975-1984 [FLAC]\CD4\06 - Nash The Slash - Womble (45rpm Version).wav

Pre-gap length 0:00:01.48

Peak level 92.6 %
Extraction speed 2.7 X
Track quality 100.0 %
Test CRC 2A499A80
Copy CRC 2A499A80
Accurately ripped (confidence 4) [44BA5A4B] (AR v2)
Copy OK

Track 7

Filename D:\My Rips\Various Artists - Third Noise Principle - Formative North American Electronica 1975-1984 [FLAC]\CD4\07 - Sequencer People - Police Story.wav

Pre-gap length 0:00:01.66

Peak level 97.4 %
Extraction speed 2.5 X
Track quality 100.0 %
Test CRC 52549317
Copy CRC 52549317
Accurately ripped (confidence 4) [5FE6E0D2] (AR v2)
Copy OK

Track 8

Filename D:\My Rips\Various Artists - Third Noise Principle - Formative North American Electronica 1975-1984 [FLAC]\CD4\08 - Rational Youth - Dancing On The Berlin Wall (Demo).wav

Pre-gap length 0:00:01.61

Peak level 97.4 %
Extraction speed 2.7 X
Track quality 100.0 %
Test CRC F7129C7C
Copy CRC F7129C7C
Accurately ripped (confidence 4) [D86CC7C0] (AR v2)
Copy OK

Track 9

Filename D:\My Rips\Various Artists - Third Noise Principle - Formative North American Electronica 1975-1984 [FLAC]\CD4\09 - F,i And Boy Dirt Car - Untitled.wav

Pre-gap length 0:00:02.56

Peak level 97.4 %
Extraction speed 2.5 X
Track quality 100.0 %
Test CRC 9CA819B9
Copy CRC 9CA819B9
Accurately ripped (confidence 4) [1ED824C9] (AR v2)
Copy OK

Track 10

Filename D:\My Rips\Various Artists - Third Noise Principle - Formative North American Electronica 1975-1984 [FLAC]\CD4\10 - Isosceles - Possibly Winston.wav

Pre-gap length 0:00:01.73

Peak level 87.5 %
Extraction speed 2.9 X
Track quality 100.0 %
Test CRC 2BFF4FCB
Copy CRC 2BFF4FCB
Accurately ripped (confidence 4) [93E22009] (AR v2)
Copy OK

Track 11

Filename D:\My Rips\Various Artists - Third Noise Principle - Formative North American Electronica 1975-1984 [FLAC]\CD4\11 - Steve Roach - Worlds.wav

Pre-gap length 0:00:00.01

Peak level 97.4 %
Extraction speed 2.9 X
Track quality 100.0 %
Test CRC 11831977
Copy CRC 11831977
Accurately ripped (confidence 4) [0C263E2E] (AR v2)
Copy OK

Track 12

Filename D:\My Rips\Various Artists - Third Noise Principle - Formative North American Electronica 1975-1984 [FLAC]\CD4\12 - Young Scientist - Ice Floe.wav

Pre-gap length 0:00:01.33

Peak level 91.3 %
Extraction speed 2.9 X
Track quality 99.9 %
Test CRC 45079321
Copy CRC 45079321
Accurately ripped (confidence 4) [F0C96722] (AR v2)
Copy OK

Track 13

Filename D:\My Rips\Various Artists - Third Noise Principle - Formative North American Electronica 1975-1984 [FLAC]\CD4\13 - John Bender - 36A3.wav

Pre-gap length 0:00:02.02

Peak level 97.4 %
Extraction speed 3.4 X
Track quality 100.0 %
Test CRC 105544C5
Copy CRC 105544C5
Accurately ripped (confidence 4) [9E45495A] (AR v2)
Copy OK

Track 14

Filename D:\My Rips\Various Artists - Third Noise Principle - Formative North American Electronica 1975-1984 [FLAC]\CD4\14 - Ministry - Work For Love (Dub).wav

Pre-gap length 0:00:00.94

Peak level 97.4 %
Extraction speed 3.6 X
Track quality 100.0 %
Test CRC A033A4B8
Copy CRC A033A4B8
Accurately ripped (confidence 4) [40D840E7] (AR v2)
Copy OK

Track 15

Filename D:\My Rips\Various Artists - Third Noise Principle - Formative North American Electronica 1975-1984 [FLAC]\CD4\15 - Moev - Clerk Charade.wav

Pre-gap length 0:00:02.04

Peak level 97.4 %
Extraction speed 3.7 X
Track quality 100.0 %
Test CRC 9C220BEF
Copy CRC 9C220BEF
Accurately ripped (confidence 3) [8EE4F79A] (AR v2)
Copy OK


All tracks accurately ripped

No errors occurred

End of status report

–– CUETools DB Plugin V2.1.6

[CTDB TOCID: EjULQlrnTQvTEShWHMa7_D1OUOo-] found
Submit result: EjULQlrnTQvTEShWHMa7_D1OUOo- has been confirmed
Track | CTDB Status
1 | (9/9) Accurately ripped
2 | (9/9) Accurately ripped
3 | (9/9) Accurately ripped
4 | (9/9) Accurately ripped
5 | (9/9) Accurately ripped
6 | (9/9) Accurately ripped
7 | (9/9) Accurately ripped
8 | (9/9) Accurately ripped
9 | (9/9) Accurately ripped
10 | (9/9) Accurately ripped
11 | (9/9) Accurately ripped
12 | (9/9) Accurately ripped
13 | (9/9) Accurately ripped
14 | (9/9) Accurately ripped
15 | (9/9) Accurately ripped


==== Log checksum 1E94A096C7C2BC7568827CFDB0FFCEFC8824978ABC3EB61EAD80180BC1FB5739 ====