Subcategories

VA - Too Marvelous: A Collection Of Jazz Classics (2001)

Posted By: Designol
VA - Too Marvelous: A Collection Of Jazz Classics (2001)

VA - Too Marvelous: A Collection Of Jazz Classics (2001)
EAC | FLAC | Image (Cue&Log) ~ 352 Mb | Mp3 (CBR320) ~ 160 Mb | Scans included | 00:59:04
Vocal Jazz, Mainstream Jazz, Cool, Bop | Label: Hear Music | # 314520769-2

A Collection Of Jazz Classics. 13 Tracks. Billy Holiday, Jimmy Smith, Dizzy Gillespie, Ella Fitzgerald, Nina Simone, Louis Armstrong, Stan Getz, Gene Ammons, Mose Allison, John Coltrane, Charles Mingus, Oscar Peterson Trio, Coleman Hawkins & Ben Webster.

Tracklist:

01. Billie Holiday - A Fine Romance (3:34)
02. Jimmy Smith - The Sermon (7:41)
03. Coleman Hawkins & Ben Webster - It Never Entered My Mind (5:48)
04. Stan Getz - Samba Triste (4:46)
05. Louis Armstrong - I Gotta Right To Sing The Blues (3:55)
06. Nina Simone - Love Me or Leave Me (4:05)
07. Charles Mingus - Memories of You (4:37)
08. Gene Ammons - Canadian Sunset (5:24)
09. Ella Fitzgerald - Don't Be That Way (3:48)
10. John Coltrane - Dear Lord (5:36)
11. Mose Allison - The Seventh Son (2:38)
12. Oscar Peterson Trio - Have You Met Miss Jones (4:12)
13. Dizzy Gillespie - This Lovely Feeling (3:00)


Exact Audio Copy V1.0 beta 3 from 29. August 2011

Отчёт EAC об извлечении, выполненном 5. октября 2011, 20:55

Various Artists / Too Marvelous (A Collection of Jazz Favorites)

Дисковод: Optiarc DVD RW AD-7263S Adapter: 1 ID: 0

Режим чтения : Достоверность
Использование точного потока : Да
Отключение кэша аудио : Да
Использование указателей C2 : Нет

Коррекция смещения при чтении : 48
Способность читать области Lead-in и Lead-out : Нет
Заполнение пропущенных сэмплов тишиной : Да
Удаление блоков с тишиной в начале и конце : Нет
При вычислениях CRC использовались нулевые сэмплы : Да
Интерфейс : Встроенный Win32-интерфейс для Win NT/2000

Выходной формат : Пользовательский кодировщик
Выбранный битрейт : 128 kBit/s
Качество : Высокий
Добавление ID3-тега : Нет
Утилита сжатия : C:\Program Files\Exact Audio Copy\FLAC\FLAC.EXE
Дополнительные параметры : -V -8 -T "Date=%year%" -T "Genre=%genre%" %source%


TOC извлечённого CD

Трек | Старт | Длительность | Начальный сектор | Конечный сектор
––––––––––––––––––––––––––––––––––-
1 | 0:00.00 | 3:33.40 | 0 | 16014
2 | 3:33.40 | 7:41.07 | 16015 | 50596
3 | 11:14.47 | 5:48.30 | 50597 | 76726
4 | 17:03.02 | 4:45.70 | 76727 | 98171
5 | 21:48.72 | 3:55.00 | 98172 | 115796
6 | 25:43.72 | 4:04.65 | 115797 | 134161
7 | 29:48.62 | 4:36.48 | 134162 | 154909
8 | 34:25.35 | 5:23.65 | 154910 | 179199
9 | 39:49.25 | 3:48.25 | 179200 | 196324
10 | 43:37.50 | 5:35.40 | 196325 | 221489
11 | 49:13.15 | 2:38.35 | 221490 | 233374
12 | 51:51.50 | 4:12.32 | 233375 | 252306
13 | 56:04.07 | 3:00.20 | 252307 | 265826


Характеристики диапазона извлечения и сообщения об ошибках

Выбранный диапазон

Имя файла C:\Various Artists - Too Marvelous (A Collection of Jazz Favorites).wav

Пиковый уровень 98.9 %
Скорость извлечения 4.0 X
Качество диапазона 100.0 %
CRC теста DBAAFCE9
CRC копии DBAAFCE9
Копирование… OK

Ошибок не произошло


AccurateRip: сводка

Трек 1 : извлечено точно (доверие 7) [B4C3226E] (AR v1)
Трек 2 : извлечено точно (доверие 7) [1A6D4138] (AR v1)
Трек 3 : извлечено точно (доверие 7) [04272E8F] (AR v1)
Трек 4 : извлечено точно (доверие 7) [1A6208EB] (AR v1)
Трек 5 : извлечено точно (доверие 7) [1EA9E3D0] (AR v1)
Трек 6 : извлечено точно (доверие 7) [4C49A965] (AR v1)
Трек 7 : извлечено точно (доверие 7) [46945828] (AR v1)
Трек 8 : извлечено точно (доверие 7) [50D95BA8] (AR v1)
Трек 9 : извлечено точно (доверие 7) [3075F899] (AR v1)
Трек 10 : извлечено точно (доверие 7) [5E5ABA9B] (AR v1)
Трек 11 : извлечено точно (доверие 7) [F34A368B] (AR v1)
Трек 12 : извлечено точно (доверие 7) [21138EB1] (AR v1)
Трек 13 : извлечено точно (доверие 7) [92A19E4D] (AR v1)

Все треки извлечены точно

Конец отчёта

–– CUETools DB Plugin V2.1.3

[CTDB TOCID: o2HYBPI_wDivSnaiEQSHCJrbtvc-] disk not present in database, Submit result: o2HYBPI_wDivSnaiEQSHCJrbtvc- has been uploaded


==== Контрольная сумма отчёта 69FF044D2CB13D95176808D3AAE9BEAEAE16FC3DB81FCA9A0C8022E601ECF8BF ====

[CUETools log; Date: 27.06.2018 1:28:47; Version: 2.1.4]
[CTDB TOCID: o2HYBPI_wDivSnaiEQSHCJrbtvc-] found.
Track | CTDB Status
1 | (18/18) Accurately ripped
2 | (18/18) Accurately ripped
3 | (18/18) Accurately ripped
4 | (18/18) Accurately ripped
5 | (18/18) Accurately ripped
6 | (18/18) Accurately ripped
7 | (18/18) Accurately ripped
8 | (18/18) Accurately ripped
9 | (18/18) Accurately ripped
10 | (18/18) Accurately ripped
11 | (18/18) Accurately ripped
12 | (18/18) Accurately ripped
13 | (18/18) Accurately ripped
[AccurateRip ID: 001e7098-012c212f-a90dd80d] found.
Track [ CRC | V2 ] Status
01 [b4c3226e|51cc3348] (08+13/21) Accurately ripped
02 [1a6d4138|410db33b] (08+13/21) Accurately ripped
03 [04272e8f|7a7efb55] (08+13/21) Accurately ripped
04 [1a6208eb|a99e61a7] (08+13/21) Accurately ripped
05 [1ea9e3d0|21f6bf9d] (08+13/21) Accurately ripped
06 [4c49a965|52bc52f1] (08+13/21) Accurately ripped
07 [46945828|73fdc4da] (08+13/21) Accurately ripped
08 [50d95ba8|e0ea81b7] (08+13/21) Accurately ripped
09 [3075f899|c9ccb9bb] (08+13/21) Accurately ripped
10 [5e5aba9b|6b3eb518] (08+13/21) Accurately ripped
11 [f34a368b|66b0dab8] (08+13/21) Accurately ripped
12 [21138eb1|99fc8dc3] (07+13/20) Accurately ripped
13 [92a19e4d|cd230fe3] (08+12/20) Accurately ripped

Track Peak [ CRC32 ] [W/O NULL] [ LOG ]
– 98,9 [DBAAFCE9] [7522F5BB] CRC32
01 80,1 [F3DEF525] [BCCB448A]
02 67,6 [A0558D10] [709FF233]
03 88,0 [A264FBE8] [17FFF7FB]
04 88,1 [21435EE0] [BF4EBE78]
05 74,9 [11AB31BA] [E2EE5850]
06 67,6 [4784B6BD] [06A563CC]
07 78,4 [DD72A595] [07B0FAF9]
08 74,2 [11D638F3] [22013745]
09 95,4 [917FAAFB] [6A592CD3]
10 74,9 [9F3A3795] [B2A8BD46]
11 66,3 [696EE084] [ED16AC54]
12 74,9 [2D66CEB4] [0203CC69]
13 98,9 [879244DD] [99E46B55]

foobar2000 1.2 / Dynamic Range Meter 1.1.1
log date: 2018-06-27 00:38:31

––––––––––––––––––––––––––––––––––––––––
Analyzed: Billie Holiday / Too Marvelous (A Collection of Jazz Favorites) (1)
Charles Mingus / Too Marvelous (A Collection of Jazz Favorites) (2)
––––––––––––––––––––––––––––––––––––––––

DR Peak RMS Duration Track
––––––––––––––––––––––––––––––––––––––––
DR15 -1.92 dB -20.06 dB 3:34 01-A Fine Romance
DR13 -2.10 dB -18.45 dB 4:37 07-Memories of You
––––––––––––––––––––––––––––––––––––––––

Number of tracks: 2
Official DR value: DR14

Samplerate: 44100 Hz
Channels: 2
Bits per sample: 16
Bitrate: 775 kbps
Codec: FLAC
================================================================================

––––––––––––––––––––––––––––––––––––––––
Analyzed: Coleman Hawkins & Ben Webster / Too Marvelous (A Collection of Jazz Favorites) (1)
Dizzy Gillespie / Too Marvelous (A Collection of Jazz Favorites) (2)
––––––––––––––––––––––––––––––––––––––––

DR Peak RMS Duration Track
––––––––––––––––––––––––––––––––––––––––
DR13 -1.11 dB -18.22 dB 5:48 03-It Never Entered My Mind
DR11 -0.10 dB -18.04 dB 3:00 13-This Lovely Feeling
––––––––––––––––––––––––––––––––––––––––

Number of tracks: 2
Official DR value: DR12

Samplerate: 44100 Hz
Channels: 2
Bits per sample: 16
Bitrate: 775 kbps
Codec: FLAC
================================================================================

––––––––––––––––––––––––––––––––––––––––
Statistics for: 09-Don't Be That Way
Number of samples: 10069500
Duration: 3:48
––––––––––––––––––––––––––––––––––––––––

Left Right

Peak Value: -2.51 dB –- -0.41 dB
Avg RMS: -19.28 dB –- -17.64 dB
DR channel: 13.92 dB –- 13.65 dB
––––––––––––––––––––––––––––––––––––––––

Official DR Value: DR14

Samplerate: 44100 Hz
Channels: 2
Bits per sample: 16
Bitrate: 775 kbps
Codec: FLAC
================================================================================
––––––––––––––––––––––––––––––––––––––––
Statistics for: 08-Canadian Sunset
Number of samples: 14282520
Duration: 5:24
––––––––––––––––––––––––––––––––––––––––

Left Right

Peak Value: -2.59 dB –- -3.06 dB
Avg RMS: -20.04 dB –- -23.92 dB
DR channel: 14.66 dB –- 17.57 dB
––––––––––––––––––––––––––––––––––––––––

Official DR Value: DR16

Samplerate: 44100 Hz
Channels: 2
Bits per sample: 16
Bitrate: 775 kbps
Codec: FLAC
================================================================================
––––––––––––––––––––––––––––––––––––––––
Analyzed: Jimmy Smith / Too Marvelous (A Collection of Jazz Favorites) (1)
John Coltrane / Too Marvelous (A Collection of Jazz Favorites) (2)
––––––––––––––––––––––––––––––––––––––––

DR Peak RMS Duration Track
––––––––––––––––––––––––––––––––––––––––
DR11 -3.40 dB -18.54 dB 7:41 02-The Sermon
DR12 -2.50 dB -18.28 dB 5:36 10-Dear Lord
––––––––––––––––––––––––––––––––––––––––

Number of tracks: 2
Official DR value: DR12

Samplerate: 44100 Hz
Channels: 2
Bits per sample: 16
Bitrate: 775 kbps
Codec: FLAC
================================================================================

––––––––––––––––––––––––––––––––––––––––
Analyzed: Louis Armstrong / Too Marvelous (A Collection of Jazz Favorites) (1)
Mose Allison / Too Marvelous (A Collection of Jazz Favorites) (2)
––––––––––––––––––––––––––––––––––––––––

DR Peak RMS Duration Track
––––––––––––––––––––––––––––––––––––––––
DR13 -2.50 dB -18.62 dB 3:55 05-I Gotta Right To Sing The Blues
DR13 -3.56 dB -18.34 dB 2:38 11-The Seventh Son
––––––––––––––––––––––––––––––––––––––––

Number of tracks: 2
Official DR value: DR13

Samplerate: 44100 Hz
Channels: 2
Bits per sample: 16
Bitrate: 775 kbps
Codec: FLAC
================================================================================

––––––––––––––––––––––––––––––––––––––––
Analyzed: Nina Simone / Too Marvelous (A Collection of Jazz Favorites) (1)
Oscar Peterson Trio / Too Marvelous (A Collection of Jazz Favorites) (2)
––––––––––––––––––––––––––––––––––––––––

DR Peak RMS Duration Track
––––––––––––––––––––––––––––––––––––––––
DR12 -3.40 dB -17.41 dB 4:05 06-Love Me or Leave Me
DR15 -2.50 dB -21.99 dB 4:12 12-Have You Met Miss Jones
––––––––––––––––––––––––––––––––––––––––

Number of tracks: 2
Official DR value: DR13

Samplerate: 44100 Hz
Channels: 2
Bits per sample: 16
Bitrate: 775 kbps
Codec: FLAC
================================================================================

––––––––––––––––––––––––––––––––––––––––
Statistics for: 04-Samba Triste
Number of samples: 12609660
Duration: 4:46
––––––––––––––––––––––––––––––––––––––––

Left Right

Peak Value: -1.10 dB –- -1.24 dB
Avg RMS: -17.10 dB –- -22.22 dB
DR channel: 13.25 dB –- 14.06 dB
––––––––––––––––––––––––––––––––––––––––

Official DR Value: DR14

Samplerate: 44100 Hz
Channels: 2
Bits per sample: 16
Bitrate: 775 kbps
Codec: FLAC
================================================================================

VA - Too Marvelous: A Collection Of Jazz Classics (2001)

VA - Too Marvelous: A Collection Of Jazz Classics (2001)

All thanks to original releaser - arveranda

More interesting music in My Blog