Subcategories

VA - Tibet: Musique Sacrees (1989)

Posted By: Designol
VA - Tibet: Musique Sacrees (1989)

VA - Tibet: Musique Sacrees (1989)
EAC | FLAC | Tracks (Cue&Log) ~ 317 Mb | Mp3 (CBR320) ~ 191 Mb | Scans included
World Music, Tibetan Traditions | Label: Ocora Radio France | # C559011 | Time: 01:13:06

This album was recorded in Nepal at Tibetan Buddhist monasteries of the Gelugpa and Nyingmapa sects. Most of the cuts are Gelugpa, including part of the Chäd – a cleansing ritual. Other sections include the assembly call (with conch horns), prayer wheel, prostration rites, and more. A second group of tracks includes a ritual to Vajrayogini – a major female deity in Tibetan Buddhist practice. Various ritual instruments (thigh-bone trumpets, hand drums, cymbals, oboes, etc.) are heard.

Review by Michael Erlewine, Allmusic.com

VA - Tibet: Musique Sacrees (1989)


Tracklist:

01. Cérémonie d'Offrande (18:44)
02. Appel de Conques (02:07)
03. Moulin A prieres (01:44)
04. Cérémonie de Prosternation (03:33)
05. Cérémonie de Benediction (07:35)
06. Mani-Rimdu Cérémonie de Bienvenue (08:12)
07. Mani-Rimdu Procession et Rol-Cham (10:03)
08. Rituel en l honeur de la venerable Yoghini de Diamant (07:01)
09. Rituel en l honeur de la venerable Yoghini de Diamant (Suite et Fin) (14:03)


Exact Audio Copy V1.0 beta 1 from 15. November 2010

EAC extraction logfile from 13. December 2010, 14:57

Tibetan Monks / Tibet: Musique Sacrees

Used drive : TSSTcorpCDDVDW SH-S223L Adapter: 3 ID: 1

Read mode : Secure
Utilize accurate stream : Yes
Defeat audio cache : Yes
Make use of C2 pointers : No

Read offset correction : 6
Overread into Lead-In and Lead-Out : No
Fill up missing offset samples with silence : Yes
Delete leading and trailing silent blocks : No
Null samples used in CRC calculations : Yes
Used interface : Native Win32 interface for Win NT & 2000
Gap handling : Appended to previous track

Used output format : User Defined Encoder
Selected bitrate : 768 kBit/s
Quality : High
Add ID3 tag : No
Command line compressor : C:\Program Files (x86)\Exact Audio Copy\FLAC\FLAC.EXE
Additional command line options : -8 -V -T "ARTIST=%a" -T "TITLE=%t" -T "ALBUM=%g" -T "DATE=%y" -T "TRACKNUMBER=%n" -T "TOTALTRACKS=%x" -T "GENRE=%m" -T "ALBUMARTIST=%v" -T "ALBUM ARTIST=%v" -T "COMMENT=EAC Secure Mode, Test & Copy, AccurateRip, FLAC -8" %s


TOC of the extracted CD

Track | Start | Length | Start sector | End sector
––––––––––––––––––––––––––––-
1 | 0:00.00 | 18:44.38 | 0 | 84337
2 | 18:44.38 | 2:07.67 | 84338 | 93929
3 | 20:52.30 | 1:44.48 | 93930 | 101777
4 | 22:37.03 | 3:33.17 | 101778 | 117769
5 | 26:10.20 | 7:35.50 | 117770 | 151944
6 | 33:45.70 | 8:12.15 | 151945 | 188859
7 | 41:58.10 | 10:03.05 | 188860 | 234089
8 | 52:01.15 | 7:01.20 | 234090 | 265684
9 | 59:02.35 | 14:03.50 | 265685 | 328959


Track 1

Filename D:\EACRips\Tibet - Musiques Sacrees (1989) [FLAC]\01 - Ceremonie d offrande.wav

Pre-gap length 0:00:02.00

Peak level 59.0 %
Extraction speed 6.4 X
Track quality 100.0 %
Test CRC 1D131A9F
Copy CRC 1D131A9F
Track not present in AccurateRip database
Copy OK

Track 2

Filename D:\EACRips\Tibet - Musiques Sacrees (1989) [FLAC]\02 - Appel de Conques.wav

Pre-gap length 0:00:05.60

Peak level 45.5 %
Extraction speed 5.9 X
Track quality 100.0 %
Test CRC 9A1A176C
Copy CRC 9A1A176C
Track not present in AccurateRip database
Copy OK

Track 3

Filename D:\EACRips\Tibet - Musiques Sacrees (1989) [FLAC]\03 - Moulin a prieres.wav

Pre-gap length 0:00:01.65

Peak level 46.9 %
Extraction speed 5.8 X
Track quality 100.0 %
Test CRC B679D702
Copy CRC B679D702
Track not present in AccurateRip database
Copy OK

Track 4

Filename D:\EACRips\Tibet - Musiques Sacrees (1989) [FLAC]\04 - Ceremonie de Prosternation.wav

Pre-gap length 0:00:02.23

Peak level 57.5 %
Extraction speed 6.9 X
Track quality 100.0 %
Test CRC 26545237
Copy CRC 26545237
Track not present in AccurateRip database
Copy OK

Track 5

Filename D:\EACRips\Tibet - Musiques Sacrees (1989) [FLAC]\05 - Ceremonie de Benediction.wav

Pre-gap length 0:00:00.42

Peak level 56.5 %
Extraction speed 8.0 X
Track quality 100.0 %
Test CRC E1D70B6E
Copy CRC E1D70B6E
Track not present in AccurateRip database
Copy OK

Track 6

Filename D:\EACRips\Tibet - Musiques Sacrees (1989) [FLAC]\06 - Mani-Rimdu Ceremonie de bienvenue.wav

Pre-gap length 0:00:01.30

Peak level 55.5 %
Extraction speed 8.7 X
Track quality 100.0 %
Test CRC 8C5A0FCC
Copy CRC 8C5A0FCC
Track not present in AccurateRip database
Copy OK

Track 7

Filename D:\EACRips\Tibet - Musiques Sacrees (1989) [FLAC]\07 - Mani-Rimdu Procession et Rol-Cham.wav

Pre-gap length 0:00:01.40

Peak level 64.9 %
Extraction speed 9.4 X
Track quality 100.0 %
Test CRC 4C57F32E
Copy CRC 4C57F32E
Track not present in AccurateRip database
Copy OK

Track 8

Filename D:\EACRips\Tibet - Musiques Sacrees (1989) [FLAC]\08 - Rituel en l honeur de la venerable Yoghini de diamant.wav

Pre-gap length 0:00:02.67

Peak level 48.9 %
Extraction speed 9.7 X
Track quality 100.0 %
Test CRC 78614F54
Copy CRC 78614F54
Track not present in AccurateRip database
Copy OK

Track 9

Filename D:\EACRips\Tibet - Musiques Sacrees (1989) [FLAC]\09 - Rituel en l honeur de la venerable Yoghini de diamant (suite et fin).wav

Pre-gap length 0:00:01.37

Peak level 47.4 %
Extraction speed 10.7 X
Track quality 100.0 %
Test CRC D09FD8D2
Copy CRC D09FD8D2
Track not present in AccurateRip database
Copy OK


None of the tracks are present in the AccurateRip database

No errors occurred

End of status report

==== Log checksum 8CDA2B6E0508F54054D75D040F0E8238A1F4C9F34E801E51ACEA5659CD30C89F ====

foobar2000 1.2 / Dynamic Range Meter 1.1.1
log date: 2015-09-23 00:22:04

––––––––––––––––––––––––––––––––––––––––
Analyzed: Tibetan Monks / Tibet: Musique Sacrees
––––––––––––––––––––––––––––––––––––––––

DR Peak RMS Duration Track
––––––––––––––––––––––––––––––––––––––––
DR13 -4.58 dB -19.83 dB 18:45 01-Ceremonie d offrande
DR9 -6.84 dB -20.54 dB 2:08 02-Appel de Conques
DR16 -6.57 dB -27.73 dB 1:45 03-Moulin a prieres
DR13 -4.80 dB -23.77 dB 3:33 04-Ceremonie de Prosternation
DR13 -4.95 dB -22.18 dB 7:36 05-Ceremonie de Benediction
DR11 -5.10 dB -19.80 dB 8:12 06-Mani-Rimdu Ceremonie de bienvenue
DR12 -3.75 dB -19.59 dB 10:03 07-Mani-Rimdu Procession et Rol-Cham
DR14 -6.20 dB -24.01 dB 7:01 08-Rituel en l honeur de la venerable Yoghini de diamant
DR12 -6.47 dB -22.18 dB 14:04 09-Rituel en l honeur de la venerable Yoghini de diamant (suite et fin)
––––––––––––––––––––––––––––––––––––––––

Number of tracks: 9
Official DR value: DR12

Samplerate: 44100 Hz
Channels: 2
Bits per sample: 16
Bitrate: 551 kbps
Codec: FLAC
================================================================================

VA - Tibet: Musique Sacrees (1989)

VA - Tibet: Musique Sacrees (1989)

All thanks to original releaser - Mirtuk

More interesting music in My Blog