Tags
Language
Tags

V.A. - Soul Tenors: Milestones Of Jazz Legends (1957-1962) [10CD Box Set] (2020)

Posted By: gribovar
V.A. - Soul Tenors: Milestones Of Jazz Legends (1957-1962) [10CD Box Set] (2020)

V.A. - Soul Tenors: Milestones Of Jazz Legends (1957-1962) [10CD Box Set] (2020)
EAC Rip | FLAC (image+.cue+log) - 4,43 GB | MP3 CBR 320 kbps (LAME 3.93) - 1,75 GB | Covers - 27 MB
Genre: Jazz, Hard Bop, Soul Jazz, Bop, Mainstream Jazz, R&B | RAR 3% Rec. | Label: Documents/The Intense Media (600559)

20 Original albums on 10 CDs! King Curtis, Illinois Jacquet, Gene Ammons, Shirley Scott, Eddie "Lockjaw" Davis, Roland Kirk and more!
The tenor sax was to Rhythm & Blues-hits of the 40s and 50s, what the guitar went on to become to RocknRoll. Put on an R&B-single from that era and you will most likely hear a tenor sax break or solo. Eventually, the tenor players stepped out to make records under their own name. These Soul Tenors were expressing themselves by honkin, shoutin, riffin, riding high on a single note or barking out a guttural howl, as Ted Gioia described it in The History of Jazz, all the while, carrying the moan in their tone, according to Cannonball Adderley. These masters, whose own instrumentals were hits in the jukeboxes from Harlem to South Central and all across the South, played Soul Jazz of the highest order melodic, expressive, straight from the heart. On into the 60s and 70s, when it came to emotions that simply couldnt be expressed with words, artists from Ray Charles via Aretha to John Lennon called on tenor sax players like David Fathead Newman or King Curtis. This unique 10-box-set presents some of the greatest original LPs of the genre. They are milestones by the above mentioned legends of the genre, plus Gene Ammons, Teddy Edwards, Illinois Jacquet, Budd Johnson, Jimmy Forrest, Oliver Nelson, Stanley Turrentine, Arnett Cobb, Eddie Lockjaw Davis, Willis Jackson, Roland Kirk and Sam "The Man" Taylor. The album titles already tell a good part of the story, from Country Soul via Swings The Thing on to Hip Soul or simply Funky.

V.A. - Soul Tenors: Milestones Of Jazz Legends (1957-1962) [10CD Box Set] (2020)

CD 1: King Curtis - The New Scene Of King Curtis (1960) & Country Soul (1962)
EAC Rip | FLAC (image+.cue+log) - 440 MB | MP3 CBR 320 kbps (LAME 3.93) - 161 MB
Genre: Jazz, Hard Bop, Soul Jazz, R&B | RAR 3% Rec. | Label: Documents/The Intense Media (600559 / A)

Tracklist:

King Curtis - The New Scene Of King Curtis (1960):
01. Da-Duh-Dah
02. Have You Heard?
03. Willow Weep For Me
04. Little Brother Soul
05. In A Funky Groove

King Curtis - Country Soul (1962):
06. Brown Eyes
07. I'm Movin On
08. Tumbling Tumbleweeds
09. Walking The Floor Over You
10. Your Cheatin' Heart
11. Night Train To Memphis
12. Tennessee Waltz
13. Any Time
14. Home On The Range
15. Raunchy
16. Wagon Wheels
17. High Noon

Total time: 01:08:32

Exact Audio Copy V1.3 from 2. September 2016

EAC extraction logfile from 11. April 2021, 11:02

Various Artists / CD1 - The New Scene Of King Curtis & Country Soul

Used drive : TSSTcorpCDDVDW SH-224FB Adapter: 1 ID: 0

Read mode : Secure
Utilize accurate stream : Yes
Defeat audio cache : Yes
Make use of C2 pointers : No

Read offset correction : 6
Overread into Lead-In and Lead-Out : No
Fill up missing offset samples with silence : Yes
Delete leading and trailing silent blocks : No
Null samples used in CRC calculations : Yes
Used interface : Native Win32 interface for Win NT & 2000

Used output format : User Defined Encoder
Selected bitrate : 128 kBit/s
Quality : High
Add ID3 tag : No
Command line compressor : C:\Program Files (x86)\Exact Audio Copy\Flac\flac.exe
Additional command line options : -V -8 -T "Genre=%genre%" -T "Artist=%artist%" -T "Title=%title%" -T "Album=%albumtitle%" -T "Date=%year%" -T "Tracknumber=%tracknr%" -T "Comment=%comment%" %source%


TOC of the extracted CD

Track | Start | Length | Start sector | End sector
––––––––––––––––––––––––––––-
1 | 0:00.00 | 5:11.23 | 0 | 23347
2 | 5:11.23 | 10:23.00 | 23348 | 70072
3 | 15:34.23 | 5:24.42 | 70073 | 94414
4 | 20:58.65 | 8:35.03 | 94415 | 133042
5 | 29:33.68 | 10:51.03 | 133043 | 181870
6 | 40:24.71 | 2:07.01 | 181871 | 191396
7 | 42:31.72 | 2:22.74 | 191397 | 202120
8 | 44:54.71 | 2:02.00 | 202121 | 211270
9 | 46:56.71 | 2:17.73 | 211271 | 221618
10 | 49:14.69 | 2:22.01 | 221619 | 232269
11 | 51:36.70 | 2:24.74 | 232270 | 243143
12 | 54:01.69 | 2:38.40 | 243144 | 255033
13 | 56:40.34 | 2:00.66 | 255034 | 264099
14 | 58:41.25 | 2:15.50 | 264100 | 274274
15 | 60:57.00 | 2:28.00 | 274275 | 285374
16 | 63:25.00 | 2:42.71 | 285375 | 297595
17 | 66:07.71 | 2:24.01 | 297596 | 308396


Range status and errors

Selected range

Filename C:\ssagwebster\Various Artists - Soul Tenors (10CD, 2020)\CD01 - King Curtis-The New Scene Of King Curtis & Country Soul\Various Artists - CD1 - The New Scene Of King Curtis & Country Soul.wav

Peak level 100.0 %
Extraction speed 7.5 X
Range quality 100.0 %
Test CRC B13B6974
Copy CRC B13B6974
Copy OK

No errors occurred


AccurateRip summary

Track 1 not present in database
Track 2 not present in database
Track 3 not present in database
Track 4 not present in database
Track 5 not present in database
Track 6 not present in database
Track 7 not present in database
Track 8 not present in database
Track 9 not present in database
Track 10 not present in database
Track 11 not present in database
Track 12 not present in database
Track 13 not present in database
Track 14 not present in database
Track 15 not present in database
Track 16 not present in database
Track 17 not present in database

None of the tracks are present in the AccurateRip database

End of status report

–– CUETools DB Plugin V2.1.6

[CTDB TOCID: AChM.LLeczg9lKeIEChB3C4yXn0-] disk not present in database
Submit result: AChM.LLeczg9lKeIEChB3C4yXn0- has been uploaded


==== Log checksum B9DC9E0CEB5BED3E033C63566060001B1EFD26530F034E89EC01B7D4ED765964 ====

[CUETools log; Date: 06.05.2021 18:23:04; Version: 2.1.4]
[CTDB TOCID: AChM.LLeczg9lKeIEChB3C4yXn0-] found.
Track | CTDB Status
1 | (1/1) Accurately ripped
2 | (1/1) Accurately ripped
3 | (1/1) Accurately ripped
4 | (1/1) Accurately ripped
5 | (1/1) Accurately ripped
6 | (1/1) Accurately ripped
7 | (1/1) Accurately ripped
8 | (1/1) Accurately ripped
9 | (1/1) Accurately ripped
10 | (1/1) Accurately ripped
11 | (1/1) Accurately ripped
12 | (1/1) Accurately ripped
13 | (1/1) Accurately ripped
14 | (1/1) Accurately ripped
15 | (1/1) Accurately ripped
16 | (1/1) Accurately ripped
17 | (1/1) Accurately ripped
[AccurateRip ID: 00353e45-02754af8-10100f11] disk not present in database.

Track Peak [ CRC32 ] [W/O NULL] [ LOG ]
– 100,0 [B13B6974] [4197674E] CRC32
01 97,9 [BA0D522A] [6E94F447]
02 86,4 [37060EA8] [590DBB1E]
03 100,0 [5FB65C6C] [C49A012E]
04 96,9 [D5E57226] [DC0FCED2]
05 100,0 [313A558A] [4A72D129]
06 82,3 [6B8B5851] [48012306]
07 84,9 [7ED5D73F] [FF6E872D]
08 77,7 [0041B763] [37D0ECC6]
09 79,0 [F8422520] [5F5A11F6]
10 73,1 [46C0171B] [2AAF4EC9]
11 71,6 [FDB3A7D2] [76B94FE0]
12 76,5 [0A0BB54F] [87FD7861]
13 79,7 [F682221C] [AEE5C9F1]
14 82,2 [78E6E425] [2282D94C]
15 82,3 [61001FEE] [89115F34]
16 78,9 [9F23AF30] [FBB4AE08]
17 75,2 [6446662A] [F15B7C21]

V.A. - Soul Tenors: Milestones Of Jazz Legends (1957-1962) [10CD Box Set] (2020)

CD 2: Ray Charles Presents David Newman - Fathead (1960) & Teddy Edwards Quartet - Good Gravy! (1962)
EAC Rip | FLAC (image+.cue+log) - 495 MB | MP3 CBR 320 kbps (LAME 3.93) - 186 MB
Genre: Jazz, Hard Bop, Soul Jazz | RAR 3% Rec. | Label: Documents/The Intense Media (600559 / B)

Tracklist:

Ray Charles Presents David Newman - Fathead (1960):
01. Hard Times
02. Weird Beard
03. Willow Weep For Me
04. Bill For Bennie
05. Sweet Eyes
06. Fathead
07. Mean To Me
08. Tin Tin Deo

Teddy Edwards Quartet - Good Gravy! (1962):
09. Good Gravy
10. Could You Forget
11. Stairway To The Stars
12. A Little Later
13. On Green Dolphin Street
14. Just Friends
15. Laura
16. Yes, I'll Be Ready
17. Not So Strange

Total time: 01:19:00

Exact Audio Copy V1.3 from 2. September 2016

EAC extraction logfile from 11. April 2021, 11:58

Various Artists / CD2 - Fathhead & Good Gravy!

Used drive : TSSTcorpCDDVDW SH-224FB Adapter: 1 ID: 0

Read mode : Secure
Utilize accurate stream : Yes
Defeat audio cache : Yes
Make use of C2 pointers : No

Read offset correction : 6
Overread into Lead-In and Lead-Out : No
Fill up missing offset samples with silence : Yes
Delete leading and trailing silent blocks : No
Null samples used in CRC calculations : Yes
Used interface : Native Win32 interface for Win NT & 2000

Used output format : User Defined Encoder
Selected bitrate : 128 kBit/s
Quality : High
Add ID3 tag : No
Command line compressor : C:\Program Files (x86)\Exact Audio Copy\Flac\flac.exe
Additional command line options : -V -8 -T "Genre=%genre%" -T "Artist=%artist%" -T "Title=%title%" -T "Album=%albumtitle%" -T "Date=%year%" -T "Tracknumber=%tracknr%" -T "Comment=%comment%" %source%


TOC of the extracted CD

Track | Start | Length | Start sector | End sector
––––––––––––––––––––––––––––-
1 | 0:00.00 | 4:43.21 | 0 | 21245
2 | 4:43.21 | 4:49.36 | 21246 | 42956
3 | 9:32.57 | 4:59.57 | 42957 | 65438
4 | 14:32.39 | 4:16.68 | 65439 | 84706
5 | 18:49.32 | 3:45.53 | 84707 | 101634
6 | 22:35.10 | 5:23.47 | 101635 | 125906
7 | 27:58.57 | 4:16.56 | 125907 | 145162
8 | 32:15.38 | 5:24.45 | 145163 | 169507
9 | 37:40.08 | 5:29.11 | 169508 | 194193
10 | 43:09.19 | 5:42.50 | 194194 | 219893
11 | 48:51.69 | 4:42.00 | 219894 | 241043
12 | 53:33.69 | 4:13.45 | 241044 | 260063
13 | 57:47.39 | 5:25.25 | 260064 | 284463
14 | 63:12.64 | 5:22.10 | 284464 | 308623
15 | 68:34.74 | 3:20.17 | 308624 | 323640
16 | 71:55.16 | 4:03.58 | 323641 | 341923
17 | 75:58.74 | 3:01.00 | 341924 | 355498


Range status and errors

Selected range

Filename C:\ssagwebster\Various Artists - Soul Tenors (10CD, 2020)\CD02 - Ray Charles Presents David Fathead Newman & Teddy Edwards-Fathhead & Good Gravy!\Various Artists - CD2 - Fathhead & Good Gravy!.wav

Peak level 96.1 %
Extraction speed 3.4 X
Range quality 99.9 %
Test CRC D556A19F
Copy CRC D556A19F
Copy OK

No errors occurred


AccurateRip summary

Track 1 not present in database
Track 2 not present in database
Track 3 not present in database
Track 4 not present in database
Track 5 not present in database
Track 6 not present in database
Track 7 not present in database
Track 8 not present in database
Track 9 not present in database
Track 10 not present in database
Track 11 not present in database
Track 12 not present in database
Track 13 not present in database
Track 14 not present in database
Track 15 not present in database
Track 16 not present in database
Track 17 not present in database

None of the tracks are present in the AccurateRip database

End of status report

–– CUETools DB Plugin V2.1.6

[CTDB TOCID: 0X.Ta8Tl3gziPUO_8EdCAV0qa6M-] disk not present in database
Submit result: 0X.Ta8Tl3gziPUO_8EdCAV0qa6M- has been uploaded


==== Log checksum 09BCE99CAE698B1559D328CAB430352D2E643A9B38854EFBA2BA850BAFAFC605 ====

[CUETools log; Date: 06.05.2021 18:24:06; Version: 2.1.4]
[CTDB TOCID: 0X.Ta8Tl3gziPUO_8EdCAV0qa6M-] found.
Track | CTDB Status
1 | (1/1) Accurately ripped
2 | (1/1) Accurately ripped
3 | (1/1) Accurately ripped
4 | (1/1) Accurately ripped
5 | (1/1) Accurately ripped
6 | (1/1) Accurately ripped
7 | (1/1) Accurately ripped
8 | (1/1) Accurately ripped
9 | (1/1) Accurately ripped
10 | (1/1) Accurately ripped
11 | (1/1) Accurately ripped
12 | (1/1) Accurately ripped
13 | (1/1) Accurately ripped
14 | (1/1) Accurately ripped
15 | (1/1) Accurately ripped
16 | (1/1) Accurately ripped
17 | (1/1) Accurately ripped
[AccurateRip ID: 00322396-027bd7e2-fd128311] disk not present in database.

Track Peak [ CRC32 ] [W/O NULL] [ LOG ]
– 96,1 [D556A19F] [8C8A6E1C] CRC32
01 87,0 [C09681BD] [697C0067]
02 87,0 [B4243533] [F086762C]
03 77,3 [0C6C3358] [9EB7BEA5]
04 87,0 [49EDD0C5] [E934E9C5]
05 87,0 [6A6C4BA1] [2EB5CB18]
06 87,0 [EB7FCAD1] [0D571B37]
07 87,0 [2FAB20FA] [498EA59D]
08 87,0 [2F4F50EC] [4E38271F]
09 96,1 [CE177442] [3134A7FA]
10 96,1 [7FE2094A] [8DA04FF1]
11 74,5 [77934AAD] [8450BF92]
12 96,1 [D0B6DFCA] [6DCE9F66]
13 96,1 [B9B8B84B] [1F480664]
14 96,1 [F1CDFB75] [4528941C]
15 70,8 [F1AA8CCD] [04D90831]
16 96,1 [13E8B549] [BE811628]
17 96,1 [2307A1B9] [78484C56]

V.A. - Soul Tenors: Milestones Of Jazz Legends (1957-1962) [10CD Box Set] (2020)

CD 3: Illinois Jacquet - Swing's The Thing (1957) & Budd Johnson Quintet - Let's Swing! (1961)
EAC Rip | FLAC (image+.cue+log) - 441 MB | MP3 CBR 320 kbps (LAME 3.93) - 182 MB
Genre: Jazz, Mainstream Jazz, Bop | RAR 3% Rec. | Label: Documents/The Intense Media (600559 / C)

Tracklist:

Illinois Jacquet - Swing's The Thing (1957):
01. Las Vegas Blues
02. Harlem Nocturne
03. Can’t We Be Friends?
04. Achtung
05. Have You Met Miss Jones
06. Lullaby Of The Leaves

Budd Johnson Quintet - Let's Swing! (1961):
07. Serenade In Blue [3:40]
08. I Only Have Eyes For You
09. Downtown Manhattan
10. Someone To Watch Over Me
11. Falling In Love With Love
12. Blues By Budd
13. Uptown Manhattan

Total time: 01:17:15

Exact Audio Copy V1.3 from 2. September 2016

EAC extraction logfile from 11. April 2021, 17:34

Various Artists / CD3 - Swing's The Thing & Let's Swing!

Used drive : TSSTcorpCDDVDW SH-224FB Adapter: 1 ID: 0

Read mode : Secure
Utilize accurate stream : Yes
Defeat audio cache : Yes
Make use of C2 pointers : No

Read offset correction : 6
Overread into Lead-In and Lead-Out : No
Fill up missing offset samples with silence : Yes
Delete leading and trailing silent blocks : No
Null samples used in CRC calculations : Yes
Used interface : Native Win32 interface for Win NT & 2000

Used output format : User Defined Encoder
Selected bitrate : 128 kBit/s
Quality : High
Add ID3 tag : No
Command line compressor : C:\Program Files (x86)\Exact Audio Copy\Flac\flac.exe
Additional command line options : -V -8 -T "Genre=%genre%" -T "Artist=%artist%" -T "Title=%title%" -T "Album=%albumtitle%" -T "Date=%year%" -T "Tracknumber=%tracknr%" -T "Comment=%comment%" %source%


TOC of the extracted CD

Track | Start | Length | Start sector | End sector
––––––––––––––––––––––––––––-
1 | 0:00.00 | 6:17.00 | 0 | 28274
2 | 6:17.00 | 4:31.65 | 28275 | 48664
3 | 10:48.65 | 6:42.30 | 48665 | 78844
4 | 17:31.20 | 5:06.47 | 78845 | 101841
5 | 22:37.67 | 5:55.69 | 101842 | 128535
6 | 28:33.61 | 5:48.32 | 128536 | 154667
7 | 34:22.18 | 3:39.51 | 154668 | 171143
8 | 38:01.69 | 4:30.12 | 171144 | 191405
9 | 42:32.06 | 7:50.30 | 191406 | 226685
10 | 50:22.36 | 4:47.50 | 226686 | 248260
11 | 55:10.11 | 5:44.73 | 248261 | 274133
12 | 60:55.09 | 10:01.15 | 274134 | 319223
13 | 70:56.24 | 6:18.17 | 319224 | 347590


Range status and errors

Selected range

Filename C:\ssagwebster\Various Artists - Soul Tenors (10CD, 2020)\CD03 - Illinois Jacquet & Budd Johnson-Swing's The Thing & Let's Swing!\Various Artists - CD3 - Swing's The Thing & Let's Swing!.wav

Peak level 100.0 %
Extraction speed 8.0 X
Range quality 100.0 %
Test CRC B3E31C6E
Copy CRC B3E31C6E
Copy OK

No errors occurred


AccurateRip summary

Track 1 not present in database
Track 2 not present in database
Track 3 not present in database
Track 4 not present in database
Track 5 not present in database
Track 6 not present in database
Track 7 not present in database
Track 8 not present in database
Track 9 not present in database
Track 10 not present in database
Track 11 not present in database
Track 12 not present in database
Track 13 not present in database

None of the tracks are present in the AccurateRip database

End of status report

–– CUETools DB Plugin V2.1.6

[CTDB TOCID: 2qSZVHpcNAKp4eS9yr9B1CedII0-] disk not present in database
Submit result: 2qSZVHpcNAKp4eS9yr9B1CedII0- has been uploaded


==== Log checksum 819936C6DAEB33118B97427889841D70CBDCBDAE74DF7049C9CC0F9703DAF2CF ====

[CUETools log; Date: 06.05.2021 18:25:23; Version: 2.1.4]
[CTDB TOCID: 2qSZVHpcNAKp4eS9yr9B1CedII0-] found.
Track | CTDB Status
1 | (1/1) Accurately ripped
2 | (1/1) Accurately ripped
3 | (1/1) Accurately ripped
4 | (1/1) Accurately ripped
5 | (1/1) Accurately ripped
6 | (1/1) Accurately ripped
7 | (1/1) Accurately ripped
8 | (1/1) Accurately ripped
9 | (1/1) Accurately ripped
10 | (1/1) Accurately ripped
11 | (1/1) Accurately ripped
12 | (1/1) Accurately ripped
13 | (1/1) Accurately ripped
[AccurateRip ID: 002363ad-01632b47-ae121a0d] disk not present in database.

Track Peak [ CRC32 ] [W/O NULL] [ LOG ]
– 100,0 [B3E31C6E] [C6111E66] CRC32
01 96,1 [1F281D57] [662B9464]
02 88,8 [151547B7] [27B4673C]
03 82,4 [AE5B8240] [094769A7]
04 96,1 [75589627] [B7D89863]
05 96,1 [CF98DEEB] [5D54A386]
06 96,1 [C50ECF8F] [D5E10D29]
07 99,7 [5043ADEE] [1A125DCD]
08 96,6 [6A91E839] [11268989]
09 100,0 [3638D6A4] [A50BFC13]
10 88,6 [232DF200] [081D303C]
11 89,4 [BCA07803] [EAB4C448]
12 90,0 [AC215AD4] [EF73ECD9]
13 100,0 [B71766CD] [229960C8]

V.A. - Soul Tenors: Milestones Of Jazz Legends (1957-1962) [10CD Box Set] (2020)

CD 4: Oliver Nelson, King Curtis, Jimmy Forrest - Soul Battle (1962) & Jimmy Forrest - Forrest Fire (1960)
EAC Rip | FLAC (image+.cue+log) - 497 MB | MP3 CBR 320 kbps (LAME 3.93) - 183 MB
Genre: Jazz, Bop, Soul Jazz | RAR 3% Rec. | Label: Documents/The Intense Media (600559 / D)

Tracklist:

Oliver Nelson, King Curtis, Jimmy Forrest - Soul Battle (1962):
01. Blues At The Five Spot
02. Blues For M.F. (Mort Fega)
03. Anacruses
04. Perdido
05. In Passing

Jimmy Forrest - Forrest Fire (1960):
06. Remember
07. Dexter's Deck
08. Jim's Jam
09. Bags' Groove
10. When Your Lover Has Gone
11. Help!

Total time: 01:17:54

Exact Audio Copy V1.3 from 2. September 2016

EAC extraction logfile from 11. April 2021, 18:34

Various Artists / CD4 - Soul Battle & Forrest Fire

Used drive : TSSTcorpCDDVDW SH-224FB Adapter: 1 ID: 0

Read mode : Secure
Utilize accurate stream : Yes
Defeat audio cache : Yes
Make use of C2 pointers : No

Read offset correction : 6
Overread into Lead-In and Lead-Out : No
Fill up missing offset samples with silence : Yes
Delete leading and trailing silent blocks : No
Null samples used in CRC calculations : Yes
Used interface : Native Win32 interface for Win NT & 2000

Used output format : User Defined Encoder
Selected bitrate : 128 kBit/s
Quality : High
Add ID3 tag : No
Command line compressor : C:\Program Files (x86)\Exact Audio Copy\Flac\flac.exe
Additional command line options : -V -8 -T "Genre=%genre%" -T "Artist=%artist%" -T "Title=%title%" -T "Album=%albumtitle%" -T "Date=%year%" -T "Tracknumber=%tracknr%" -T "Comment=%comment%" %source%


TOC of the extracted CD

Track | Start | Length | Start sector | End sector
––––––––––––––––––––––––––––-
1 | 0:00.00 | 5:40.70 | 0 | 25569
2 | 5:40.70 | 9:36.18 | 25570 | 68787
3 | 15:17.13 | 5:40.58 | 68788 | 94345
4 | 20:57.71 | 9:21.19 | 94346 | 136439
5 | 30:19.15 | 7:32.49 | 136440 | 170388
6 | 37:51.64 | 5:30.30 | 170389 | 195168
7 | 43:22.19 | 6:39.51 | 195169 | 225144
8 | 50:01.70 | 8:58.49 | 225145 | 265543
9 | 59:00.44 | 8:29.71 | 265544 | 303789
10 | 67:30.40 | 5:31.23 | 303790 | 328637
11 | 73:01.63 | 4:52.35 | 328638 | 350572


Range status and errors

Selected range

Filename C:\ssagwebster\Various Artists - Soul Tenors (10CD, 2020)\CD04 - Oliver Nelson, King Curtis, Jimmy Forrest-Soul Battle & Forrest Fire\Various Artists - CD4 - Soul Battle & Forrest Fire.wav

Peak level 90.8 %
Extraction speed 3.4 X
Range quality 100.0 %
Test CRC 5419CC13
Copy CRC 5419CC13
Copy OK

No errors occurred


AccurateRip summary

Track 1 not present in database
Track 2 not present in database
Track 3 not present in database
Track 4 not present in database
Track 5 not present in database
Track 6 not present in database
Track 7 not present in database
Track 8 not present in database
Track 9 not present in database
Track 10 not present in database
Track 11 not present in database

None of the tracks are present in the AccurateRip database

End of status report

–– CUETools DB Plugin V2.1.6

[CTDB TOCID: vVOkQ5NeX9zp38V0OQ5Np8EsEiI-] disk not present in database
Submit result: vVOkQ5NeX9zp38V0OQ5Np8EsEiI- has been uploaded


==== Log checksum 0538672516F94B4EDB428AABAEB218C98ED9D8A230614803DE6517C505F81C73 ====

[CUETools log; Date: 06.05.2021 18:26:26; Version: 2.1.4]
[CTDB TOCID: vVOkQ5NeX9zp38V0OQ5Np8EsEiI-] found.
Track | CTDB Status
1 | (1/1) Accurately ripped
2 | (1/1) Accurately ripped
3 | (1/1) Accurately ripped
4 | (1/1) Accurately ripped
5 | (1/1) Accurately ripped
6 | (1/1) Accurately ripped
7 | (1/1) Accurately ripped
8 | (1/1) Accurately ripped
9 | (1/1) Accurately ripped
10 | (1/1) Accurately ripped
11 | (1/1) Accurately ripped
[AccurateRip ID: 002106a8-011e3368-8612420b] disk not present in database.

Track Peak [ CRC32 ] [W/O NULL] [ LOG ]
– 90,8 [5419CC13] [EE3B0B6A] CRC32
01 86,3 [4F670774] [A907BB2B]
02 89,8 [24BD2903] [A079F60B]
03 90,1 [E7944996] [ED19B47F]
04 86,8 [4CC24A39] [835C1AF9]
05 89,9 [C753D9CA] [DE188378]
06 82,9 [073513F2] [84DCA71C]
07 85,9 [98C84B89] [86751FE7]
08 90,6 [E9528556] [766E1EAB]
09 90,8 [541F19B3] [32B6EA22]
10 88,8 [A289275F] [588A2904]
11 81,8 [278A9D8A] [8C2F5290]

V.A. - Soul Tenors: Milestones Of Jazz Legends (1957-1962) [10CD Box Set] (2020)

CD 5: Gene Ammons - Funky (1957) & Boss Tenor (1960)
EAC Rip | FLAC (image+.cue+log) - 420 MB | MP3 CBR 320 kbps (LAME 3.93) - 180 MB
Genre: Jazz, Hard Bop, Soul Jazz | RAR 3% Rec. | Label: Documents/The Intense Media (600559 / E)

Tracklist:

Gene Ammons - Funky (1957):
01. Funky
02. Pint Size
03. Stella By Starlight
04. King Size

Boss Tenor (1960):
05. Hittin' The Jug
06. Close Your Eyes
07. My Romance
08. Canadian Sunset
09. Blue Ammons Jug
10. Confirmation
11. Stompin' At The Savoy

Total time: 01:16:36

Exact Audio Copy V1.3 from 2. September 2016

EAC extraction logfile from 11. April 2021, 21:26

Various Artists / CD5 - Funky & Boss Tenor

Used drive : TSSTcorpCDDVDW SH-224FB Adapter: 1 ID: 0

Read mode : Secure
Utilize accurate stream : Yes
Defeat audio cache : Yes
Make use of C2 pointers : No

Read offset correction : 6
Overread into Lead-In and Lead-Out : No
Fill up missing offset samples with silence : Yes
Delete leading and trailing silent blocks : No
Null samples used in CRC calculations : Yes
Used interface : Native Win32 interface for Win NT & 2000

Used output format : User Defined Encoder
Selected bitrate : 128 kBit/s
Quality : High
Add ID3 tag : No
Command line compressor : C:\Program Files (x86)\Exact Audio Copy\Flac\flac.exe
Additional command line options : -V -8 -T "Genre=%genre%" -T "Artist=%artist%" -T "Title=%title%" -T "Album=%albumtitle%" -T "Date=%year%" -T "Tracknumber=%tracknr%" -T "Comment=%comment%" %source%


TOC of the extracted CD

Track | Start | Length | Start sector | End sector
––––––––––––––––––––––––––––-
1 | 0:00.00 | 12:08.07 | 0 | 54606
2 | 12:08.07 | 8:42.63 | 54607 | 93819
3 | 20:50.70 | 12:54.32 | 93820 | 151901
4 | 33:45.27 | 6:47.13 | 151902 | 182439
5 | 40:32.40 | 8:30.61 | 182440 | 220750
6 | 49:03.26 | 3:47.64 | 220751 | 237839
7 | 52:51.15 | 4:16.62 | 237840 | 257101
8 | 57:08.02 | 5:26.23 | 257102 | 281574
9 | 62:34.25 | 4:58.56 | 281575 | 303980
10 | 67:33.06 | 5:27.28 | 303981 | 328533
11 | 73:00.34 | 3:35.21 | 328534 | 344679


Range status and errors

Selected range

Filename C:\ssagwebster\Various Artists - Soul Tenors (10CD, 2020)\CD05 - Gene Ammons-Funky & Boss Tenor\Various Artists - CD5 - Funky & Boss Tenor.wav

Peak level 100.0 %
Extraction speed 3.4 X
Range quality 100.0 %
Test CRC 044F14A4
Copy CRC 044F14A4
Copy OK

No errors occurred


AccurateRip summary

Track 1 not present in database
Track 2 not present in database
Track 3 not present in database
Track 4 not present in database
Track 5 not present in database
Track 6 not present in database
Track 7 not present in database
Track 8 not present in database
Track 9 not present in database
Track 10 not present in database
Track 11 not present in database

None of the tracks are present in the AccurateRip database

End of status report

–– CUETools DB Plugin V2.1.6

[CTDB TOCID: FowbsoXRFApgvbJ97f.XxKwHFo0-] disk not present in database
Submit result: FowbsoXRFApgvbJ97f.XxKwHFo0- has been uploaded


==== Log checksum 82B8316E1243E79AA5D33FE009D81C2C31668EFFE2855638855A728534D31BEE ====

[CUETools log; Date: 06.05.2021 18:27:59; Version: 2.1.4]
[CTDB TOCID: FowbsoXRFApgvbJ97f.XxKwHFo0-] found.
Track | CTDB Status
1 | (1/1) Accurately ripped
2 | (1/1) Accurately ripped
3 | (1/1) Accurately ripped
4 | (1/1) Accurately ripped
5 | (1/1) Accurately ripped
6 | (1/1) Accurately ripped
7 | (1/1) Accurately ripped
8 | (1/1) Accurately ripped
9 | (1/1) Accurately ripped
10 | (1/1) Accurately ripped
11 | (1/1) Accurately ripped
[AccurateRip ID: 00257e90-01357580-8e11f30b] disk not present in database.

Track Peak [ CRC32 ] [W/O NULL] [ LOG ]
– 99,9 [044F14A4] [B222D7C0] CRC32
01 96,1 [AEE46D58] [E5AE34A8]
02 96,1 [C5704412] [F4139E36]
03 96,1 [C239868C] [25679E6D]
04 87,6 [7A14A9E3] [0C4B7320]
05 99,9 [9FB578A4] [2615DACC]
06 88,1 [C0958EDE] [51EB69F0]
07 90,1 [AEAC65B2] [D9893ECE]
08 84,9 [91428EDC] [9E0A25FE]
09 93,3 [B72CA7D0] [77D3442B]
10 93,0 [0C6898EC] [8D0841F3]
11 74,6 [609A125A] [970FB60E]

V.A. - Soul Tenors: Milestones Of Jazz Legends (1957-1962) [10CD Box Set] (2020)

CD 6: Shirley Scott - Hip Soul (1961) & Hip Twist (1962)
EAC Rip | FLAC (image+.cue+log) - 461 MB | MP3 CBR 320 kbps (LAME 3.93) - 182 MB
Genre: Jazz, Soul Jazz | RAR 3% Rec. | Label: Documents/The Intense Media (600559 / F)

Tracklist:

Shirley Scott - Hip Soul (1961):
01. Hip Soul
02. 411 West
03. By Myself
04. Trane's Blues
05. Stanley's Time
06. Out Of This World

Shirley Scott - Hip Twist (1962):
07. Hip Twist
08. At Last
09. Rippin' An' Runnin'
10. The Very Thought Of You
11. Violent Blues
12. That's All
13. All Tore Down

Total time: 01:17:34

Exact Audio Copy V1.3 from 2. September 2016

EAC extraction logfile from 12. April 2021, 13:45

Various Artists / CD6 - Hip Soul & Hip Twist

Used drive : TSSTcorpCDDVDW SH-224FB Adapter: 1 ID: 0

Read mode : Secure
Utilize accurate stream : Yes
Defeat audio cache : Yes
Make use of C2 pointers : No

Read offset correction : 6
Overread into Lead-In and Lead-Out : No
Fill up missing offset samples with silence : Yes
Delete leading and trailing silent blocks : No
Null samples used in CRC calculations : Yes
Used interface : Native Win32 interface for Win NT & 2000

Used output format : User Defined Encoder
Selected bitrate : 128 kBit/s
Quality : High
Add ID3 tag : No
Command line compressor : C:\Program Files (x86)\Exact Audio Copy\Flac\flac.exe
Additional command line options : -V -8 -T "Genre=%genre%" -T "Artist=%artist%" -T "Title=%title%" -T "Album=%albumtitle%" -T "Date=%year%" -T "Tracknumber=%tracknr%" -T "Comment=%comment%" %source%


TOC of the extracted CD

Track | Start | Length | Start sector | End sector
––––––––––––––––––––––––––––-
1 | 0:00.00 | 6:31.51 | 0 | 29375
2 | 6:31.51 | 6:33.20 | 29376 | 58870
3 | 13:04.71 | 6:00.01 | 58871 | 85871
4 | 19:04.72 | 4:56.28 | 85872 | 108099
5 | 24:01.25 | 4:21.30 | 108100 | 127704
6 | 28:22.55 | 11:19.37 | 127705 | 178666
7 | 39:42.17 | 5:14.43 | 178667 | 202259
8 | 44:56.60 | 5:28.10 | 202260 | 226869
9 | 50:24.70 | 5:19.45 | 226870 | 250839
10 | 55:44.40 | 3:48.39 | 250840 | 267978
11 | 59:33.04 | 6:10.47 | 267979 | 295775
12 | 65:43.51 | 6:18.15 | 295776 | 324140
13 | 72:01.66 | 5:31.66 | 324141 | 349031


Range status and errors

Selected range

Filename C:\ssagwebster\Various Artists - Soul Tenors (10CD, 2020)\CD06 - Shirley Scott & Stanley Turrentine-Hip Soul & Hip Twist\Various Artists - CD6 - Hip Soul & Hip Twist.wav

Peak level 98.6 %
Extraction speed 3.4 X
Range quality 100.0 %
Test CRC A0DEF0EA
Copy CRC A0DEF0EA
Copy OK

No errors occurred


AccurateRip summary

Track 1 not present in database
Track 2 not present in database
Track 3 not present in database
Track 4 not present in database
Track 5 not present in database
Track 6 not present in database
Track 7 not present in database
Track 8 not present in database
Track 9 not present in database
Track 10 not present in database
Track 11 not present in database
Track 12 not present in database
Track 13 not present in database

None of the tracks are present in the AccurateRip database

End of status report

–– CUETools DB Plugin V2.1.6

[CTDB TOCID: ZtD7tvnvAd1XUyXn2mv.nRZg4Ao-] disk not present in database
Submit result: ZtD7tvnvAd1XUyXn2mv.nRZg4Ao- has been uploaded


==== Log checksum AED1EE480AA9C502300761A5D6AD9551DFEB6895495A6E860B5508BF20657CB3 ====

[CUETools log; Date: 06.05.2021 18:29:49; Version: 2.1.4]
[CTDB TOCID: ZtD7tvnvAd1XUyXn2mv.nRZg4Ao-] found.
Track | CTDB Status
1 | (1/1) Accurately ripped
2 | (1/1) Accurately ripped
3 | (1/1) Accurately ripped
4 | (1/1) Accurately ripped
5 | (1/1) Accurately ripped
6 | (1/1) Accurately ripped
7 | (1/1) Accurately ripped
8 | (1/1) Accurately ripped
9 | (1/1) Accurately ripped
10 | (1/1) Accurately ripped
11 | (1/1) Accurately ripped
12 | (1/1) Accurately ripped
13 | (1/1) Accurately ripped
[AccurateRip ID: 00263b11-017bf925-c4122d0d] disk not present in database.

Track Peak [ CRC32 ] [W/O NULL] [ LOG ]
– 98,6 [A0DEF0EA] [9C02C7F9] CRC32
01 92,0 [DAF2E723] [9BB4739E]
02 98,6 [F21B63B2] [5A46510F]
03 97,8 [31675836] [C37EA733]
04 96,9 [E9325B29] [673EB37E]
05 92,0 [ECB542A2] [DFB8F435]
06 97,1 [7B59BFDB] [0EC738F9]
07 96,1 [6588CA5F] [B513BC17]
08 82,3 [C19E29CE] [7E568A59]
09 96,1 [EDDF6EE9] [D5896785]
10 96,2 [C4249B6A] [8CF692F0]
11 96,1 [9EDB5BA0] [92F5B20D]
12 95,3 [3E7877AA] [EE31D16C]
13 87,6 [B5D64C40] [FEA4490C]

V.A. - Soul Tenors: Milestones Of Jazz Legends (1957-1962) [10CD Box Set] (2020)

CD 7: Arnett Cobb - Movin' Right Along (1960) & Arnett Cobb & Eddie "Lockjaw" Davis - Blow Arnett, Blow (1959)
EAC Rip | FLAC (image+.cue+log) - 399 MB | MP3 CBR 320 kbps (LAME 3.93) - 181 MB
Genre: Jazz, Soul Jazz | RAR 3% Rec. | Label: Documents/The Intense Media (600559 / G)

Tracklist:

Arnett Cobb - Movin' Right Along (1960):
01. Nitty Gritty
02. All I Do Is Dream Of You
03. (I Don't Stand) A Ghost Of A Chance
04. Exactly Like You
05. Walkin'
06. Softly, As In A Morning Sunrise
07. Fast Ride
08. The Shy One

Arnett Cobb & Eddie "Lockjaw" Davis - Blow Arnett, Blow (1959):
09. When I Grow Too Old To Dream
10. Go Power
11. Dutch Kitchen Bounce
12. Go Red, Go
13. The Eely One
14. The Fluke

Total time: 01:17:03

Exact Audio Copy V1.3 from 2. September 2016

EAC extraction logfile from 12. April 2021, 14:13

Various Artists / CD7 - Movin' Right Along & Blow Arnett Blow

Used drive : TSSTcorpCDDVDW SH-224FB Adapter: 1 ID: 0

Read mode : Secure
Utilize accurate stream : Yes
Defeat audio cache : Yes
Make use of C2 pointers : No

Read offset correction : 6
Overread into Lead-In and Lead-Out : No
Fill up missing offset samples with silence : Yes
Delete leading and trailing silent blocks : No
Null samples used in CRC calculations : Yes
Used interface : Native Win32 interface for Win NT & 2000

Used output format : User Defined Encoder
Selected bitrate : 128 kBit/s
Quality : High
Add ID3 tag : No
Command line compressor : C:\Program Files (x86)\Exact Audio Copy\Flac\flac.exe
Additional command line options : -V -8 -T "Genre=%genre%" -T "Artist=%artist%" -T "Title=%title%" -T "Album=%albumtitle%" -T "Date=%year%" -T "Tracknumber=%tracknr%" -T "Comment=%comment%" %source%


TOC of the extracted CD

Track | Start | Length | Start sector | End sector
––––––––––––––––––––––––––––-
1 | 0:00.00 | 3:54.55 | 0 | 17604
2 | 3:54.55 | 4:03.12 | 17605 | 35841
3 | 7:57.67 | 5:23.55 | 35842 | 60121
4 | 13:21.47 | 6:31.68 | 60122 | 89514
5 | 19:53.40 | 5:29.00 | 89515 | 114189
6 | 25:22.40 | 4:08.42 | 114190 | 132831
7 | 29:31.07 | 4:12.58 | 132832 | 151789
8 | 33:43.65 | 4:48.50 | 151790 | 173439
9 | 38:32.40 | 6:44.20 | 173440 | 203759
10 | 45:16.60 | 5:10.38 | 203760 | 227047
11 | 50:27.23 | 7:03.06 | 227048 | 258778
12 | 57:30.29 | 5:41.34 | 258779 | 284387
13 | 63:11.63 | 8:19.25 | 284388 | 321837
14 | 71:31.13 | 5:31.73 | 321838 | 346735


Range status and errors

Selected range

Filename C:\ssagwebster\Various Artists - Soul Tenors (10CD, 2020)\CD07 - Arnett Cobb-Movin' Right Along & Blow Arnett Blow\Various Artists - CD7 - Movin' Right Along & Blow Arnett Blow.wav

Peak level 100.0 %
Extraction speed 8.0 X
Range quality 100.0 %
Test CRC 29FDD656
Copy CRC 29FDD656
Copy OK

No errors occurred


AccurateRip summary

Track 1 not present in database
Track 2 not present in database
Track 3 not present in database
Track 4 not present in database
Track 5 not present in database
Track 6 not present in database
Track 7 not present in database
Track 8 not present in database
Track 9 not present in database
Track 10 not present in database
Track 11 not present in database
Track 12 not present in database
Track 13 not present in database
Track 14 not present in database

None of the tracks are present in the AccurateRip database

End of status report

–– CUETools DB Plugin V2.1.6

[CTDB TOCID: ac1TWZoB5c3reEkg6rum1.FKk5Q-] disk not present in database
Submit result: ac1TWZoB5c3reEkg6rum1.FKk5Q- has been uploaded


==== Log checksum 30FB91CEF47D0EA784FBC014254C545FF3784DDB25D31E450D34AB4DA428CE38 ====

[CUETools log; Date: 06.05.2021 18:33:59; Version: 2.1.4]
[CTDB TOCID: ac1TWZoB5c3reEkg6rum1.FKk5Q-] found.
Track | CTDB Status
1 | (1/1) Accurately ripped
2 | (1/1) Accurately ripped
3 | (1/1) Accurately ripped
4 | (1/1) Accurately ripped
5 | (1/1) Accurately ripped
6 | (1/1) Accurately ripped
7 | (1/1) Accurately ripped
8 | (1/1) Accurately ripped
9 | (1/1) Accurately ripped
10 | (1/1) Accurately ripped
11 | (1/1) Accurately ripped
12 | (1/1) Accurately ripped
13 | (1/1) Accurately ripped
14 | (1/1) Accurately ripped
[AccurateRip ID: 0024e4dd-0190c6f8-c3120f0e] disk not present in database.

Track Peak [ CRC32 ] [W/O NULL] [ LOG ]
– 100,0 [29FDD656] [A2673205] CRC32
01 94,6 [574F5E4B] [B16383AF]
02 94,6 [0259375A] [4103AA65]
03 93,1 [8E82B456] [3A13A92C]
04 93,8 [3C59D9F0] [93AA6370]
05 93,7 [D03C02C2] [4C48D25C]
06 93,1 [1C5A55D3] [E002846E]
07 93,1 [72051E2F] [FD282648]
08 93,1 [BC501B3F] [91BC8A40]
09 100,0 [BF0179E7] [5443E173]
10 99,1 [4838F252] [4AEA09D8]
11 100,0 [31552211] [839B0AEC]
12 99,9 [B042DCEF] [B42346C3]
13 99,9 [EDD95CD8] [73E4BD95]
14 100,0 [8B11A810] [C2890A57]

V.A. - Soul Tenors: Milestones Of Jazz Legends (1957-1962) [10CD Box Set] (2020)

CD 8: Eddie "Lockjaw" Davis Quintet with Shirley Scott - Jaws In Orbit (1959) & Willis Jackson - Please Mr. Jackson (1959)
EAC Rip | FLAC (image+.cue+log) - 426 MB | MP3 CBR 320 kbps (LAME 3.93) - 169 MB
Genre: Jazz, Soul Jazz, Hard Bop | RAR 3% Rec. | Label: Documents/The Intense Media (600559 / H)

Tracklist:

Eddie "Lockjaw" Davis Quintet with Shirley Scott - Jaws In Orbit (1959):
01. Intermission Riff
02. Can't Get Out Of This Mood
03. Foxy
04. Our Delight
05. Bahia
06. Bingo Domingo

Willis Jackson - Please Mr. Jackson (1959):
07. Cool Grits
08. Come Back to Sorrento
09. Dink's Mood
10. Please Mr. Jackson
11. 633 Knock
12. Memories Of You

Total time: 01:12:05

Exact Audio Copy V1.3 from 2. September 2016

EAC extraction logfile from 13. April 2021, 19:54

Various Artists / CD8 - In Orbit & Please Mr. Jackson

Used drive : TSSTcorpCDDVDW SH-224FB Adapter: 1 ID: 0

Read mode : Secure
Utilize accurate stream : Yes
Defeat audio cache : Yes
Make use of C2 pointers : No

Read offset correction : 6
Overread into Lead-In and Lead-Out : No
Fill up missing offset samples with silence : Yes
Delete leading and trailing silent blocks : No
Null samples used in CRC calculations : Yes
Used interface : Native Win32 interface for Win NT & 2000

Used output format : User Defined Encoder
Selected bitrate : 128 kBit/s
Quality : High
Add ID3 tag : No
Command line compressor : C:\Program Files (x86)\Exact Audio Copy\Flac\flac.exe
Additional command line options : -V -8 -T "Genre=%genre%" -T "Artist=%artist%" -T "Title=%title%" -T "Album=%albumtitle%" -T "Date=%year%" -T "Tracknumber=%tracknr%" -T "Comment=%comment%" %source%


TOC of the extracted CD

Track | Start | Length | Start sector | End sector
––––––––––––––––––––––––––––-
1 | 0:00.00 | 6:27.10 | 0 | 29034
2 | 6:27.10 | 5:26.36 | 29035 | 53520
3 | 11:53.46 | 5:54.03 | 53521 | 80073
4 | 17:47.49 | 6:23.50 | 80074 | 108848
5 | 24:11.24 | 7:31.34 | 108849 | 142707
6 | 31:42.58 | 6:00.58 | 142708 | 169765
7 | 37:43.41 | 8:35.51 | 169766 | 208441
8 | 46:19.17 | 4:33.05 | 208442 | 228921
9 | 50:52.22 | 3:58.23 | 228922 | 246794
10 | 54:50.45 | 5:46.02 | 246795 | 272746
11 | 60:36.47 | 5:22.05 | 272747 | 296901
12 | 65:58.52 | 6:06.08 | 296902 | 324359


Range status and errors

Selected range

Filename C:\ssagwebster\Various Artists - Soul Tenors (10CD, 2020)\CD08 - Eddie Lockjaw Davis & Willis Jackson-In Orbit & Please Mr. Jackson\Various Artists - CD8 - In Orbit & Please Mr. Jackson.wav

Peak level 100.0 %
Extraction speed 3.2 X
Range quality 100.0 %
Test CRC 721F7D12
Copy CRC 721F7D12
Copy OK

No errors occurred


AccurateRip summary

Track 1 not present in database
Track 2 not present in database
Track 3 not present in database
Track 4 not present in database
Track 5 not present in database
Track 6 not present in database
Track 7 not present in database
Track 8 not present in database
Track 9 not present in database
Track 10 not present in database
Track 11 not present in database
Track 12 not present in database

None of the tracks are present in the AccurateRip database

End of status report

–– CUETools DB Plugin V2.1.6

[CTDB TOCID: BXANQ2HVq8tIkDdgJlbx.7hSE2g-] disk not present in database
Submit result: BXANQ2HVq8tIkDdgJlbx.7hSE2g- has been uploaded


==== Log checksum 7845E6BD77D641C5BB51F2C23178A02A84CD8F1341D01B30F26FABC7AC2AE124 ====

[CUETools log; Date: 06.05.2021 18:39:34; Version: 2.1.4]
[CTDB TOCID: BXANQ2HVq8tIkDdgJlbx.7hSE2g-] found.
Track | CTDB Status
1 | (1/1) Accurately ripped
2 | (1/1) Accurately ripped
3 | (1/1) Accurately ripped
4 | (1/1) Accurately ripped
5 | (1/1) Accurately ripped
6 | (1/1) Accurately ripped
7 | (1/1) Accurately ripped
8 | (1/1) Accurately ripped
9 | (1/1) Accurately ripped
10 | (1/1) Accurately ripped
11 | (1/1) Accurately ripped
12 | (1/1) Accurately ripped
[AccurateRip ID: 0020fdc9-0132c07a-b110e40c] disk not present in database.

Track Peak [ CRC32 ] [W/O NULL] [ LOG ]
– 100,0 [721F7D12] [D4265329] CRC32
01 100,0 [4E7C0BBD] [BA9C8903]
02 100,0 [2B30E41B] [A16D5358]
03 100,0 [CA64F8B8] [6CAE9FBC]
04 100,0 [EAA6BE5D] [ADC60475]
05 100,0 [C0EBA5AD] [9346143D]
06 100,0 [B44FEB38] [B52E74BB]
07 100,0 [949618FB] [D8CB694F]
08 100,0 [1DA7E8A3] [126A61F7]
09 70,6 [AD543A8C] [D5FC8FD4]
10 84,1 [AE8AEA76] [9694010D]
11 88,6 [35B11F01] [D8CBEB14]
12 100,0 [209C54B4] [DF341F80]

V.A. - Soul Tenors: Milestones Of Jazz Legends (1957-1962) [10CD Box Set] (2020)

CD 9: Roland Kirk with Jack McDuff - Kirk's Work (1961) & Jack McDuff (with Jimmy Forrest) - Tough Duff (1960)
EAC Rip | FLAC (image+.cue+log) - 462 MB | MP3 CBR 320 kbps (LAME 3.93) - 171 MB
Genre: Jazz, Hard Bop, Soul Jazz | RAR 3% Rec. | Label: Documents/The Intense Media (600559 / I)

Tracklist:

Roland Kirk with Jack McDuff - Kirk's Work (1961):
01. Three For Dizzy
02. Makin' Whoopee
03. Funk Underneath
04. Kirk's Work
05. Doin' The Sixty-Eight
06. Too Late Now
07. Skater's Waltz

Jack McDuff (with Jimmy Forrest) - Tough Duff (1960):
08. Smooth Sailing
09. Mean To Me
10. Tippin' In
11. Yeah, Baby
12. Autumn Leaves
13. Tough 'Duff

Total time: 01:12:33

Exact Audio Copy V1.3 from 2. September 2016

EAC extraction logfile from 13. April 2021, 22:06

Various Artists / CD9 - Kirk's Work & Tough Duff

Used drive : TSSTcorpCDDVDW SH-224FB Adapter: 1 ID: 0

Read mode : Secure
Utilize accurate stream : Yes
Defeat audio cache : Yes
Make use of C2 pointers : No

Read offset correction : 6
Overread into Lead-In and Lead-Out : No
Fill up missing offset samples with silence : Yes
Delete leading and trailing silent blocks : No
Null samples used in CRC calculations : Yes
Used interface : Native Win32 interface for Win NT & 2000

Used output format : User Defined Encoder
Selected bitrate : 128 kBit/s
Quality : High
Add ID3 tag : No
Command line compressor : C:\Program Files (x86)\Exact Audio Copy\Flac\flac.exe
Additional command line options : -V -8 -T "Genre=%genre%" -T "Artist=%artist%" -T "Title=%title%" -T "Album=%albumtitle%" -T "Date=%year%" -T "Tracknumber=%tracknr%" -T "Comment=%comment%" %source%


TOC of the extracted CD

Track | Start | Length | Start sector | End sector
––––––––––––––––––––––––––––-
1 | 0:00.00 | 5:14.55 | 0 | 23604
2 | 5:14.55 | 5:09.57 | 23605 | 46836
3 | 10:24.37 | 6:19.43 | 46837 | 75304
4 | 16:44.05 | 3:57.20 | 75305 | 93099
5 | 20:41.25 | 4:23.60 | 93100 | 112884
6 | 25:05.10 | 3:54.30 | 112885 | 130464
7 | 28:59.40 | 4:28.39 | 130465 | 150603
8 | 33:28.04 | 6:47.38 | 150604 | 181166
9 | 40:15.42 | 5:40.40 | 181167 | 206706
10 | 45:56.07 | 5:23.50 | 206707 | 230981
11 | 51:19.57 | 8:55.36 | 230982 | 271142
12 | 60:15.18 | 5:14.24 | 271143 | 294716
13 | 65:29.42 | 7:03.03 | 294717 | 326444


Range status and errors

Selected range

Filename C:\ssagwebster\Various Artists - Soul Tenors (10CD, 2020)\CD09 - Roland Kirk & Jack McDuff-Kirk's Work & Tough Duff\Various Artists - CD9 - Kirk's Work & Tough Duff.wav

Peak level 96.1 %
Extraction speed 3.2 X
Range quality 100.0 %
Test CRC F111CB76
Copy CRC F111CB76
Copy OK

No errors occurred


AccurateRip summary

Track 1 not present in database
Track 2 not present in database
Track 3 not present in database
Track 4 not present in database
Track 5 not present in database
Track 6 not present in database
Track 7 not present in database
Track 8 not present in database
Track 9 not present in database
Track 10 not present in database
Track 11 not present in database
Track 12 not present in database
Track 13 not present in database

None of the tracks are present in the AccurateRip database

End of status report

–– CUETools DB Plugin V2.1.6

[CTDB TOCID: aKYtjIG0qANgoP80lisyjwLes0Y-] disk not present in database
Submit result: aKYtjIG0qANgoP80lisyjwLes0Y- has been uploaded


==== Log checksum BB2B259EFBB1D780747C52B845B36736DC05AA29DBD20499A92DF339340E873A ====

[CUETools log; Date: 06.05.2021 18:40:18; Version: 2.1.4]
[CTDB TOCID: aKYtjIG0qANgoP80lisyjwLes0Y-] found.
Track | CTDB Status
1 | (1/1) Accurately ripped
2 | (1/1) Accurately ripped
3 | (1/1) Accurately ripped
4 | (1/1) Accurately ripped
5 | (1/1) Accurately ripped
6 | (1/1) Accurately ripped
7 | (1/1) Accurately ripped
8 | (1/1) Accurately ripped
9 | (1/1) Accurately ripped
10 | (1/1) Accurately ripped
11 | (1/1) Accurately ripped
12 | (1/1) Accurately ripped
13 | (1/1) Accurately ripped
[AccurateRip ID: 0020b6da-014a40d9-9911000d] disk not present in database.

Track Peak [ CRC32 ] [W/O NULL] [ LOG ]
– 96,1 [F111CB76] [C0176F19] CRC32
01 96,1 [AA4AC88E] [645F8B37]
02 96,1 [1F2E2088] [66429279]
03 96,1 [13915DFF] [AC0761BA]
04 96,1 [F560ADD2] [6A7BFFB2]
05 96,1 [A90DCE8D] [DD13C81F]
06 96,1 [CAC8FF52] [76E058CD]
07 96,1 [4F066AEF] [1961D3A3]
08 82,7 [4D216871] [9F484F9D]
09 84,6 [75D3B5E3] [6B49219E]
10 84,1 [A94BD7BB] [DF6AA2EF]
11 83,1 [D312D3B4] [A170204D]
12 84,3 [57E329E0] [1ED72041]
13 83,6 [04499C6A] [5DDD3C94]

V.A. - Soul Tenors: Milestones Of Jazz Legends (1957-1962) [10CD Box Set] (2020)

CD 10: Sam "The Man" Taylor - Plays The Bad And The Beautiful (1962) & David Newman - Fathead Comes On (1962)
EAC Rip | FLAC (image+.cue+log) - 393 MB | MP3 CBR 320 kbps (LAME 3.93) - 152 MB
Genre: Jazz, Soul Jazz, Hard Bop | RAR 3% Rec. | Label: Documents/The Intense Media (600559 / J)

Tracklist:

Sam "The Man" Taylor - Plays The Bad And The Beautiful (1962):
01. Ruby
02. Love Song From Suzie Wong
03. Laura
04. Anastasia
05. Gloria
06. Barefoot Contessa
07. The Bad And The Beautiful
08. Anna (El Negro Zumbon)

David Newman - Fathead Comes On (1962):
09. Unchain My Heart
10. Cellar Groove
11. Alto Sauce
12. Hello There
13. Scufflin'
14. Esther's Melody
15. Lady Day

Total time: 01:04:31

Exact Audio Copy V1.3 from 2. September 2016

EAC extraction logfile from 14. April 2021, 12:00

Various Artists / CD10 - The Bad And The Beautiful & Fathead Comes On

Used drive : TSSTcorpCDDVDW SH-224FB Adapter: 1 ID: 0

Read mode : Secure
Utilize accurate stream : Yes
Defeat audio cache : Yes
Make use of C2 pointers : No

Read offset correction : 6
Overread into Lead-In and Lead-Out : No
Fill up missing offset samples with silence : Yes
Delete leading and trailing silent blocks : No
Null samples used in CRC calculations : Yes
Used interface : Native Win32 interface for Win NT & 2000

Used output format : User Defined Encoder
Selected bitrate : 128 kBit/s
Quality : High
Add ID3 tag : No
Command line compressor : C:\Program Files (x86)\Exact Audio Copy\Flac\flac.exe
Additional command line options : -V -8 -T "Genre=%genre%" -T "Artist=%artist%" -T "Title=%title%" -T "Album=%albumtitle%" -T "Date=%year%" -T "Tracknumber=%tracknr%" -T "Comment=%comment%" %source%


TOC of the extracted CD

Track | Start | Length | Start sector | End sector
––––––––––––––––––––––––––––-
1 | 0:00.00 | 4:12.18 | 0 | 18917
2 | 4:12.18 | 2:35.38 | 18918 | 30580
3 | 6:47.56 | 5:37.37 | 30581 | 55892
4 | 12:25.18 | 3:12.37 | 55893 | 70329
5 | 15:37.55 | 3:55.61 | 70330 | 88015
6 | 19:33.41 | 3:26.31 | 88016 | 103496
7 | 22:59.72 | 3:43.13 | 103497 | 120234
8 | 26:43.10 | 4:44.38 | 120235 | 141572
9 | 31:27.48 | 3:08.30 | 141573 | 155702
10 | 34:36.03 | 5:40.66 | 155703 | 181268
11 | 40:16.69 | 3:42.66 | 181269 | 197984
12 | 43:59.60 | 4:31.36 | 197985 | 218345
13 | 48:31.21 | 5:17.17 | 218346 | 242137
14 | 53:48.38 | 4:04.47 | 242138 | 260484
15 | 57:53.10 | 6:37.66 | 260485 | 290325


Range status and errors

Selected range

Filename C:\ssagwebster\Various Artists - Soul Tenors (10CD, 2020)\CD10 - Sam Taylor & David Newman-The Bad And The Beautiful & Fathead Comes On\Various Artists - CD10 - The Bad And The Beautiful & Fathead Comes On.wav

Peak level 96.2 %
Extraction speed 3.2 X
Range quality 100.0 %
Test CRC 75A5943D
Copy CRC 75A5943D
Copy OK

No errors occurred


AccurateRip summary

Track 1 not present in database
Track 2 not present in database
Track 3 not present in database
Track 4 not present in database
Track 5 not present in database
Track 6 not present in database
Track 7 not present in database
Track 8 not present in database
Track 9 not present in database
Track 10 not present in database
Track 11 not present in database
Track 12 not present in database
Track 13 not present in database
Track 14 not present in database
Track 15 not present in database

None of the tracks are present in the AccurateRip database

End of status report

–– CUETools DB Plugin V2.1.6

[CTDB TOCID: b6IQ9fvz8OOFAH98zecvOHvJo4w-] disk not present in database
Submit result: b6IQ9fvz8OOFAH98zecvOHvJo4w- has been uploaded


==== Log checksum FC20E5A49B2D8ECEAAF1B5D86D2FDA633B6D1D399D7FB5ACCE5E7C92F996124D ====

[CUETools log; Date: 06.05.2021 18:41:17; Version: 2.1.4]
[CTDB TOCID: b6IQ9fvz8OOFAH98zecvOHvJo4w-] found.
Track | CTDB Status
1 | (1/1) Accurately ripped
2 | (1/1) Accurately ripped
3 | (1/1) Accurately ripped
4 | (1/1) Accurately ripped
5 | (1/1) Accurately ripped
6 | (1/1) Accurately ripped
7 | (1/1) Accurately ripped
8 | (1/1) Accurately ripped
9 | (1/1) Accurately ripped
10 | (1/1) Accurately ripped
11 | (1/1) Accurately ripped
12 | (1/1) Accurately ripped
13 | (1/1) Accurately ripped
14 | (1/1) Accurately ripped
15 | (1/1) Accurately ripped
[AccurateRip ID: 0021313f-017bf618-d90f1f0f] disk not present in database.

Track Peak [ CRC32 ] [W/O NULL] [ LOG ]
– 96,2 [75A5943D] [D745D61B] CRC32
01 96,2 [A2D9DB7B] [78265D15]
02 96,2 [434C6F37] [EE3E24CA]
03 95,3 [4B1DE74C] [7251EEAA]
04 96,2 [95AD2F44] [0778CDE2]
05 96,2 [17BD2B48] [FFA06127]
06 96,2 [CAB6DE0C] [50B71E08]
07 96,2 [2584CBF9] [199F13BC]
08 96,2 [6479418E] [A9499D46]
09 92,8 [751BBC2C] [13EF16D4]
10 90,4 [BB320E61] [205446B9]
11 88,5 [F0EE088B] [B09671AD]
12 82,7 [7EFFD50F] [DB5FCDEE]
13 92,9 [4AEF2944] [26C6E23B]
14 86,4 [C32449DD] [5078B1E5]
15 90,7 [2C2AEB8E] [7DB02D17]

Thanks to ssagwebster