Subcategories
Tags
Language
Tags

Van Morrison - Avalon Sunset (1989) Expanded Remastered 2008

Posted By: Designol
Van Morrison - Avalon Sunset (1989) Expanded Remastered 2008

Van Morrison - Avalon Sunset (1989) Expanded Remastered 2008
EAC | FLAC | Image (Cue&Log) ~ 317 Mb | Mp3 (CBR320) ~ 120 Mb | Scans ~ 144 Mb
Label: Exile, Polydor | # 5305449 | Time: 00:52:46
Singer-Songwriter, Pop Rock, Folk-Rock, Blues, Blue-Eyed Soul

Avalon Sunset is the nineteenth studio album by Northern Irish singer-songwriter Van Morrison. It was released in 1989 by Mercury Records to both commercial and critical success. On 9 January 2008, Avalon Sunset was reissued and remastered, featuring an alternative take of "Whenever God Shines His Light" and a version of "When the Saints Go Marching In" with additional lyrics by Morrison. Includes original artwork and full lyrics to Van Morrison compositions 12 tracks. At the end of 1989, Christgau named Avalon Sunset the 22nd best album of the year in his list for the annual Pazz & Jop critics poll. The Times ranked it 63rd their 1993 list of "All Time Top 100 Albums".

Van Morrison scored one of his biggest commercial successes with Avalon Sunset, a record highlighted by the gorgeous "Have I Told You Lately," one of his most heartfelt love songs and a major radio hit which helped introduce his music to a new generation of listeners. Not a consistently strong LP, Avalon Sunset is nevertheless the work of a master craftsman, its lush orchestration and atmospheric production casting an irresistibly elegant spell; a deeply spiritual record, it also includes the standout opener, "Whenever God Shines His Light," a collaboration with Cliff Richard.

Review by Jason Ankeny, Allmusic.com

Van Morrison - Avalon Sunset (1989) Expanded Remastered 2008



Tracklist:

01. Whenever God Shines His Light (4:56) with Cliff Richard
02. Contacting My Angel (4:59)
03. I'd Love To Write Another Song (2:55)
04. Have I Told You Lately? (4:20)
05. Coney Island (2:03)
06. I'm Tired Joey Boy (2:33)
07. When Will I Ever Learn To Live In God? (5:39)
08. Orangefield (3:52)
09. Daring Night (6:14)
10. These Are The Days (5:19)

Bonus Tracks:
11. Whenever God Shines His Light (Alternative Take) (3:52)
12. When The Saints Go Marching In (6:04)


Exact Audio Copy V1.0 beta 3 from 29. August 2011

EAC extraction logfile from 5. July 2013, 11:17

Van Morrison / Avalon Sunset

Used drive : PLEXTOR DVDR PX-891SA Adapter: 0 ID: 2

Read mode : Secure
Utilize accurate stream : Yes
Defeat audio cache : Yes
Make use of C2 pointers : No

Read offset correction : 6
Overread into Lead-In and Lead-Out : No
Fill up missing offset samples with silence : Yes
Delete leading and trailing silent blocks : No
Null samples used in CRC calculations : Yes
Used interface : Installed external ASPI interface

Used output format : User Defined Encoder
Selected bitrate : 320 kBit/s
Quality : High
Add ID3 tag : No
Command line compressor : C:\Program Files\Exact Audio Copy 1.0\Flac\flac.exe
Additional command line options : -V -8 -T "Genre=%genre%" -T "Artist=%artist%" -T "Title=%title%" -T "Album=%albumtitle%" -T "Date=%year%" -T "Tracknumber=%tracknr%" -T "Comment=%comment%" %source%


TOC of the extracted CD

Track | Start | Length | Start sector | End sector
––––––––––––––––––––––––––––-
1 | 0:00.00 | 4:56.16 | 0 | 22215
2 | 4:56.16 | 4:58.66 | 22216 | 44631
3 | 9:55.07 | 2:54.47 | 44632 | 57728
4 | 12:49.54 | 4:20.30 | 57729 | 77258
5 | 17:10.09 | 2:03.10 | 77259 | 86493
6 | 19:13.19 | 2:33.20 | 86494 | 97988
7 | 21:46.39 | 5:38.57 | 97989 | 123395
8 | 27:25.21 | 3:52.30 | 123396 | 140825
9 | 31:17.51 | 6:13.58 | 140826 | 168858
10 | 37:31.34 | 5:19.18 | 168859 | 192801
11 | 42:50.52 | 3:51.51 | 192802 | 210177
12 | 46:42.28 | 6:03.55 | 210178 | 237457


Range status and errors

Selected range

Filename K:\Lossless Temp\Van Morrison\Van Morrison - Avalon Sunset - 1989 (2008 Exile Productions LTD, 5305449)\Van Morrison - Avalon Sunset.wav

Peak level 100.0 %
Extraction speed 7.2 X
Range quality 100.0 %
Test CRC A10746A6
Copy CRC A10746A6
Copy OK

No errors occurred


AccurateRip summary

Track 1 accurately ripped (confidence 15) [602D4D2A] (AR v2)
Track 2 accurately ripped (confidence 15) [B65A83B8] (AR v2)
Track 3 accurately ripped (confidence 15) [DA60AF46] (AR v2)
Track 4 accurately ripped (confidence 15) [5DCC07E4] (AR v2)
Track 5 accurately ripped (confidence 15) [193A6285] (AR v2)
Track 6 accurately ripped (confidence 15) [E84F1185] (AR v2)
Track 7 accurately ripped (confidence 15) [5B2474C4] (AR v2)
Track 8 accurately ripped (confidence 15) [33E8DBFE] (AR v2)
Track 9 accurately ripped (confidence 15) [DE19BA4E] (AR v2)
Track 10 accurately ripped (confidence 15) [F7CB15D0] (AR v2)
Track 11 accurately ripped (confidence 14) [DA5F08BE] (AR v2)
Track 12 accurately ripped (confidence 15) [4AB659A3] (AR v2)

All tracks accurately ripped

End of status report

==== Log checksum 48A1537C6E7910AF2A5F796987A42F4320266C753B0D7CB778FA8D4CACEC3A12 ====

[CUETools log; Date: 13.10.2019 17:19:55; Version: 2.1.4]
[CTDB TOCID: P2Kfm6QNr7pVu_I06gTJefmIVb8-] found.
Track | CTDB Status
1 | (151/152) Accurately ripped
2 | (152/152) Accurately ripped
3 | (152/152) Accurately ripped
4 | (151/152) Accurately ripped
5 | (151/152) Accurately ripped
6 | (152/152) Accurately ripped
7 | (152/152) Accurately ripped
8 | (151/152) Accurately ripped
9 | (150/152) Accurately ripped
10 | (149/152) Accurately ripped
11 | (147/152) Accurately ripped
12 | (149/152) Accurately ripped
[AccurateRip ID: 0016467e-00d0a43b-ac0c5e0c] found.
Track [ CRC | V2 ] Status
01 [bfbcbb73|602d4d2a] (065+114/188) Accurately ripped
02 [935ea249|b65a83b8] (065+111/185) Accurately ripped
03 [8f6d87c0|da60af46] (065+114/188) Accurately ripped
04 [8a7a734d|5dcc07e4] (066+113/188) Accurately ripped
05 [277eb271|193a6285] (065+113/187) Accurately ripped
06 [a0a23dbc|e84f1185] (065+112/186) Accurately ripped
07 [0d64e625|5b2474c4] (066+112/187) Accurately ripped
08 [34fc36e0|33e8dbfe] (064+112/185) Accurately ripped
09 [235d79f3|de19ba4e] (065+113/187) Accurately ripped
10 [d91ce62f|f7cb15d0] (065+110/184) Accurately ripped
11 [3979e815|da5f08be] (063+110/182) Accurately ripped
12 [89145fb3|4ab659a3] (064+111/184) Accurately ripped
Offsetted by -646:
01 [d3ac3388] (002/188) Accurately ripped
02 [7a0ea5b8] (002/185) Accurately ripped
03 [8a45b8de] (002/188) Accurately ripped
04 [6ed66334] (002/188) Accurately ripped
05 [c62874ea] (002/187) Accurately ripped
06 [d6e8cec2] (002/186) Accurately ripped
07 [af0ec16f] (002/187) Accurately ripped
08 [f603572e] (002/185) Accurately ripped
09 [45b5796f] (002/187) Accurately ripped
10 [851edccb] (002/184) Accurately ripped
11 [da073e54] (002/182) Accurately ripped
12 [8acf41cc] (002/184) Accurately ripped
Offsetted by 6:
01 [47f4f42e] (002/188) Accurately ripped
02 [09d0414a] (002/185) Accurately ripped
03 [406949a5] (002/188) Accurately ripped
04 [128afda2] (002/188) Accurately ripped
05 [1b735c49] (002/187) Accurately ripped
06 [691813eb] (002/186) Accurately ripped
07 [9865a9c8] (002/187) Accurately ripped
08 [5664ac78] (002/185) Accurately ripped
09 [1f986e30] (002/187) Accurately ripped
10 [468f0fb6] (002/184) Accurately ripped
11 [5e245af1] (002/182) Accurately ripped
12 [ee9aeb23] (002/184) Accurately ripped

Track Peak [ CRC32 ] [W/O NULL] [ LOG ]
– 100,0 [A10746A6] [C703146E] CRC32
01 100,0 [01127AAF] [190FB650]
02 99,9 [64EC55BC] [59CE0433]
03 100,0 [7481840C] [6B6062A5]
04 99,8 [465106D5] [5335026B]
05 99,9 [9FE6B3DD] [FF4B740B]
06 99,9 [A1F15BB2] [B8F38A5A]
07 100,0 [6F2ECBEC] [0C271F2D]
08 100,0 [EBD357F0] [AE1FAC60]
09 100,0 [3826B0C7] [0C353EA2]
10 100,0 [3B2CDF77] [3F106F4C]
11 100,0 [EB798749] [25BC78B6]
12 98,9 [51463D2F] [0F0C250B]

foobar2000 1.2 / Dynamic Range Meter 1.1.1
log date: 2019-10-13 16:59:19

––––––––––––––––––––––––––––––––––––––––
Analyzed: Van Morrison & Cliff Richard / Avalon Sunset (1)
Van Morrison / Avalon Sunset (2-12)
––––––––––––––––––––––––––––––––––––––––

DR Peak RMS Duration Track
––––––––––––––––––––––––––––––––––––––––
DR9 0.00 dB -11.86 dB 4:56 01-Whenever God Shines His Light
DR11 -0.01 dB -13.46 dB 4:59 02-Contacting My Angel
DR9 0.00 dB -11.11 dB 2:55 03-I'd Love To Write Another Song
DR10 -0.01 dB -12.47 dB 4:20 04-Have I Told You Lately?
DR11 0.00 dB -12.56 dB 2:03 05-Coney Island
DR11 0.00 dB -13.22 dB 2:33 06-I'm Tired Joey Boy
DR10 0.00 dB -11.92 dB 5:39 07-When Will I Ever Learn To Live In God?
DR9 0.00 dB -10.94 dB 3:52 08-Orangefield
DR10 0.00 dB -12.15 dB 6:14 09-Daring Night
DR10 0.00 dB -12.55 dB 5:19 10-These Are The Days
DR15 0.00 dB -16.87 dB 3:52 11-Whenever God Shines His Light (Alternative Take)
DR16 -0.09 dB -18.16 dB 6:04 12-When The Saints Go Marching In
––––––––––––––––––––––––––––––––––––––––

Number of tracks: 12
Official DR value: DR11

Samplerate: 44100 Hz
Channels: 2
Bits per sample: 16
Bitrate: 841 kbps
Codec: FLAC
================================================================================

Van Morrison - Avalon Sunset (1989) Expanded Remastered 2008

Van Morrison - Avalon Sunset (1989) Expanded Remastered 2008

All thanks to original releaser - Swamp Fox

More interesting music in My Blog