Subcategories

Victor Jara - Complete (1997) 4 CD Box Set [Re-Up]

Posted By: Designol
Victor Jara - Complete (1997) 4 CD Box Set [Re-Up]

Víctor Jara - Complete (1997) 4 CD Box Set
EAC | FLAC | Tracks (Cue&Log) ~ 1.3 Gb | Mp3 (CBR320) ~ 676 Mb
Label: pläne | # 88747 | Time: 04:54:11 | Scans ~ 15 Mb
Singer/Songwriter, Folk, Nueva Canción, South American

Víctor Lidio Jara Martínez was a Chilean teacher, theater director, poet, singer-songwriter, and political activist. He developed Chilean theater by directing a broad array of works, ranging from locally produced plays to world classics, as well as the experimental work of playwrights such as Ann Jellicoe. He also played a pivotal role among neo-folkloric musicians who established the Nueva Canción Chilena (New Chilean Song) movement. This led to an uprising of new sounds in popular music during the administration of President Salvador Allende. Jara was arrested shortly after the Chilean coup of 11 September 1973, which overthrew Allende. He was tortured during interrogations and ultimately shot dead, and his body was thrown out on the street of a shantytown in Santiago. The contrast between the themes of his songs, which focused on love, peace, and social justice, and the brutal way in which he was murdered transformed Jara into a "potent symbol of struggle for human rights and justice" for those killed during the regime of Augusto Pinochet.

The facts of Victor Jara's tragic death are well documented. Arrested in the aftermath of a military coup d'état, Jara was one of many political prisoners led to the National Football Stadium where many were tortured, beaten, and executed. Although his hands were broken or, as many have claimed, amputated, Jara continued to sing a song supporting the ousted Popular Unity Party. After receiving many brutal blows, Jara stopped singing only when a machine gun fired by a military officer took his life. In the nearly three decades since, Jara's songs and spirit have been celebrated by numerous politically minded folksingers including Pete Seeger and Tom Paxton. Arlo Guthrie set Adrian Mitchell's words to music for the ballad "Victor Jara," recording the song on his album Amigo. Undoubtedly, although Jara's heart may have been forcefully stilled, his music has lived on.

The youngest of four children born to a ploughman (Manuel) and a semi-professional folksinger (Amanda), Jara grew up in severe poverty. Raised on a feudal-like farm, he lived on the bags of flour and occasional fruit that his father earned from his labors. By the age of six or seven, he was already accompanying his father to work in the fields. Family life was extremely difficult as his father increasingly began drinking to escape his woes. When a pot of boiling water fell on his sister, he joined his mother and moved to Santiago, the site of the only hospital equipped to treat his sister's burns. While in Santiago, his mother took a job at a food stand at an open market, but in March 1950, Jara received word that his mother had died from a stroke suffered while she was at work.

For the next three years, he struggled through school while sleeping at the homes of friends. At the age of 15, Jara left school and entered the Redemptist Order in San Bernardo, a small village south of Santiago. His quest to become a priest, however, lasted only a year. In 1952, he left the seminary and enlisted in the Chilean army. The following year, he was dismissed with honors. Jara's interests in theater and music soon became the dominant force in his life. Enrolling in the school of theater at the University of Chile, he studied acting. After completing his degree, he continued on to begin studies in theatrical directing. While at the school, he met his future wife, Joan Turner, a teacher from Great Britain. A turning point in Jara's musical career came when he met Violeta Parra, a traditional folksinger and artist and the owner of a small café in Santiago. Taken under Parra's wing, Jara began to sing more and more in the cafe. In 1966, he released his self-titled debut album. Four years later, he left the theater to devote his attention full-time to music.

From the beginning, Jara used his songwriting skills to supply a voice for Chile's working class and peasantry. Strongly supportive of the Communist Party, he was thrilled when Dr. Salvador Allende, the head of the Popular Unity Coalition, became the first socialist to be elected president of a Latin American country. Under Allende's leadership, the Popular Unity Coalition planned to strengthen educational support, increase low-income housing, and furnish free socialized medical care. Jara's dreams began to crumble, however, when on September 11, 1973, a military junta headed by Admiral Toribio Merino and Army General Augusto Pinochet, assisted by the United States via the Central Intelligence Agency, overthrew Allende and launched a brutal coup. Thousands of Popular Unity Coalition leaders and supporters were imprisoned with hundreds being subsequently executed. Jara was working at the State Technical University when it was surrounded by the military. Taken prisoner, he spent five days in a cold, dirty cell without adequate food or water, before being taken to the National Football Stadium. Although he was initially buried in a mass grave, his wife was permitted to provide him with a decent funeral and burial. She later left Chile in secret, taking many unreleased tapes of Jara's songs.

Review by Craig Harris, Allmusic.com

Victor Jara - Complete (1997) 4 CD Box Set [Re-Up]



Tracklist:

CD1 (1:12:47)

1966 - Canto A Lo Humano (Víctor Jara)
01. El Arado (3:34)
02. El Cigarrito (2:41)
03. La Flor Que Anda De Mano En Mano (2:01)
04. Deja La Vida Volar (3:26)
05. La Luna Siempre Es Muy Linda (3:28)
06. Ojitos Verdes (3:52)
07. La Cocinerita (2:29)
08. Paloma Quiero Contarte (3:03)
09. ¿Qué Saco Rogar Al Cielo? (3:07)
10. No Puedes Volver Atrás (2:57)
11. El Carretero (3:54)
12. Jai Jai (2:26)

1967 - El Verso Es Una Paloma (Desde Lonquén Hasta Siempre, Víctor Jara 1967)

13. El Aparecido (2:18)
14. El Lazo (3:55)
15. Qué Alegres Son Las Obreras (3:14)
16. Despedimiento Del Angelito (3:37)
17. Solo (3:17)
18. En Algún Lugar Del Puerto (4:22)
19. Así Como Hoy Matan Negros (2:16)
20. El Amor Es Un Camino Que De Repente Aparece (2:28)
21. Casi, Casi (2:04)
22. Canción De Cuna Para Un Niño Vago (3:42)
23. Romance Del Enamorado Y De La Muerte (2:53)
24. Ay, Mi Palomita (1:43)


CD2 (1:12:19)

1969 - Te Recuerdo Amanda (Pongo En Tus Manos Abiertas…)

01. Te Recuerdo Amanda (2:35)
02. Duerme, Duerme Negrito (2:51)
03. A Desalambrar! (1:39)
04. Juan Sin Tierra (3:09)
05. A Cochabamba Me Voy (2:29)
06. A Luis Emilio Recabarren (2:49)
07. El Martillo (2:50)
08. Camilo Torres (3:04)
09. Zamba Del "Che" (3:40)
10. Ya Parte El Galgo Terrible (1:53)
11. Preguntas Por Puerto Montt (2:42)
12. "Móvil" Oil Special (2:53)

1970 - Canto Libre

13. Inga (2:30)
14. Canción Del Árbol Del Olvido (2:55)
15. La Pala (3:28)
16. Lamento Borincano (4:10)
17. Ventolera (3:07)
18. El Tinku (3:28)
19. Angelita Huenumán (4:04)
20. Corrido De Pancho Villa (3:43)
21. Caminando, Caminando (2:43)
22. ¿Quién Mató A Carmencita? (4:49)
23. Canto Libre (4:48)


CD3 (1:14:29)

1971 - El Derecho De Vivir En Paz

01. El Derecho De Vivir En Paz (4:31)
02. Abre Tu Ventana (3:56)
03. La Partida (3:27)
04. A La Molina No Voy Más (3:14)
05. Vamos Por Ancho Camino (3:17)
06. El Niño Yuntero (3:44)
07. A Cuba (3:55)
08. Las Casitas Del Barrio Alto (2:26)
09. El Alma Llena De Banderas (3:57)
10. Ni Chicha Ni Limoná (3:20)
11. Plegaria A Un Labrador (3:13)
12. B.R.P. [Brigada Ramona Parra] (3:10)

1972 - La Población

13. Lo Único Que Tengo (3:17)
14. En El Río Mapocho (3:45)
15. Luchín (3:16)
16. La Toma - 16 Marzo 1967 (7:20)
17. La Carpa De Las Coligüillas (2:43)
18. El Hombre Es Un Creador (2:13)
19. Herminda De La Victoria (3:59)
20. Sacando Pecho Y Brazo (2:34)
21. Marcha De Los Pobladores (3:14)


CD4 (1:14:36)

1973 - Canto Por Travesura

01. Brindis (0:55)
02. La Palmatoria (3:16)
03. Vengan A Mi Casamiento (3:22)
04. La Fonda (2:20)
05. La Edad De La Mujer (2:24)
06. La Cafetera (2:06)
07. La Diuca (2:46)
08. Iba Yo Para Una Fiesta (3:04)
09. Por Un Pito Ruín (4:39)
10. La Beata (2:37)
11. Adivinanzas (1:00)
12. El Chincolito (1:58)

1975 - Presente (Víctor Jara Presente Chile Septiembre 1973)

13. Manifiesto (4:30)
14. Caicaivilu (3:13)
15. Cuando Voy Al Trabajo (3:53)
16. Lamento Borincano (4:10)
17. Pimiento (3:57)
18. Poema 15 (3:37)
19. Vientos Del Pueblo (2:37)
20. Aquí Me Quedo (3:02)
21. Venían Del Desierto (2:54)
22. Doncella Encantada (4:20)
23. El Arado [second version] (3:26)
24. Canto Libre [second version] (4:30)


Exact Audio Copy V1.0 beta 1 from 15. November 2010

EAC extraction logfile from 13. February 2011, 13:52

Victor Jara / Complete (CD1)

Used drive : Optiarc DVD RW AD-7240S Adapter: 2 ID: 1

Read mode : Secure
Utilize accurate stream : Yes
Defeat audio cache : Yes
Make use of C2 pointers : No

Read offset correction : 48
Overread into Lead-In and Lead-Out : No
Fill up missing offset samples with silence : Yes
Delete leading and trailing silent blocks : No
Null samples used in CRC calculations : Yes
Used interface : Native Win32 interface for Win NT & 2000
Gap handling : Appended to previous track

Used output format : User Defined Encoder
Selected bitrate : 896 kBit/s
Quality : High
Add ID3 tag : No
Command line compressor : C:\Program Files (x86)\Exact Audio Copy New\FLAC\FLAC.EXE
Additional command line options : -8 -V -T "ARTIST=%a" -T "TITLE=%t" -T "ALBUM=%g" -T "DATE=%y" -T "TRACKNUMBER=%n" -T "GENRE=%m" -T "COMMENT=EAC FLAC -8" %s


TOC of the extracted CD

Track | Start | Length | Start sector | End sector
––––––––––––––––––––––––––––-
1 | 0:00.00 | 3:34.12 | 0 | 16061
2 | 3:34.12 | 2:41.28 | 16062 | 28164
3 | 6:15.40 | 2:01.15 | 28165 | 37254
4 | 8:16.55 | 3:26.25 | 37255 | 52729
5 | 11:43.05 | 3:27.45 | 52730 | 68299
6 | 15:10.50 | 3:51.50 | 68300 | 85674
7 | 19:02.25 | 2:28.50 | 85675 | 96824
8 | 21:31.00 | 3:03.25 | 96825 | 110574
9 | 24:34.25 | 3:07.05 | 110575 | 124604
10 | 27:41.30 | 2:56.50 | 124605 | 137854
11 | 30:38.05 | 3:54.22 | 137855 | 155426
12 | 34:32.27 | 2:25.73 | 155427 | 166374
13 | 36:58.25 | 2:18.37 | 166375 | 176761
14 | 39:16.62 | 3:54.65 | 176762 | 194376
15 | 43:11.52 | 3:14.23 | 194377 | 208949
16 | 46:26.00 | 3:36.57 | 208950 | 225206
17 | 50:02.57 | 3:16.45 | 225207 | 239951
18 | 53:19.27 | 4:22.28 | 239952 | 259629
19 | 57:41.55 | 2:16.05 | 259630 | 269834
20 | 59:57.60 | 2:27.57 | 269835 | 280916
21 | 62:25.42 | 2:03.45 | 280917 | 290186
22 | 64:29.12 | 3:41.68 | 290187 | 306829
23 | 68:11.05 | 2:52.65 | 306830 | 319794
24 | 71:03.70 | 1:43.10 | 319795 | 327529


Track 1

Filename C:\Lossless\Victor Jara - 1997 - Complete [flac]\CD1\01 - El Arado.wav

Pre-gap length 0:00:02.00

Peak level 75.8 %
Extraction speed 2.1 X
Track quality 99.9 %
Test CRC 83C81DE1
Copy CRC 83C81DE1
Cannot be verified as accurate (confidence 2) [019069AD], AccurateRip returned [79B3FBBD]
Copy OK

Track 2

Filename C:\Lossless\Victor Jara - 1997 - Complete [flac]\CD1\02 - El Cigarrito.wav

Peak level 57.6 %
Extraction speed 2.1 X
Track quality 99.9 %
Test CRC E5F06E4E
Copy CRC E5F06E4E
Cannot be verified as accurate (confidence 2) [ED7193DA], AccurateRip returned [C2022892]
Copy OK

Track 3

Filename C:\Lossless\Victor Jara - 1997 - Complete [flac]\CD1\03 - La Flor Que Anda De Mano En Mano.wav

Peak level 65.1 %
Extraction speed 2.0 X
Track quality 99.9 %
Test CRC 3816B568
Copy CRC 3816B568
Cannot be verified as accurate (confidence 2) [DA711EC2], AccurateRip returned [8FCB9FEA]
Copy OK

Track 4

Filename C:\Lossless\Victor Jara - 1997 - Complete [flac]\CD1\04 - Deja La Vida Volar.wav

Peak level 68.3 %
Extraction speed 2.9 X
Track quality 100.0 %
Test CRC C28B5A57
Copy CRC C28B5A57
Cannot be verified as accurate (confidence 2) [5D883CBA], AccurateRip returned [EE9AE112]
Copy OK

Track 5

Filename C:\Lossless\Victor Jara - 1997 - Complete [flac]\CD1\05 - La Luna Siempre Es Muy Linda.wav

Peak level 53.2 %
Extraction speed 3.1 X
Track quality 100.0 %
Test CRC F06B4976
Copy CRC F06B4976
Cannot be verified as accurate (confidence 2) [5813E465], AccurateRip returned [43D80705]
Copy OK

Track 6

Filename C:\Lossless\Victor Jara - 1997 - Complete [flac]\CD1\06 - Ojitos Verdes.wav

Peak level 63.6 %
Extraction speed 3.3 X
Track quality 100.0 %
Test CRC 2DCDB244
Copy CRC 2DCDB244
Cannot be verified as accurate (confidence 2) [A4C64280], AccurateRip returned [21F78878]
Copy OK

Track 7

Filename C:\Lossless\Victor Jara - 1997 - Complete [flac]\CD1\07 - La Cocinerita.wav

Peak level 82.0 %
Extraction speed 3.1 X
Track quality 100.0 %
Test CRC 8C2E7E05
Copy CRC 8C2E7E05
Cannot be verified as accurate (confidence 2) [8F2B4DD5], AccurateRip returned [E90F9B3D]
Copy OK

Track 8

Filename C:\Lossless\Victor Jara - 1997 - Complete [flac]\CD1\08 - Paloma Quiero Contarte.wav

Peak level 79.5 %
Extraction speed 3.4 X
Track quality 100.0 %
Test CRC DF4A9376
Copy CRC DF4A9376
Cannot be verified as accurate (confidence 2) [9AD06199], AccurateRip returned [017C7781]
Copy OK

Track 9

Filename C:\Lossless\Victor Jara - 1997 - Complete [flac]\CD1\09 - Que Saco Rogar Al Cielo.wav

Peak level 69.6 %
Extraction speed 3.6 X
Track quality 100.0 %
Test CRC FEA8C5B4
Copy CRC FEA8C5B4
Cannot be verified as accurate (confidence 2) [B35C78BD], AccurateRip returned [ACFBC965]
Copy OK

Track 10

Filename C:\Lossless\Victor Jara - 1997 - Complete [flac]\CD1\10 - No Puedes Volver Atras.wav

Peak level 68.8 %
Extraction speed 3.1 X
Track quality 99.9 %
Test CRC 1A2CF697
Copy CRC 1A2CF697
Cannot be verified as accurate (confidence 2) [92BD0B8E], AccurateRip returned [1816001E]
Copy OK

Track 11

Filename C:\Lossless\Victor Jara - 1997 - Complete [flac]\CD1\11 - El Carretero.wav

Peak level 75.2 %
Extraction speed 3.9 X
Track quality 100.0 %
Test CRC E06318C7
Copy CRC E06318C7
Cannot be verified as accurate (confidence 2) [B5C31EF8], AccurateRip returned [D55726E8]
Copy OK

Track 12

Filename C:\Lossless\Victor Jara - 1997 - Complete [flac]\CD1\12 - Jai Jai.wav

Peak level 82.4 %
Extraction speed 3.7 X
Track quality 100.0 %
Test CRC 55418368
Copy CRC 55418368
Cannot be verified as accurate (confidence 2) [E08A237E], AccurateRip returned [A620BF2E]
Copy OK

Track 13

Filename C:\Lossless\Victor Jara - 1997 - Complete [flac]\CD1\13 - El Aparecido.wav

Peak level 66.7 %
Extraction speed 3.1 X
Track quality 99.9 %
Test CRC 302A115C
Copy CRC 302A115C
Cannot be verified as accurate (confidence 2) [846962CA], AccurateRip returned [F227350A]
Copy OK

Track 14

Filename C:\Lossless\Victor Jara - 1997 - Complete [flac]\CD1\14 - El Lazo.wav

Peak level 67.3 %
Extraction speed 4.3 X
Track quality 100.0 %
Test CRC F1D4436D
Copy CRC F1D4436D
Cannot be verified as accurate (confidence 2) [7D41705E], AccurateRip returned [D52FEADE]
Copy OK

Track 15

Filename C:\Lossless\Victor Jara - 1997 - Complete [flac]\CD1\15 - Que Alegres Son Las Obreras.wav

Peak level 83.0 %
Extraction speed 4.3 X
Track quality 100.0 %
Test CRC 978822AB
Copy CRC 978822AB
Cannot be verified as accurate (confidence 2) [BC6D6648], AccurateRip returned [B28993B0]
Copy OK

Track 16

Filename C:\Lossless\Victor Jara - 1997 - Complete [flac]\CD1\16 - Despedimiento Del Angelito.wav

Peak level 53.3 %
Extraction speed 4.4 X
Track quality 100.0 %
Test CRC F41FD789
Copy CRC F41FD789
Cannot be verified as accurate (confidence 2) [20C16FE4], AccurateRip returned [74ED4ADC]
Copy OK

Track 17

Filename C:\Lossless\Victor Jara - 1997 - Complete [flac]\CD1\17 - Solo.wav

Peak level 83.5 %
Extraction speed 4.4 X
Track quality 100.0 %
Test CRC 4FD9BF69
Copy CRC 4FD9BF69
Cannot be verified as accurate (confidence 2) [CF20C48A], AccurateRip returned [70517E2A]
Copy OK

Track 18

Filename C:\Lossless\Victor Jara - 1997 - Complete [flac]\CD1\18 - En Algun Lugar Del Puerto.wav

Peak level 67.9 %
Extraction speed 4.8 X
Track quality 100.0 %
Test CRC 6710521A
Copy CRC 6710521A
Cannot be verified as accurate (confidence 2) [07907274], AccurateRip returned [9A741A1C]
Copy OK

Track 19

Filename C:\Lossless\Victor Jara - 1997 - Complete [flac]\CD1\19 - Asi Como Hoy Matan Negros.wav

Peak level 70.6 %
Extraction speed 4.3 X
Track quality 100.0 %
Test CRC FD1AA00B
Copy CRC FD1AA00B
Cannot be verified as accurate (confidence 2) [0A740AF5], AccurateRip returned [056D7415]
Copy OK

Track 20

Filename C:\Lossless\Victor Jara - 1997 - Complete [flac]\CD1\20 - El Amor Es Un Camino Que De Repente Aparece.wav

Peak level 82.7 %
Extraction speed 3.7 X
Track quality 99.9 %
Test CRC F5AD4F33
Copy CRC F5AD4F33
Cannot be verified as accurate (confidence 2) [FEC1321B], AccurateRip returned [272296A3]
Copy OK

Track 21

Filename C:\Lossless\Victor Jara - 1997 - Complete [flac]\CD1\21 - Casi, Casi.wav

Peak level 86.3 %
Extraction speed 4.4 X
Track quality 100.0 %
Test CRC E6636A15
Copy CRC E6636A15
Cannot be verified as accurate (confidence 2) [0D235898], AccurateRip returned [CC2A3800]
Copy OK

Track 22

Filename C:\Lossless\Victor Jara - 1997 - Complete [flac]\CD1\22 - Cancion De Cuna Para Un Nino Vago.wav

Peak level 71.1 %
Extraction speed 5.1 X
Track quality 100.0 %
Test CRC C28A22C3
Copy CRC C28A22C3
Cannot be verified as accurate (confidence 2) [0ABDA297], AccurateRip returned [247B40BF]
Copy OK

Track 23

Filename C:\Lossless\Victor Jara - 1997 - Complete [flac]\CD1\23 - Romance Del Enamorado Y De La Muerte.wav

Peak level 72.2 %
Extraction speed 4.9 X
Track quality 100.0 %
Test CRC 1AF5C5AE
Copy CRC 1AF5C5AE
Cannot be verified as accurate (confidence 2) [0D9CAF62], AccurateRip returned [75DF5CBA]
Copy OK

Track 24

Filename C:\Lossless\Victor Jara - 1997 - Complete [flac]\CD1\24 - Ay, Mi Palomita.wav

Peak level 87.9 %
Extraction speed 4.5 X
Track quality 100.0 %
Test CRC B52A606A
Copy CRC B52A606A
Cannot be verified as accurate (confidence 2) [64783B9B], AccurateRip returned [DB6B49F3]
Copy OK


No tracks could be verified as accurate
You may have a different pressing from the one(s) in the database

No errors occurred

End of status report

==== Log checksum AB7964568F01259A342F4FD87822D06A41641C2C294500756E7A5DE6E4147D88 ====

[CUETools log; Date: 06.01.2018 1:54:16; Version: 2.1.4]
[CTDB TOCID: f0DePjYsfkM2QEdD5Yr.ja.G2ps-] found.
Track | CTDB Status
1 | (17/17) Accurately ripped
2 | (17/17) Accurately ripped
3 | (17/17) Accurately ripped
4 | (17/17) Accurately ripped
5 | (17/17) Accurately ripped
6 | (17/17) Accurately ripped
7 | (17/17) Accurately ripped
8 | (17/17) Accurately ripped
9 | (17/17) Accurately ripped
10 | (17/17) Accurately ripped
11 | (17/17) Accurately ripped
12 | (17/17) Accurately ripped
13 | (17/17) Accurately ripped
14 | (17/17) Accurately ripped
15 | (17/17) Accurately ripped
16 | (17/17) Accurately ripped
17 | (17/17) Accurately ripped
18 | (17/17) Accurately ripped
19 | (17/17) Accurately ripped
20 | (17/17) Accurately ripped
21 | (17/17) Accurately ripped
22 | (16/17) Accurately ripped
23 | (17/17) Accurately ripped
24 | (17/17) Accurately ripped
[AccurateRip ID: 003fc76d-04527893-63110f18] found.
Track [ CRC | V2 ] Status
01 [019069ad|4431421c] (02+00/11) Accurately ripped
02 [ed7193da|dd878fd7] (02+00/11) Accurately ripped
03 [da711ec2|b46fa215] (02+00/11) Accurately ripped
04 [5d883cba|364af726] (02+00/11) Accurately ripped
05 [5813e465|7005e423] (02+00/11) Accurately ripped
06 [a4c64280|99f2c584] (02+00/11) Accurately ripped
07 [8f2b4dd5|6f3f7607] (02+00/11) Accurately ripped
08 [9ad06199|662f8914] (02+00/11) Accurately ripped
09 [b35c78bd|c48c706b] (02+00/11) Accurately ripped
10 [92bd0b8e|b53dcf66] (02+00/11) Accurately ripped
11 [b5c31ef8|029d586e] (02+00/11) Accurately ripped
12 [e08a237e|55c75db9] (02+00/11) Accurately ripped
13 [846962ca|4dd3ee3b] (02+00/11) Accurately ripped
14 [7d41705e|a1a3cbef] (02+00/11) Accurately ripped
15 [bc6d6648|d5a511c1] (02+00/11) Accurately ripped
16 [20c16fe4|8f988036] (02+00/11) Accurately ripped
17 [cf20c48a|0178bcca] (02+00/11) Accurately ripped
18 [07907274|ef070c8c] (02+00/11) Accurately ripped
19 [0a740af5|61b666eb] (02+00/11) Accurately ripped
20 [fec1321b|ca40bfa3] (02+00/11) Accurately ripped
21 [0d235898|0d8b3ed9] (02+00/11) Accurately ripped
22 [0abda297|64680b96] (02+00/11) Accurately ripped
23 [0d9caf62|4aa7d1a3] (02+00/11) Accurately ripped
24 [64783b9b|1b68a5ad] (02+00/11) Accurately ripped
Offsetted by 664:
01 [79b3fbbd] (02/11) Accurately ripped
02 [c2022892] (02/11) Accurately ripped
03 [8fcb9fea] (02/11) Accurately ripped
04 [ee9ae112] (02/11) Accurately ripped
05 [43d80705] (02/11) Accurately ripped
06 [21f78878] (02/11) Accurately ripped
07 [e90f9b3d] (02/11) Accurately ripped
08 [017c7781] (02/11) Accurately ripped
09 [acfbc965] (02/11) Accurately ripped
10 [1816001e] (02/11) Accurately ripped
11 [d55726e8] (02/11) Accurately ripped
12 [a620bf2e] (02/11) Accurately ripped
13 [f227350a] (02/11) Accurately ripped
14 [d52feade] (02/11) Accurately ripped
15 [b28993b0] (02/11) Accurately ripped
16 [74ed4adc] (02/11) Accurately ripped
17 [70517e2a] (02/11) Accurately ripped
18 [9a741a1c] (02/11) Accurately ripped
19 [056d7415] (02/11) Accurately ripped
20 [272296a3] (02/11) Accurately ripped
21 [cc2a3800] (02/11) Accurately ripped
22 [247b40bf] (02/11) Accurately ripped
23 [75df5cba] (02/11) Accurately ripped
24 [db6b49f3] (02/11) Accurately ripped
Offsetted by -5:
01 [3ebb535f] (00/11) No match (V2 was not tested)
02 [bba676f9] (00/11) No match (V2 was not tested)
03 [618ee57f] (00/11) No match (V2 was not tested)
04 [ae2cb92d] (00/11) No match (V2 was not tested)
05 [c9d8afc0] (00/11) No match (V2 was not tested)
06 [5689b9e1] (00/11) No match (V2 was not tested)
07 [4aa307da] (00/11) No match (V2 was not tested)
08 [3eaad82e] (00/11) No match (V2 was not tested)
09 [9b1ebdea] (00/11) No match (V2 was not tested)
10 [44a03b10] (00/11) No match (V2 was not tested)
11 [a67cfe86] (00/11) No match (V2 was not tested)
12 [e2e83bc4] (00/11) No match (V2 was not tested)
13 [161760d2] (00/11) No match (V2 was not tested)
14 [4576012e] (00/11) No match (V2 was not tested)
15 [45c13c4d] (00/11) No match (V2 was not tested)
16 [33036b8b] (00/11) No match (V2 was not tested)
17 [031e791e] (00/11) No match (V2 was not tested)
18 [69ed9381] (00/11) No match (V2 was not tested)
19 [c3efd9f9] (00/11) No match (V2 was not tested)
20 [6816d2e4] (00/11) No match (V2 was not tested)
21 [c89d82dd] (00/11) No match (V2 was not tested)
22 [ed3ee7f4] (00/11) No match (V2 was not tested)
23 [12397bf5] (00/11) No match (V2 was not tested)
24 [0fe94b4e] (00/11) No match (V2 was not tested)

Track Peak [ CRC32 ] [W/O NULL] [ LOG ]
– 87,9 [FFED7F14] [2B720CF4]
01 75,8 [83C81DE1] [902E19DB] CRC32
02 57,6 [E5F06E4E] [0A36F49D] CRC32
03 65,1 [3816B568] [1C8C050A] CRC32
04 68,3 [C28B5A57] [22159B55] CRC32
05 53,2 [F06B4976] [B99AB918] CRC32
06 63,6 [2DCDB244] [9A02CD93] CRC32
07 82,0 [8C2E7E05] [F0324C9C] CRC32
08 79,5 [DF4A9376] [6508899C] CRC32
09 69,6 [FEA8C5B4] [BDCB4FD2] CRC32
10 68,8 [1A2CF697] [A487429F] CRC32
11 75,2 [E06318C7] [66B4B494] CRC32
12 82,4 [55418368] [21811BF1] CRC32
13 66,7 [302A115C] [908534AC] CRC32
14 67,3 [F1D4436D] [ED41272C] CRC32
15 83,0 [978822AB] [A60D287D] CRC32
16 53,3 [F41FD789] [7562941E] CRC32
17 83,5 [4FD9BF69] [52087BA1] CRC32
18 67,9 [6710521A] [D8A90525] CRC32
19 70,6 [FD1AA00B] [924BB946] CRC32
20 82,7 [F5AD4F33] [BD964E7B] CRC32
21 86,3 [E6636A15] [249D0AAA] CRC32
22 71,1 [C28A22C3] [7DCA5235] CRC32
23 72,2 [1AF5C5AE] [047AE0CD] CRC32
24 87,9 [B52A606A] [0130CE6E] CRC32

foobar2000 1.2 / Dynamic Range Meter 1.1.1
log date: 2018-01-06 02:33:57

––––––––––––––––––––––––––––––––––––––––
Analyzed: Víctor Jara / Complete (CD1)
––––––––––––––––––––––––––––––––––––––––

DR Peak RMS Duration Track
––––––––––––––––––––––––––––––––––––––––
DR9 -2.40 dB -14.60 dB 3:34 01-El Arado
DR9 -4.79 dB -16.96 dB 2:41 02-El Cigarrito
DR10 -3.72 dB -16.05 dB 2:01 03-La Flor Que Anda De Mano En Mano
DR10 -3.31 dB -15.76 dB 3:26 04-Deja La Vida Volar
DR11 -5.48 dB -21.12 dB 3:28 05-La Luna Siempre Es Muy Linda
DR10 -3.93 dB -16.68 dB 3:52 06-Ojitos Verdes
DR9 -1.72 dB -13.79 dB 2:29 07-La Cocinerita
DR8 -1.99 dB -13.49 dB 3:03 08-Paloma Quiero Contarte
DR8 -3.14 dB -13.89 dB 3:07 09-¿Qué Saco Rogar Al Cielo?
DR10 -3.24 dB -16.80 dB 2:57 10-No Puedes Volver Atrás
DR9 -2.47 dB -14.22 dB 3:54 11-El Carretero
DR8 -1.68 dB -11.89 dB 2:26 12-Jai Jai
DR9 -3.51 dB -14.64 dB 2:18 13-El Aparecido
DR10 -3.43 dB -16.35 dB 3:55 14-El Lazo
DR9 -1.61 dB -13.54 dB 3:14 15-Qué Alegres Son Las Obreras
DR10 -5.46 dB -18.77 dB 3:37 16-Despedimiento Del Angelito
DR9 -1.57 dB -14.81 dB 3:17 17-Solo
DR9 -3.35 dB -14.88 dB 4:22 18-En Algún Lugar Del Puerto
DR9 -3.02 dB -13.69 dB 2:16 19-Así Como Hoy Matan Negros
DR9 -1.64 dB -12.36 dB 2:28 20-El Amor Es Un Camino Que De Repente Aparece
DR10 -1.28 dB -13.49 dB 2:04 21-Casi, Casi
DR9 -2.96 dB -13.78 dB 3:42 22-Canción De Cuna Para Un Niño Vago
DR10 -2.83 dB -14.52 dB 2:53 23-Romance Del Enamorado Y De La Muerte
DR11 -1.12 dB -13.54 dB 1:43 24-Ay, Mi Palomita
––––––––––––––––––––––––––––––––––––––––

Number of tracks: 24
Official DR value: DR9

Samplerate: 44100 Hz
Channels: 2
Bits per sample: 16
Bitrate: 731 kbps
Codec: FLAC
================================================================================


Exact Audio Copy V1.0 beta 1 from 15. November 2010

EAC extraction logfile from 13. February 2011, 14:42

Victor Jara / Complete (CD2)

Used drive : Optiarc DVD RW AD-7240S Adapter: 2 ID: 1

Read mode : Secure
Utilize accurate stream : Yes
Defeat audio cache : Yes
Make use of C2 pointers : No

Read offset correction : 48
Overread into Lead-In and Lead-Out : No
Fill up missing offset samples with silence : Yes
Delete leading and trailing silent blocks : No
Null samples used in CRC calculations : Yes
Used interface : Native Win32 interface for Win NT & 2000
Gap handling : Appended to previous track

Used output format : User Defined Encoder
Selected bitrate : 896 kBit/s
Quality : High
Add ID3 tag : No
Command line compressor : C:\Program Files (x86)\Exact Audio Copy New\FLAC\FLAC.EXE
Additional command line options : -8 -V -T "ARTIST=%a" -T "TITLE=%t" -T "ALBUM=%g" -T "DATE=%y" -T "TRACKNUMBER=%n" -T "GENRE=%m" -T "COMMENT=EAC FLAC -8" %s


TOC of the extracted CD

Track | Start | Length | Start sector | End sector
––––––––––––––––––––––––––––-
1 | 0:00.00 | 2:34.55 | 0 | 11604
2 | 2:34.55 | 2:51.37 | 11605 | 24466
3 | 5:26.17 | 1:38.63 | 24467 | 31879
4 | 7:05.05 | 3:09.10 | 31880 | 46064
5 | 10:14.15 | 2:28.45 | 46065 | 57209
6 | 12:42.60 | 2:48.70 | 57210 | 69879
7 | 15:31.55 | 2:50.30 | 69880 | 82659
8 | 18:22.10 | 3:03.47 | 82660 | 96431
9 | 21:25.57 | 3:39.68 | 96432 | 112924
10 | 25:05.50 | 1:52.70 | 112925 | 121394
11 | 26:58.45 | 2:41.42 | 121395 | 133511
12 | 29:40.12 | 2:53.15 | 133512 | 146501
13 | 32:33.27 | 2:29.45 | 146502 | 157721
14 | 35:02.72 | 2:55.25 | 157722 | 170871
15 | 37:58.22 | 3:28.35 | 170872 | 186506
16 | 41:26.57 | 4:10.18 | 186507 | 205274
17 | 45:37.00 | 3:06.65 | 205275 | 219289
18 | 48:43.65 | 3:27.60 | 219290 | 234874
19 | 52:11.50 | 4:03.57 | 234875 | 253156
20 | 56:15.32 | 3:43.00 | 253157 | 269881
21 | 59:58.32 | 2:43.33 | 269882 | 282139
22 | 62:41.65 | 4:49.37 | 282140 | 303851
23 | 67:31.27 | 4:47.53 | 303852 | 325429


Track 1

Filename C:\Lossless\Victor Jara - 1997 - Complete [flac]\CD2\01 - Te Recuerdo Amanda.wav

Pre-gap length 0:00:02.00

Peak level 71.6 %
Extraction speed 1.9 X
Track quality 99.9 %
Test CRC F3AD4CDB
Copy CRC F3AD4CDB
Cannot be verified as accurate (confidence 2) [5F2AD384], AccurateRip returned [8668867C]
Copy OK

Track 2

Filename C:\Lossless\Victor Jara - 1997 - Complete [flac]\CD2\02 - Duerme, Duerme Negrito.wav

Peak level 78.9 %
Extraction speed 2.5 X
Track quality 100.0 %
Test CRC 164E8F5B
Copy CRC 164E8F5B
Cannot be verified as accurate (confidence 2) [072A3457], AccurateRip returned [04084B57]
Copy OK

Track 3

Filename C:\Lossless\Victor Jara - 1997 - Complete [flac]\CD2\03 - A Desalambrar.wav

Peak level 72.5 %
Extraction speed 2.2 X
Track quality 100.0 %
Test CRC 7BAFC223
Copy CRC 7BAFC223
Cannot be verified as accurate (confidence 2) [E89B3948], AccurateRip returned [0D542250]
Copy OK

Track 4

Filename C:\Lossless\Victor Jara - 1997 - Complete [flac]\CD2\04 - Juan Sin Tierra.wav

Peak level 69.3 %
Extraction speed 2.7 X
Track quality 100.0 %
Test CRC A0697BED
Copy CRC A0697BED
Cannot be verified as accurate (confidence 2) [69496A2F], AccurateRip returned [A037CB37]
Copy OK

Track 5

Filename C:\Lossless\Victor Jara - 1997 - Complete [flac]\CD2\05 - A Cochabamba Me Voy.wav

Peak level 69.0 %
Extraction speed 2.8 X
Track quality 100.0 %
Test CRC 49E796A8
Copy CRC 49E796A8
Cannot be verified as accurate (confidence 2) [7CEBB3D0], AccurateRip returned [24C47680]
Copy OK

Track 6

Filename C:\Lossless\Victor Jara - 1997 - Complete [flac]\CD2\06 - A Luis Emilio Recabarren.wav

Peak level 69.3 %
Extraction speed 3.0 X
Track quality 100.0 %
Test CRC 0AC44C8E
Copy CRC 0AC44C8E
Cannot be verified as accurate (confidence 2) [31033220], AccurateRip returned [FBEC2480]
Copy OK

Track 7

Filename C:\Lossless\Victor Jara - 1997 - Complete [flac]\CD2\07 - El Martillo.wav

Peak level 74.5 %
Extraction speed 3.1 X
Track quality 100.0 %
Test CRC 63326E92
Copy CRC 63326E92
Cannot be verified as accurate (confidence 2) [C0DC4E87], AccurateRip returned [1E99964F]
Copy OK

Track 8

Filename C:\Lossless\Victor Jara - 1997 - Complete [flac]\CD2\08 - Camilo Torres.wav

Peak level 68.0 %
Extraction speed 2.8 X
Track quality 99.9 %
Test CRC 151038C8
Copy CRC 151038C8
Cannot be verified as accurate (confidence 2) [F7B81F86], AccurateRip returned [90A54576]
Copy OK

Track 9

Filename C:\Lossless\Victor Jara - 1997 - Complete [flac]\CD2\09 - Zamba Del Che.wav

Peak level 68.7 %
Extraction speed 3.5 X
Track quality 100.0 %
Test CRC C74CCB1E
Copy CRC C74CCB1E
Cannot be verified as accurate (confidence 2) [090829E5], AccurateRip returned [EDF0FBA5]
Copy OK

Track 10

Filename C:\Lossless\Victor Jara - 1997 - Complete [flac]\CD2\10 - Ya Parte El Galgo Terrible.wav

Peak level 75.9 %
Extraction speed 3.2 X
Track quality 100.0 %
Test CRC D80D2988
Copy CRC D80D2988
Cannot be verified as accurate (confidence 2) [4E5E39F9], AccurateRip returned [A1FBD6F1]
Copy OK

Track 11

Filename C:\Lossless\Victor Jara - 1997 - Complete [flac]\CD2\11 - Preguntas Por Puerto Montt.wav

Peak level 67.5 %
Extraction speed 3.5 X
Track quality 100.0 %
Test CRC 855217D2
Copy CRC 855217D2
Cannot be verified as accurate (confidence 2) [9DFAA737], AccurateRip returned [26B05717]
Copy OK

Track 12

Filename C:\Lossless\Victor Jara - 1997 - Complete [flac]\CD2\12 - Movil Oil Special.wav

Peak level 68.3 %
Extraction speed 3.7 X
Track quality 100.0 %
Test CRC 403354B6
Copy CRC 403354B6
Cannot be verified as accurate (confidence 2) [A6825CF6], AccurateRip returned [3C1A7326]
Copy OK

Track 13

Filename C:\Lossless\Victor Jara - 1997 - Complete [flac]\CD2\13 - Inga.wav

Peak level 73.2 %
Extraction speed 3.7 X
Track quality 100.0 %
Test CRC 0F0FDE72
Copy CRC 0F0FDE72
Cannot be verified as accurate (confidence 2) [92D9B599], AccurateRip returned [42CAC031]
Copy OK

Track 14

Filename C:\Lossless\Victor Jara - 1997 - Complete [flac]\CD2\14 - Cancion Del Arbol Del Olvido.wav

Peak level 53.5 %
Extraction speed 3.3 X
Track quality 99.9 %
Test CRC 2DCF1598
Copy CRC 2DCF1598
Cannot be verified as accurate (confidence 2) [CD9D2FFF], AccurateRip returned [36B99C87]
Copy OK

Track 15

Filename C:\Lossless\Victor Jara - 1997 - Complete [flac]\CD2\15 - La Pala.wav

Peak level 66.0 %
Extraction speed 4.1 X
Track quality 100.0 %
Test CRC 19C104B4
Copy CRC 19C104B4
Cannot be verified as accurate (confidence 2) [D95757D3], AccurateRip returned [FC805453]
Copy OK

Track 16

Filename C:\Lossless\Victor Jara - 1997 - Complete [flac]\CD2\16 - Lamento Borincano.wav

Peak level 65.7 %
Extraction speed 4.4 X
Track quality 100.0 %
Test CRC 7A090C83
Copy CRC 7A090C83
Cannot be verified as accurate (confidence 2) [9AF284E4], AccurateRip returned [87D115F4]
Copy OK

Track 17

Filename C:\Lossless\Victor Jara - 1997 - Complete [flac]\CD2\17 - Ventolera.wav

Peak level 70.2 %
Extraction speed 4.3 X
Track quality 100.0 %
Test CRC 8E0A5326
Copy CRC 8E0A5326
Cannot be verified as accurate (confidence 2) [50D2B93C], AccurateRip returned [9AB673F4]
Copy OK

Track 18

Filename C:\Lossless\Victor Jara - 1997 - Complete [flac]\CD2\18 - El Tinku.wav

Peak level 70.7 %
Extraction speed 4.5 X
Track quality 100.0 %
Test CRC F95F9F8B
Copy CRC F95F9F8B
Accurately ripped (confidence 2) [3A24D28E]
Copy OK

Track 19

Filename C:\Lossless\Victor Jara - 1997 - Complete [flac]\CD2\19 - Angelita Huenumán.wav

Peak level 70.3 %
Extraction speed 4.2 X
Track quality 99.9 %
Test CRC AAB46268
Copy CRC AAB46268
Cannot be verified as accurate (confidence 2) [60B1BA70], AccurateRip returned [B2ABB5A8]
Copy OK

Track 20

Filename C:\Lossless\Victor Jara - 1997 - Complete [flac]\CD2\20 - Corrido De Pancho Villa.wav

Peak level 70.6 %
Extraction speed 4.8 X
Track quality 100.0 %
Test CRC 9BD77275
Copy CRC 9BD77275
Cannot be verified as accurate (confidence 2) [07261CEB], AccurateRip returned [7EDA139B]
Copy OK

Track 21

Filename C:\Lossless\Victor Jara - 1997 - Complete [flac]\CD2\21 - Caminando, Caminando.wav

Peak level 69.9 %
Extraction speed 4.7 X
Track quality 100.0 %
Test CRC 64A38AF5
Copy CRC 64A38AF5
Cannot be verified as accurate (confidence 2) [0B6B7E25], AccurateRip returned [F9163F55]
Copy OK

Track 22

Filename C:\Lossless\Victor Jara - 1997 - Complete [flac]\CD2\22 - Quien Mato A Carmencita.wav

Peak level 54.8 %
Extraction speed 5.2 X
Track quality 100.0 %
Test CRC 25159C3F
Copy CRC 25159C3F
Cannot be verified as accurate (confidence 2) [CEB417A0], AccurateRip returned [ACFD9550]
Copy OK

Track 23

Filename C:\Lossless\Victor Jara - 1997 - Complete [flac]\CD2\23 - Canto Libre.wav

Peak level 71.5 %
Extraction speed 5.4 X
Track quality 100.0 %
Test CRC 0A94DB0B
Copy CRC 0A94DB0B
Track not present in AccurateRip database
Copy OK


1 track(s) accurately ripped
21 track(s) could not be verified as accurate
1 track(s) not present in the AccurateRip database

Some tracks could not be verified as accurate

No errors occurred

End of status report

==== Log checksum 9D21A4A0CAB61A6FF44B811345CC4B82FA81CC0E52BFC1D57050E1B63A926E99 ====

[CUETools log; Date: 06.01.2018 1:54:40; Version: 2.1.4]
[CTDB TOCID: G3dYGKgDRUXaS4zCPKPCr4Opy3Q-] found.
Track | CTDB Status
1 | (15/15) Accurately ripped
2 | (15/15) Accurately ripped
3 | (15/15) Accurately ripped
4 | (15/15) Accurately ripped
5 | (15/15) Accurately ripped
6 | (15/15) Accurately ripped
7 | (15/15) Accurately ripped
8 | (15/15) Accurately ripped
9 | (15/15) Accurately ripped
10 | (15/15) Accurately ripped
11 | (15/15) Accurately ripped
12 | (15/15) Accurately ripped
13 | (15/15) Accurately ripped
14 | (15/15) Accurately ripped
15 | (15/15) Accurately ripped
16 | (15/15) Accurately ripped
17 | (15/15) Accurately ripped
18 | (15/15) Accurately ripped
19 | (15/15) Accurately ripped
20 | (15/15) Accurately ripped
21 | (15/15) Accurately ripped
22 | (15/15) Accurately ripped
23 | (15/15) Accurately ripped
[AccurateRip ID: 003611ef-03964164-4010f317] found.
Track [ CRC | V2 ] Status
01 [5f2ad384|1282629c] (02+00/11) Accurately ripped
02 [072a3457|dd9beaf8] (02+00/11) Accurately ripped
03 [e89b3948|0bef8f20] (02+00/11) Accurately ripped
04 [69496a2f|ddf285de] (02+00/11) Accurately ripped
05 [7cebb3d0|bd2e79e9] (02+00/11) Accurately ripped
06 [31033220|1fd3c5b8] (02+00/11) Accurately ripped
07 [c0dc4e87|3182c4e3] (02+00/11) Accurately ripped
08 [f7b81f86|d7f4c3a6] (02+00/11) Accurately ripped
09 [090829e5|2d135111] (02+00/11) Accurately ripped
10 [4e5e39f9|2665af94] (02+00/11) Accurately ripped
11 [9dfaa737|2bbc4950] (02+00/11) Accurately ripped
12 [a6825cf6|846c19d0] (02+00/11) Accurately ripped
13 [92d9b599|24bf5a0d] (02+00/11) Accurately ripped
14 [cd9d2fff|e554ed10] (02+00/11) Accurately ripped
15 [d95757d3|bbec2b9e] (02+00/11) Accurately ripped
16 [9af284e4|b9b75a87] (02+00/11) Accurately ripped
17 [50d2b93c|19a0c5e9] (02+00/11) Accurately ripped
18 [3a24d28e|b8829018] (03+00/12) Accurately ripped
19 [60b1ba70|64a4e4b5] (02+00/11) Accurately ripped
20 [07261ceb|124bf9d2] (02+00/11) Accurately ripped
21 [0b6b7e25|625fa444] (02+00/11) Accurately ripped
22 [ceb417a0|1638d2a3] (02+00/11) Accurately ripped
23 [b1f27912|8c4aa088] (02+00/09) Accurately ripped
Offsetted by -5:
01 [4a0d722b] (00/11) No match (V2 was not tested)
02 [aaa88837] (00/11) No match (V2 was not tested)
03 [84797221] (00/11) No match (V2 was not tested)
04 [0fd01a08] (00/11) No match (V2 was not tested)
05 [b2ca11f6] (00/11) No match (V2 was not tested)
06 [acc9270c] (00/11) No match (V2 was not tested)
07 [bd74b678] (00/11) No match (V2 was not tested)
08 [14a3d4d4] (00/11) No match (V2 was not tested)
09 [396dbc5d] (00/11) No match (V2 was not tested)
10 [6791dbe0] (00/11) No match (V2 was not tested)
11 [89497a53] (00/11) No match (V2 was not tested)
12 [c24c660c] (00/11) No match (V2 was not tested)
13 [4dab8e94] (00/11) No match (V2 was not tested)
14 [3d03e9c8] (00/11) No match (V2 was not tested)
15 [8d1fe6e3] (00/11) No match (V2 was not tested)
16 [14ec3776] (00/11) No match (V2 was not tested)
17 [05db6b1b] (00/11) No match (V2 was not tested)
18 [762d49d8] (00/12) No match (V2 was not tested)
19 [50a7bfdf] (00/11) No match (V2 was not tested)
20 [288f8d91] (00/11) No match (V2 was not tested)
21 [4e41b99b] (00/11) No match (V2 was not tested)
22 [7835da26] (00/11) No match (V2 was not tested)
23 [c2d1f689] (00/09) No match (V2 was not tested)
Offsetted by 664:
01 [8668867c] (02/11) Accurately ripped
02 [04084b57] (02/11) Accurately ripped
03 [0d542250] (02/11) Accurately ripped
04 [a037cb37] (02/11) Accurately ripped
05 [24c47680] (02/11) Accurately ripped
06 [fbec2480] (02/11) Accurately ripped
07 [1e99964f] (02/11) Accurately ripped
08 [90a54576] (02/11) Accurately ripped
09 [edf0fba5] (02/11) Accurately ripped
10 [a1fbd6f1] (02/11) Accurately ripped
11 [26b05717] (02/11) Accurately ripped
12 [3c1a7326] (02/11) Accurately ripped
13 [42cac031] (02/11) Accurately ripped
14 [36b99c87] (02/11) Accurately ripped
15 [fc805453] (02/11) Accurately ripped
16 [87d115f4] (02/11) Accurately ripped
17 [9ab673f4] (02/11) Accurately ripped
18 [e28d575e] (02/12) Accurately ripped
19 [b2abb5a8] (02/11) Accurately ripped
20 [7eda139b] (02/11) Accurately ripped
21 [f9163f55] (02/11) Accurately ripped
22 [acfd9550] (02/11) Accurately ripped
23 [579c968a] (00/09) No match (V2 was not tested)

Track Peak [ CRC32 ] [W/O NULL] [ LOG ]
– 78,9 [4ACE473F] [47377BDA]
01 71,6 [F3AD4CDB] [48439F33] CRC32
02 78,9 [164E8F5B] [CC6FD847] CRC32
03 72,5 [7BAFC223] [CB334738] CRC32
04 69,3 [A0697BED] [FB69A6DE] CRC32
05 69,0 [49E796A8] [DC1DFF9D] CRC32
06 69,3 [0AC44C8E] [CFA9DC5B] CRC32
07 74,5 [63326E92] [80C4CDA5] CRC32
08 68,0 [151038C8] [5E23DA9D] CRC32
09 68,7 [C74CCB1E] [1702339C] CRC32
10 75,9 [D80D2988] [086AFAE1] CRC32
11 67,5 [855217D2] [5B18E144] CRC32
12 68,3 [403354B6] [918DF4FD] CRC32
13 73,2 [0F0FDE72] [820609F5] CRC32
14 53,5 [2DCF1598] [CE81D49C] CRC32
15 66,0 [19C104B4] [CAEF5D7A] CRC32
16 65,7 [7A090C83] [48327860] CRC32
17 70,2 [8E0A5326] [D26D9F23] CRC32
18 70,7 [F95F9F8B] [5E0F3687] CRC32
19 70,3 [AAB46268] [D75600DD] CRC32
20 70,6 [9BD77275] [77565A45] CRC32
21 69,9 [64A38AF5] [4A5C8BD5] CRC32
22 54,8 [25159C3F] [727C0379] CRC32
23 71,5 [0A94DB0B] [D45DC5C4] CRC32

foobar2000 1.2 / Dynamic Range Meter 1.1.1
log date: 2018-01-06 02:34:28

––––––––––––––––––––––––––––––––––––––––
Analyzed: Víctor Jara / Complete (CD2)
––––––––––––––––––––––––––––––––––––––––

DR Peak RMS Duration Track
––––––––––––––––––––––––––––––––––––––––
DR9 -2.89 dB -16.68 dB 2:35 01-Te Recuerdo Amanda
DR10 -2.05 dB -14.26 dB 2:51 02-Duerme, Duerme Negrito
DR9 -2.78 dB -14.11 dB 1:39 03-A Desalambrar!
DR8 -3.19 dB -14.20 dB 3:09 04-Juan Sin Tierra
DR10 -3.22 dB -15.33 dB 2:29 05-A Cochabamba Me Voy
DR9 -3.18 dB -16.56 dB 2:49 06-A Luis Emilio Recabarren
DR10 -2.55 dB -15.64 dB 2:50 07-El Martillo
DR8 -3.35 dB -15.85 dB 3:04 08-Camilo Torres
DR11 -3.26 dB -16.83 dB 3:40 09-Zamba Del "Che"
DR11 -2.39 dB -16.07 dB 1:53 10-Ya Parte El Galgo Terrible
DR9 -3.40 dB -16.50 dB 2:42 11-Preguntas Por Puerto Montt
DR10 -3.31 dB -15.17 dB 2:53 12-"Móvil" Oil Special
DR10 -2.70 dB -13.87 dB 2:30 13-Inga
DR8 -5.42 dB -17.15 dB 2:55 14-Canción Del Árbol Del Olvido
DR9 -3.61 dB -15.57 dB 3:28 15-La Pala
DR9 -3.64 dB -14.38 dB 4:10 16-Lamento Borincano
DR10 -3.06 dB -16.27 dB 3:07 17-Ventolera
DR10 -3.00 dB -15.18 dB 3:28 18-El Tinku
DR10 -3.05 dB -15.49 dB 4:04 19-Angelita Huenumán
DR9 -3.02 dB -14.33 dB 3:43 20-Corrido De Pancho Villa
DR10 -3.11 dB -15.45 dB 2:43 21-Caminando, Caminando
DR9 -5.22 dB -16.54 dB 4:49 22-¿Quién Mató A Carmencita?
DR10 -2.91 dB -15.86 dB 4:48 23-Canto Libre
––––––––––––––––––––––––––––––––––––––––

Number of tracks: 23
Official DR value: DR9

Samplerate: 44100 Hz
Channels: 2
Bits per sample: 16
Bitrate: 775 kbps
Codec: FLAC
================================================================================


Exact Audio Copy V1.0 beta 1 from 15. November 2010

EAC extraction logfile from 13. February 2011, 15:34

Victor Jara / Complete (CD3)

Used drive : Optiarc DVD RW AD-7240S Adapter: 2 ID: 1

Read mode : Secure
Utilize accurate stream : Yes
Defeat audio cache : Yes
Make use of C2 pointers : No

Read offset correction : 48
Overread into Lead-In and Lead-Out : No
Fill up missing offset samples with silence : Yes
Delete leading and trailing silent blocks : No
Null samples used in CRC calculations : Yes
Used interface : Native Win32 interface for Win NT & 2000
Gap handling : Appended to previous track

Used output format : User Defined Encoder
Selected bitrate : 896 kBit/s
Quality : High
Add ID3 tag : No
Command line compressor : C:\Program Files (x86)\Exact Audio Copy New\FLAC\FLAC.EXE
Additional command line options : -8 -V -T "ARTIST=%a" -T "TITLE=%t" -T "ALBUM=%g" -T "DATE=%y" -T "TRACKNUMBER=%n" -T "GENRE=%m" -T "COMMENT=EAC FLAC -8" %s


TOC of the extracted CD

Track | Start | Length | Start sector | End sector
––––––––––––––––––––––––––––-
1 | 0:00.00 | 4:30.72 | 0 | 20321
2 | 4:30.72 | 3:56.00 | 20322 | 38021
3 | 8:26.72 | 3:26.50 | 38022 | 53521
4 | 11:53.47 | 3:13.53 | 53522 | 68049
5 | 15:07.25 | 3:17.05 | 68050 | 82829
6 | 18:24.30 | 3:44.12 | 82830 | 99641
7 | 22:08.42 | 3:54.53 | 99642 | 117244
8 | 26:03.20 | 2:25.52 | 117245 | 128171
9 | 28:28.72 | 3:57.18 | 128172 | 145964
10 | 32:26.15 | 3:20.07 | 145965 | 160971
11 | 35:46.22 | 3:13.05 | 160972 | 175451
12 | 38:59.27 | 3:09.50 | 175452 | 189676
13 | 42:09.02 | 3:16.43 | 189677 | 204419
14 | 45:25.45 | 3:44.60 | 204420 | 221279
15 | 49:10.30 | 3:16.00 | 221280 | 235979
16 | 52:26.30 | 7:19.60 | 235980 | 268964
17 | 59:46.15 | 2:42.55 | 268965 | 281169
18 | 62:28.70 | 2:12.62 | 281170 | 291131
19 | 64:41.57 | 3:59.33 | 291132 | 309089
20 | 68:41.15 | 2:34.37 | 309090 | 320676
21 | 71:15.52 | 3:13.55 | 320677 | 335206


Track 1

Filename C:\Lossless\Victor Jara - 1997 - Complete [flac]\CD3\01 - El Derecho De Vivir En Paz.wav

Pre-gap length 0:00:02.00

Peak level 72.5 %
Extraction speed 2.3 X
Track quality 99.9 %
Test CRC CE9C04F6
Copy CRC CE9C04F6
Cannot be verified as accurate (confidence 2) [A182F817], AccurateRip returned [889265B7]
Copy OK

Track 2

Filename C:\Lossless\Victor Jara - 1997 - Complete [flac]\CD3\02 - Abre Tu Ventana.wav

Peak level 72.0 %
Extraction speed 2.8 X
Track quality 100.0 %
Test CRC 588804C2
Copy CRC 588804C2
Cannot be verified as accurate (confidence 2) [1033F3BA], AccurateRip returned [96DCAF56]
Copy OK

Track 3

Filename C:\Lossless\Victor Jara - 1997 - Complete [flac]\CD3\03 - La Partida.wav

Peak level 72.4 %
Extraction speed 2.9 X
Track quality 100.0 %
Test CRC BC53A718
Copy CRC BC53A718
Cannot be verified as accurate (confidence 2) [2827EA64], AccurateRip returned [2BE840DC]
Copy OK

Track 4

Filename C:\Lossless\Victor Jara - 1997 - Complete [flac]\CD3\04 - A La Molina No Voy Mas.wav

Peak level 71.9 %
Extraction speed 3.1 X
Track quality 100.0 %
Test CRC CE734927
Copy CRC CE734927
Cannot be verified as accurate (confidence 2) [3D860990], AccurateRip returned [335AB758]
Copy OK

Track 5

Filename C:\Lossless\Victor Jara - 1997 - Complete [flac]\CD3\05 - Vamos Por Ancho Camino.wav

Peak level 72.0 %
Extraction speed 3.2 X
Track quality 100.0 %
Test CRC 2B67F6FB
Copy CRC 2B67F6FB
Cannot be verified as accurate (confidence 2) [EDA66C5E], AccurateRip returned [115FD452]
Copy OK

Track 6

Filename C:\Lossless\Victor Jara - 1997 - Complete [flac]\CD3\06 - El Nino Yuntero.wav

Peak level 72.2 %
Extraction speed 3.4 X
Track quality 100.0 %
Test CRC 146CB489
Copy CRC 146CB489
Cannot be verified as accurate (confidence 2) [263A5B3D], AccurateRip returned [2D4B44C5]
Copy OK

Track 7

Filename C:\Lossless\Victor Jara - 1997 - Complete [flac]\CD3\07 - A Cuba.wav

Peak level 72.9 %
Extraction speed 3.6 X
Track quality 100.0 %
Test CRC 58181F82
Copy CRC 58181F82
Cannot be verified as accurate (confidence 2) [474CCCFD], AccurateRip returned [593233B1]
Copy OK

Track 8

Filename C:\Lossless\Victor Jara - 1997 - Complete [flac]\CD3\08 - Las Casitas Del Barrio Alto.wav

Peak level 62.4 %
Extraction speed 3.4 X
Track quality 100.0 %
Test CRC B110ABB5
Copy CRC B110ABB5
Cannot be verified as accurate (confidence 2) [F9BB897F], AccurateRip returned [AA05FDCB]
Copy OK

Track 9

Filename C:\Lossless\Victor Jara - 1997 - Complete [flac]\CD3\09 - El Alma Llena De Banderas.wav

Peak level 68.4 %
Extraction speed 3.9 X
Track quality 100.0 %
Test CRC AAF41F99
Copy CRC AAF41F99
Cannot be verified as accurate (confidence 2) [5C352D5E], AccurateRip returned [1AEA388A]
Copy OK

Track 10

Filename C:\Lossless\Victor Jara - 1997 - Complete [flac]\CD3\10 - Ni Chicha Ni Limona.wav

Peak level 69.8 %
Extraction speed 3.9 X
Track quality 100.0 %
Test CRC 0712FB29
Copy CRC 0712FB29
Cannot be verified as accurate (confidence 2) [6A0BC73F], AccurateRip returned [5A10DEB7]
Copy OK

Track 11

Filename C:\Lossless\Victor Jara - 1997 - Complete [flac]\CD3\11 - Plegaria A Un Labrador.wav

Peak level 72.8 %
Extraction speed 4.0 X
Track quality 100.0 %
Test CRC DF03DDBA
Copy CRC DF03DDBA
Cannot be verified as accurate (confidence 2) [1D656874], AccurateRip returned [076017D0]
Copy OK

Track 12

Filename C:\Lossless\Victor Jara - 1997 - Complete [flac]\CD3\12 - B.R.P..wav

Peak level 72.2 %
Extraction speed 4.1 X
Track quality 100.0 %
Test CRC 5F8AFD1E
Copy CRC 5F8AFD1E
Cannot be verified as accurate (confidence 2) [C6B4B425], AccurateRip returned [333B3935]
Copy OK

Track 13

Filename C:\Lossless\Victor Jara - 1997 - Complete [flac]\CD3\13 - Lo Unico Que Tengo.wav

Peak level 70.5 %
Extraction speed 3.6 X
Track quality 99.9 %
Test CRC E769A606
Copy CRC E769A606
Cannot be verified as accurate (confidence 2) [B9E622E3], AccurateRip returned [EDCA159B]
Copy OK

Track 14

Filename C:\Lossless\Victor Jara - 1997 - Complete [flac]\CD3\14 - En El Rio Mapocho.wav

Peak level 71.9 %
Extraction speed 3.8 X
Track quality 99.9 %
Test CRC 726F0AB4
Copy CRC 726F0AB4
Cannot be verified as accurate (confidence 2) [9A5F5E09], AccurateRip returned [C6DFC679]
Copy OK

Track 15

Filename C:\Lossless\Victor Jara - 1997 - Complete [flac]\CD3\15 - Luchin.wav

Peak level 65.3 %
Extraction speed 4.5 X
Track quality 100.0 %
Test CRC 53AE274F
Copy CRC 53AE274F
Cannot be verified as accurate (confidence 2) [C7FFA85B], AccurateRip returned [54DCDD8B]
Copy OK

Track 16

Filename C:\Lossless\Victor Jara - 1997 - Complete [flac]\CD3\16 - La Toma - 16 Marzo 1967.wav

Peak level 77.4 %
Extraction speed 5.1 X
Track quality 100.0 %
Test CRC 5801A5AD
Copy CRC 5801A5AD
Cannot be verified as accurate (confidence 2) [32484E42], AccurateRip returned [168EE526]
Copy OK

Track 17

Filename C:\Lossless\Victor Jara - 1997 - Complete [flac]\CD3\17 - La Carpa De Las Coliguillas.wav

Peak level 71.1 %
Extraction speed 4.6 X
Track quality 100.0 %
Test CRC 248FA45A
Copy CRC 248FA45A
Cannot be verified as accurate (confidence 2) [E4D0D028], AccurateRip returned [44C5ED10]
Copy OK

Track 18

Filename C:\Lossless\Victor Jara - 1997 - Complete [flac]\CD3\18 - El Hombre Es Un Creador.wav

Peak level 71.8 %
Extraction speed 3.6 X
Track quality 99.9 %
Test CRC D76AF20C
Copy CRC D76AF20C
Cannot be verified as accurate (confidence 2) [88EC61A8], AccurateRip returned [27C20F34]
Copy OK

Track 19

Filename C:\Lossless\Victor Jara - 1997 - Complete [flac]\CD3\19 - Herminda De La Victoria.wav

Peak level 71.7 %
Extraction speed 5.1 X
Track quality 100.0 %
Test CRC E9B2ED8B
Copy CRC E9B2ED8B
Cannot be verified as accurate (confidence 2) [F6C5318E], AccurateRip returned [F0477BFA]
Copy OK

Track 20

Filename C:\Lossless\Victor Jara - 1997 - Complete [flac]\CD3\20 - Sacando Pecho Y Brazo.wav

Peak level 67.0 %
Extraction speed 4.8 X
Track quality 100.0 %
Test CRC 042DBF84
Copy CRC 042DBF84
Cannot be verified as accurate (confidence 2) [D987DF3A], AccurateRip returned [6EC4441A]
Copy OK

Track 21

Filename C:\Lossless\Victor Jara - 1997 - Complete [flac]\CD3\21 - Marcha De Los Pobladores.wav

Peak level 72.1 %
Extraction speed 5.1 X
Track quality 100.0 %
Test CRC 0FF9D088
Copy CRC 0FF9D088
Cannot be verified as accurate (confidence 2) [34B8002E], AccurateRip returned [29353B76]
Copy OK


No tracks could be verified as accurate
You may have a different pressing from the one(s) in the database

No errors occurred

End of status report

==== Log checksum 28CFEDA4309E0FE9F98772C8750803CD8E47B890704CAC8EB79249E860B86953 ====

[CUETools log; Date: 06.01.2018 1:55:14; Version: 2.1.4]
[CTDB TOCID: J_ji0rkULT3gyVSDQDQN.rEqd1U-] found.
Track | CTDB Status
1 | (16/16) Accurately ripped
2 | (16/16) Accurately ripped
3 | (16/16) Accurately ripped
4 | (16/16) Accurately ripped
5 | (16/16) Accurately ripped
6 | (16/16) Accurately ripped
7 | (16/16) Accurately ripped
8 | (16/16) Accurately ripped
9 | (16/16) Accurately ripped
10 | (16/16) Accurately ripped
11 | (16/16) Accurately ripped
12 | (16/16) Accurately ripped
13 | (16/16) Accurately ripped
14 | (16/16) Accurately ripped
15 | (16/16) Accurately ripped
16 | (16/16) Accurately ripped
17 | (16/16) Accurately ripped
18 | (16/16) Accurately ripped
19 | (16/16) Accurately ripped
20 | (16/16) Accurately ripped
21 | (16/16) Accurately ripped
[AccurateRip ID: 00392fd0-0368f046-2c117515] found.
Track [ CRC | V2 ] Status
01 [a182f817|8af8ca79] (02+00/11) Accurately ripped
02 [1033f3ba|9e2fd5d8] (02+00/11) Accurately ripped
03 [2827ea64|0d1d343d] (02+00/11) Accurately ripped
04 [3d860990|aeb8f954] (02+00/11) Accurately ripped
05 [eda66c5e|953bb3d4] (00+00/09) No match
06 [263a5b3d|5d6fc31c] (02+00/11) Accurately ripped
07 [474cccfd|0765a111] (02+00/11) Accurately ripped
08 [f9bb897f|ea7345f3] (02+00/11) Accurately ripped
09 [5c352d5e|694972c5] (02+00/11) Accurately ripped
10 [6a0bc73f|e42141d2] (02+00/11) Accurately ripped
11 [1d656874|56ebef29] (02+00/11) Accurately ripped
12 [c6b4b425|b6ce2f87] (02+00/11) Accurately ripped
13 [b9e622e3|fbbb0d69] (02+00/11) Accurately ripped
14 [9a5f5e09|e580916e] (02+00/11) Accurately ripped
15 [c7ffa85b|6dd38608] (02+00/11) Accurately ripped
16 [32484e42|41f45020] (02+00/11) Accurately ripped
17 [e4d0d028|af3cccc1] (02+00/11) Accurately ripped
18 [88ec61a8|254b9df6] (02+00/11) Accurately ripped
19 [f6c5318e|f6e3326b] (00+00/09) No match
20 [d987df3a|1ce7ae02] (02+00/11) Accurately ripped
21 [34b8002e|6d70739a] (02+00/11) Accurately ripped
Offsetted by 676:
01 [889265b7] (02/11) Accurately ripped
02 [96dcaf56] (02/11) Accurately ripped
03 [2be840dc] (02/11) Accurately ripped
04 [335ab758] (02/11) Accurately ripped
05 [115fd452] (02/09) Accurately ripped
06 [2d4b44c5] (02/11) Accurately ripped
07 [593233b1] (02/11) Accurately ripped
08 [aa05fdcb] (02/11) Accurately ripped
09 [1aea388a] (02/11) Accurately ripped
10 [5a10deb7] (02/11) Accurately ripped
11 [076017d0] (02/11) Accurately ripped
12 [333b3935] (02/11) Accurately ripped
13 [edca159b] (02/11) Accurately ripped
14 [c6dfc679] (02/11) Accurately ripped
15 [54dcdd8b] (02/11) Accurately ripped
16 [168ee526] (02/11) Accurately ripped
17 [44c5ed10] (02/11) Accurately ripped
18 [27c20f34] (02/11) Accurately ripped
19 [f0477bfa] (02/09) Accurately ripped
20 [6ec4441a] (02/11) Accurately ripped
21 [29353b76] (02/11) Accurately ripped
Offsetted by 7:
01 [32ac682f] (00/11) No match (V2 was not tested)
02 [d9edbf23] (00/11) No match (V2 was not tested)
03 [dc139066] (00/11) No match (V2 was not tested)
04 [4cf1e57e] (00/11) No match (V2 was not tested)
05 [796186d1] (00/09) No match (V2 was not tested)
06 [6b39653b] (00/11) No match (V2 was not tested)
07 [e56708c0] (00/11) No match (V2 was not tested)
08 [f0f45afc] (00/11) No match (V2 was not tested)
09 [67a663a3] (00/11) No match (V2 was not tested)
10 [21ed8901] (00/11) No match (V2 was not tested)
11 [122f93ed] (00/11) No match (V2 was not tested)
12 [63da73a1] (00/11) No match (V2 was not tested)
13 [2baac4d5] (00/11) No match (V2 was not tested)
14 [36db652d] (00/11) No match (V2 was not tested)
15 [e0efc54f] (00/11) No match (V2 was not tested)
16 [368a2c39] (00/11) No match (V2 was not tested)
17 [dddb4dce] (00/11) No match (V2 was not tested)
18 [958ce3d5] (00/11) No match (V2 was not tested)
19 [6cdb5f03] (00/09) No match (V2 was not tested)
20 [5078f882] (00/11) No match (V2 was not tested)
21 [4118babc] (00/11) No match (V2 was not tested)

Track Peak [ CRC32 ] [W/O NULL] [ LOG ]
– 77,4 [E372491B] [040AAA59]
01 72,5 [CE9C04F6] [9D944077] CRC32
02 72,0 [588804C2] [37643E89] CRC32
03 72,4 [BC53A718] [5F7FDCD5] CRC32
04 71,9 [CE734927] [73F146E0] CRC32
05 72,0 [2B67F6FB] [FDBD24DA] CRC32
06 72,2 [146CB489] [F9A57717] CRC32
07 72,9 [58181F82] [46C5146F] CRC32
08 62,4 [B110ABB5] [1CB1C2BA] CRC32
09 68,4 [AAF41F99] [C912A727] CRC32
10 69,8 [0712FB29] [56EABC28] CRC32
11 72,8 [DF03DDBA] [19FC1A73] CRC32
12 72,2 [5F8AFD1E] [E5D2ED1C] CRC32
13 70,5 [E769A606] [B3A6D83D] CRC32
14 71,9 [726F0AB4] [1E809516] CRC32
15 65,3 [53AE274F] [50103175] CRC32
16 77,4 [5801A5AD] [B8C55AED] CRC32
17 71,1 [248FA45A] [E29479B3] CRC32
18 71,8 [D76AF20C] [3BAA3919] CRC32
19 71,7 [E9B2ED8B] [94DAA86D] CRC32
20 67,0 [042DBF84] [9EEB4064] CRC32
21 72,1 [0FF9D088] [0AE0C876] CRC32

foobar2000 1.2 / Dynamic Range Meter 1.1.1
log date: 2018-01-06 02:35:01

––––––––––––––––––––––––––––––––––––––––
Analyzed: Víctor Jara / Complete (CD3)
––––––––––––––––––––––––––––––––––––––––

DR Peak RMS Duration Track
––––––––––––––––––––––––––––––––––––––––
DR8 -2.78 dB -12.20 dB 4:31 01-El Derecho De Vivir En Paz
DR9 -2.84 dB -13.20 dB 3:56 02-Abre Tu Ventana
DR8 -2.80 dB -13.70 dB 3:27 03-La Partida
DR9 -2.86 dB -13.73 dB 3:14 04-A La Molina No Voy Más
DR9 -2.84 dB -13.21 dB 3:17 05-Vamos Por Ancho Camino
DR9 -2.83 dB -14.53 dB 3:44 06-El Niño Yuntero
DR9 -2.74 dB -13.33 dB 3:55 07-A Cuba
DR11 -4.09 dB -17.63 dB 2:26 08-Las Casitas Del Barrio Alto
DR9 -3.29 dB -13.93 dB 3:57 09-El Alma Llena De Banderas
DR10 -3.12 dB -14.59 dB 3:20 10-Ni Chicha Ni Limoná
DR9 -2.75 dB -14.32 dB 3:13 11-Plegaria A Un Labrador
DR8 -2.82 dB -13.52 dB 3:10 12-B.R.P. [Brigada Ramona Parra]
DR10 -3.03 dB -17.69 dB 3:17 13-Lo Único Que Tengo
DR8 -2.86 dB -13.78 dB 3:45 14-En El Río Mapocho
DR11 -3.70 dB -17.95 dB 3:16 15-Luchín
DR11 -2.22 dB -16.80 dB 7:20 16-La Toma - 16 Marzo 1967
DR11 -2.96 dB -16.25 dB 2:43 17-La Carpa De Las Coligüillas
DR10 -2.87 dB -14.64 dB 2:13 18-El Hombre Es Un Creador
DR10 -2.89 dB -16.99 dB 3:59 19-Herminda De La Victoria
DR9 -3.47 dB -14.94 dB 2:34 20-Sacando Pecho Y Brazo
DR8 -2.84 dB -13.32 dB 3:14 21-Marcha De Los Pobladores
––––––––––––––––––––––––––––––––––––––––

Number of tracks: 21
Official DR value: DR9

Samplerate: 44100 Hz
Channels: 2
Bits per sample: 16
Bitrate: 727 kbps
Codec: FLAC
================================================================================


Exact Audio Copy V1.0 beta 1 from 15. November 2010

EAC extraction logfile from 13. February 2011, 16:22

Victor Jara / Complete (CD4)

Used drive : Optiarc DVD RW AD-7240S Adapter: 2 ID: 1

Read mode : Secure
Utilize accurate stream : Yes
Defeat audio cache : Yes
Make use of C2 pointers : No

Read offset correction : 48
Overread into Lead-In and Lead-Out : No
Fill up missing offset samples with silence : Yes
Delete leading and trailing silent blocks : No
Null samples used in CRC calculations : Yes
Used interface : Native Win32 interface for Win NT & 2000
Gap handling : Appended to previous track

Used output format : User Defined Encoder
Selected bitrate : 896 kBit/s
Quality : High
Add ID3 tag : No
Command line compressor : C:\Program Files (x86)\Exact Audio Copy New\FLAC\FLAC.EXE
Additional command line options : -8 -V -T "ARTIST=%a" -T "TITLE=%t" -T "ALBUM=%g" -T "DATE=%y" -T "TRACKNUMBER=%n" -T "GENRE=%m" -T "COMMENT=EAC FLAC -8" %s


TOC of the extracted CD

Track | Start | Length | Start sector | End sector
––––––––––––––––––––––––––––-
1 | 0:00.00 | 0:54.50 | 0 | 4099
2 | 0:54.50 | 3:16.00 | 4100 | 18799
3 | 4:10.50 | 3:21.62 | 18800 | 33936
4 | 7:32.37 | 2:19.50 | 33937 | 44411
5 | 9:52.12 | 2:24.00 | 44412 | 55211
6 | 12:16.12 | 2:06.00 | 55212 | 64661
7 | 14:22.12 | 2:45.38 | 64662 | 77074
8 | 17:07.50 | 3:04.00 | 77075 | 90874
9 | 20:11.50 | 4:39.12 | 90875 | 111811
10 | 24:50.62 | 2:37.25 | 111812 | 123611
11 | 27:28.12 | 1:00.13 | 123612 | 128124
12 | 28:28.25 | 1:58.00 | 128125 | 136974
13 | 30:26.25 | 4:29.50 | 136975 | 157199
14 | 34:56.00 | 3:13.00 | 157200 | 171674
15 | 38:09.00 | 3:53.25 | 171675 | 189174
16 | 42:02.25 | 4:09.52 | 189175 | 207901
17 | 46:12.02 | 3:57.10 | 207902 | 225686
18 | 50:09.12 | 3:36.38 | 225687 | 241924
19 | 53:45.50 | 2:37.37 | 241925 | 253736
20 | 56:23.12 | 3:02.25 | 253737 | 267411
21 | 59:25.37 | 2:54.13 | 267412 | 280474
22 | 62:19.50 | 4:19.50 | 280475 | 299949
23 | 66:39.25 | 3:26.12 | 299950 | 315411
24 | 70:05.37 | 4:30.13 | 315412 | 335674


Track 1

Filename C:\Lossless\Victor Jara - 1997 - Complete [flac]\CD4\01 - Brindis.wav

Pre-gap length 0:00:02.00

Peak level 21.5 %
Extraction speed 1.6 X
Track quality 100.0 %
Test CRC FF7CE45A
Copy CRC FF7CE45A
Cannot be verified as accurate (confidence 2) [B540FA5A], AccurateRip returned [CD3C349A]
Copy OK

Track 2

Filename C:\Lossless\Victor Jara - 1997 - Complete [flac]\CD4\02 - La Palmatoria.wav

Peak level 25.6 %
Extraction speed 2.5 X
Track quality 100.0 %
Test CRC A1B4A3DF
Copy CRC A1B4A3DF
Cannot be verified as accurate (confidence 2) [84626A9B], AccurateRip returned [44546E5B]
Copy OK

Track 3

Filename C:\Lossless\Victor Jara - 1997 - Complete [flac]\CD4\03 - Vengan A Mi Casamiento.wav

Peak level 33.1 %
Extraction speed 2.7 X
Track quality 100.0 %
Test CRC 110BDE32
Copy CRC 110BDE32
Cannot be verified as accurate (confidence 2) [6596598D], AccurateRip returned [5877D7A5]
Copy OK

Track 4

Filename C:\Lossless\Victor Jara - 1997 - Complete [flac]\CD4\04 - La Fonda.wav

Peak level 31.9 %
Extraction speed 2.6 X
Track quality 100.0 %
Test CRC C5408963
Copy CRC C5408963
Cannot be verified as accurate (confidence 2) [FBC915C3], AccurateRip returned [8EEE2D8B]
Copy OK

Track 5

Filename C:\Lossless\Victor Jara - 1997 - Complete [flac]\CD4\05 - La Edad De La Mujer.wav

Peak level 31.0 %
Extraction speed 2.7 X
Track quality 100.0 %
Test CRC 784BF28A
Copy CRC 784BF28A
Cannot be verified as accurate (confidence 2) [8F0B82FD], AccurateRip returned [ACC85B61]
Copy OK

Track 6

Filename C:\Lossless\Victor Jara - 1997 - Complete [flac]\CD4\06 - La Cafetera.wav

Peak level 32.3 %
Extraction speed 2.8 X
Track quality 100.0 %
Test CRC 0FB2F454
Copy CRC 0FB2F454
Cannot be verified as accurate (confidence 2) [E7F304BF], AccurateRip returned [D347C775]
Copy OK

Track 7

Filename C:\Lossless\Victor Jara - 1997 - Complete [flac]\CD4\07 - La Diuca.wav

Peak level 37.7 %
Extraction speed 3.1 X
Track quality 100.0 %
Test CRC BE646538
Copy CRC BE646538
Cannot be verified as accurate (confidence 2) [3672278D], AccurateRip returned [9C3C69AB]
Copy OK

Track 8

Filename C:\Lossless\Victor Jara - 1997 - Complete [flac]\CD4\08 - Iba Yo Para Una Fiesta.wav

Peak level 37.9 %
Extraction speed 3.2 X
Track quality 100.0 %
Test CRC A4042E6A
Copy CRC A4042E6A
Cannot be verified as accurate (confidence 2) [59053D28], AccurateRip returned [B5C9A57C]
Copy OK

Track 9

Filename C:\Lossless\Victor Jara - 1997 - Complete [flac]\CD4\09 - Por Un Pito Ruin.wav

Peak level 29.8 %
Extraction speed 3.6 X
Track quality 100.0 %
Test CRC 004D7398
Copy CRC 004D7398
Cannot be verified as accurate (confidence 2) [3C83F984], AccurateRip returned [71C5D2C0]
Copy OK

Track 10

Filename C:\Lossless\Victor Jara - 1997 - Complete [flac]\CD4\10 - La Beata.wav

Peak level 35.8 %
Extraction speed 3.4 X
Track quality 100.0 %
Test CRC E5A60BA7
Copy CRC E5A60BA7
Cannot be verified as accurate (confidence 2) [9E23C8F4], AccurateRip returned [2F73136C]
Copy OK

Track 11

Filename C:\Lossless\Victor Jara - 1997 - Complete [flac]\CD4\11 - Adivinanzas.wav

Peak level 30.5 %
Extraction speed 2.7 X
Track quality 100.0 %
Test CRC 21BF2671
Copy CRC 21BF2671
Cannot be verified as accurate (confidence 2) [3E241C43], AccurateRip returned [377404B3]
Copy OK

Track 12

Filename C:\Lossless\Victor Jara - 1997 - Complete [flac]\CD4\12 - El Chincolito.wav

Peak level 36.8 %
Extraction speed 3.4 X
Track quality 100.0 %
Test CRC 94D863BF
Copy CRC 94D863BF
Cannot be verified as accurate (confidence 2) [46FE81D8], AccurateRip returned [741472B8]
Copy OK

Track 13

Filename C:\Lossless\Victor Jara - 1997 - Complete [flac]\CD4\13 - Manifiesto.wav

Peak level 56.3 %
Extraction speed 4.0 X
Track quality 100.0 %
Test CRC 88AA0AC9
Copy CRC 88AA0AC9
Cannot be verified as accurate (confidence 2) [054BDC38], AccurateRip returned [6032BD14]
Copy OK

Track 14

Filename C:\Lossless\Victor Jara - 1997 - Complete [flac]\CD4\14 - Caicaivilu.wav

Peak level 59.6 %
Extraction speed 4.0 X
Track quality 100.0 %
Test CRC 44456076
Copy CRC 44456076
Cannot be verified as accurate (confidence 2) [05C99F71], AccurateRip returned [A00E7091]
Copy OK

Track 15

Filename C:\Lossless\Victor Jara - 1997 - Complete [flac]\CD4\15 - Cuando Voy Al Trabajo.wav

Peak level 52.6 %
Extraction speed 4.2 X
Track quality 100.0 %
Test CRC DB90DE18
Copy CRC DB90DE18
Cannot be verified as accurate (confidence 2) [B494A562], AccurateRip returned [7BCD9FF6]
Copy OK

Track 16

Filename C:\Lossless\Victor Jara - 1997 - Complete [flac]\CD4\16 - Lamento Borincano.wav

Peak level 59.8 %
Extraction speed 3.9 X
Track quality 99.9 %
Test CRC D3E90536
Copy CRC D3E90536
Cannot be verified as accurate (confidence 2) [D1AC63BA], AccurateRip returned [03E85E6A]
Copy OK

Track 17

Filename C:\Lossless\Victor Jara - 1997 - Complete [flac]\CD4\17 - Pimiento.wav

Peak level 47.4 %
Extraction speed 4.6 X
Track quality 100.0 %
Test CRC DD71E5E2
Copy CRC DD71E5E2
Cannot be verified as accurate (confidence 2) [33DBCD0D], AccurateRip returned [EA16834D]
Copy OK

Track 18

Filename C:\Lossless\Victor Jara - 1997 - Complete [flac]\CD4\18 - Poema 15.wav

Peak level 45.9 %
Extraction speed 4.0 X
Track quality 99.9 %
Test CRC B5FFCB40
Copy CRC B5FFCB40
Cannot be verified as accurate (confidence 2) [948366BE], AccurateRip returned [DCC9ECD2]
Copy OK

Track 19

Filename C:\Lossless\Victor Jara - 1997 - Complete [flac]\CD4\19 - Vientos Del Pueblo.wav

Peak level 45.9 %
Extraction speed 4.4 X
Track quality 100.0 %
Test CRC AF4CDE13
Copy CRC AF4CDE13
Cannot be verified as accurate (confidence 2) [9F12EF31], AccurateRip returned [1EA2C3E9]
Copy OK

Track 20

Filename C:\Lossless\Victor Jara - 1997 - Complete [flac]\CD4\20 - Aqui Me Quedo.wav

Peak level 54.0 %
Extraction speed 4.6 X
Track quality 100.0 %
Test CRC 3E3FFFDE
Copy CRC 3E3FFFDE
Cannot be verified as accurate (confidence 2) [77197823], AccurateRip returned [1D47632B]
Copy OK

Track 21

Filename C:\Lossless\Victor Jara - 1997 - Complete [flac]\CD4\21 - Venian Del Desierto.wav

Peak level 44.0 %
Extraction speed 4.7 X
Track quality 100.0 %
Test CRC 80554429
Copy CRC 80554429
Cannot be verified as accurate (confidence 2) [1EAF0477], AccurateRip returned [6A46895F]
Copy OK

Track 22

Filename C:\Lossless\Victor Jara - 1997 - Complete [flac]\CD4\22 - Doncella Encantada.wav

Peak level 36.0 %
Extraction speed 4.5 X
Track quality 99.9 %
Test CRC 6ED55EB0
Copy CRC 6ED55EB0
Cannot be verified as accurate (confidence 2) [3D897CEB], AccurateRip returned [7DD5430B]
Copy OK

Track 23

Filename C:\Lossless\Victor Jara - 1997 - Complete [flac]\CD4\23 - El Arado.wav

Peak level 57.1 %
Extraction speed 5.0 X
Track quality 100.0 %
Test CRC EFEBABB3
Copy CRC EFEBABB3
Cannot be verified as accurate (confidence 2) [D7E2BA37], AccurateRip returned [BF7A7785]
Copy OK

Track 24

Filename C:\Lossless\Victor Jara - 1997 - Complete [flac]\CD4\24 - Canto Libre.wav

Peak level 51.8 %
Extraction speed 5.5 X
Track quality 100.0 %
Test CRC 792A173B
Copy CRC 792A173B
Cannot be verified as accurate (confidence 2) [180B2B17], AccurateRip returned [19D95F11]
Copy OK


No tracks could be verified as accurate
You may have a different pressing from the one(s) in the database

No errors occurred

End of status report

==== Log checksum CF7ABD853455E8509F9953CF56E9016CD3D3FBA9E091258A68C2AF96EACF9DE8 ====

[CUETools log; Date: 06.01.2018 1:55:38; Version: 2.1.4]
[CTDB TOCID: zy_ENX7IBkSBZUtALjiHUCn6DxQ-] found.
Track | CTDB Status
1 | (15/15) Accurately ripped
2 | (15/15) Accurately ripped
3 | (15/15) Accurately ripped
4 | (15/15) Accurately ripped
5 | (15/15) Accurately ripped
6 | (15/15) Accurately ripped
7 | (15/15) Accurately ripped
8 | (15/15) Accurately ripped
9 | (15/15) Accurately ripped
10 | (15/15) Accurately ripped
11 | (15/15) Accurately ripped
12 | (15/15) Accurately ripped
13 | (15/15) Accurately ripped
14 | (15/15) Accurately ripped
15 | (15/15) Accurately ripped
16 | (15/15) Accurately ripped
17 | (15/15) Accurately ripped
18 | (15/15) Accurately ripped
19 | (15/15) Accurately ripped
20 | (15/15) Accurately ripped
21 | (15/15) Accurately ripped
22 | (15/15) Accurately ripped
23 | (15/15) Accurately ripped
24 | (15/15) Accurately ripped
[AccurateRip ID: 003a87ae-040ff3a0-43117b18] found.
Track [ CRC | V2 ] Status
01 [b540fa5a|d0d6ee03] (02+00/11) Accurately ripped
02 [84626a9b|7cf4abb8] (02+00/11) Accurately ripped
03 [6596598d|e42a0483] (02+00/11) Accurately ripped
04 [fbc915c3|f56ad537] (02+00/11) Accurately ripped
05 [8f0b82fd|15851ff6] (02+00/11) Accurately ripped
06 [e7f304bf|b268311c] (02+00/11) Accurately ripped
07 [3672278d|c946936f] (02+00/11) Accurately ripped
08 [59053d28|7814eb18] (02+00/11) Accurately ripped
09 [3c83f984|e7dc81f4] (02+00/11) Accurately ripped
10 [9e23c8f4|7148e805] (02+00/11) Accurately ripped
11 [3e241c43|0fef332f] (02+00/11) Accurately ripped
12 [46fe81d8|a51e2923] (02+00/11) Accurately ripped
13 [054bdc38|6247b4b4] (02+00/11) Accurately ripped
14 [05c99f71|02e88311] (02+00/11) Accurately ripped
15 [b494a562|dd76274f] (02+00/11) Accurately ripped
16 [d1ac63ba|431a823e] (02+00/11) Accurately ripped
17 [33dbcd0d|4ed2aef8] (02+00/11) Accurately ripped
18 [948366be|b84f9031] (00+00/09) No match
19 [9f12ef31|85694d53] (02+00/11) Accurately ripped
20 [77197823|0db6395a] (02+00/11) Accurately ripped
21 [1eaf0477|31856870] (02+00/11) Accurately ripped
22 [3d897ceb|c6e6f2ad] (02+00/11) Accurately ripped
23 [d7e2ba37|e5717a5d] (02+00/11) Accurately ripped
24 [180b2b17|b07984c7] (02+00/10) Accurately ripped
Offsetted by 676:
01 [cd3c349a] (02/11) Accurately ripped
02 [44546e5b] (02/11) Accurately ripped
03 [5877d7a5] (02/11) Accurately ripped
04 [8eee2d8b] (02/11) Accurately ripped
05 [acc85b61] (02/11) Accurately ripped
06 [d347c775] (02/11) Accurately ripped
07 [9c3c69ab] (02/11) Accurately ripped
08 [b5c9a57c] (02/11) Accurately ripped
09 [71c5d2c0] (02/11) Accurately ripped
10 [2f73136c] (02/11) Accurately ripped
11 [377404b3] (02/11) Accurately ripped
12 [741472b8] (02/11) Accurately ripped
13 [6032bd14] (02/11) Accurately ripped
14 [a00e7091] (02/11) Accurately ripped
15 [7bcd9ff6] (02/11) Accurately ripped
16 [03e85e6a] (02/11) Accurately ripped
17 [ea16834d] (02/11) Accurately ripped
18 [dcc9ecd2] (02/09) Accurately ripped
19 [1ea2c3e9] (02/11) Accurately ripped
20 [1d47632b] (02/11) Accurately ripped
21 [6a46895f] (02/11) Accurately ripped
22 [7dd5430b] (02/11) Accurately ripped
23 [bf7a7785] (02/11) Accurately ripped
24 [19d95f11] (02/10) Accurately ripped
Offsetted by 9:
01 [71c93eea] (00/11) No match (V2 was not tested)
02 [7b33458b] (00/11) No match (V2 was not tested)
03 [cd2d0b53] (00/11) No match (V2 was not tested)
04 [f3241675] (00/11) No match (V2 was not tested)
05 [d032c276] (00/11) No match (V2 was not tested)
06 [cd9200bb] (00/11) No match (V2 was not tested)
07 [7517e558] (00/11) No match (V2 was not tested)
08 [e53cdf1d] (00/11) No match (V2 was not tested)
09 [c7730d73] (00/11) No match (V2 was not tested)
10 [c34b16d2] (00/11) No match (V2 was not tested)
11 [0846e0df] (00/11) No match (V2 was not tested)
12 [52f49310] (00/11) No match (V2 was not tested)
13 [5a32e90f] (00/11) No match (V2 was not tested)
14 [9d0c6eb9] (00/11) No match (V2 was not tested)
15 [f3d321e7] (00/11) No match (V2 was not tested)
16 [e5a7e2e6] (00/11) No match (V2 was not tested)
17 [9c27909d] (00/11) No match (V2 was not tested)
18 [5f525a23] (00/09) No match (V2 was not tested)
19 [7fd3559f] (00/11) No match (V2 was not tested)
20 [bbf67ba5] (00/11) No match (V2 was not tested)
21 [655edb71] (00/11) No match (V2 was not tested)
22 [98250173] (00/11) No match (V2 was not tested)
23 [1da1283c] (00/11) No match (V2 was not tested)
24 [27aadf42] (00/10) No match (V2 was not tested)

Track Peak [ CRC32 ] [W/O NULL] [ LOG ]
– 59,8 [D6FACBAA] [9094BF18]
01 21,5 [FF7CE45A] [69D7A408] CRC32
02 25,6 [A1B4A3DF] [26E2FE2F] CRC32
03 33,1 [110BDE32] [340A1E7D] CRC32
04 31,9 [C5408963] [C1CCB43C] CRC32
05 31,0 [784BF28A] [4C8B19C2] CRC32
06 32,3 [0FB2F454] [263AEF7A] CRC32
07 37,7 [BE646538] [B11E6FB5] CRC32
08 37,9 [A4042E6A] [885944CD] CRC32
09 29,8 [004D7398] [F2A29398] CRC32
10 35,8 [E5A60BA7] [A16E45F7] CRC32
11 30,5 [21BF2671] [272A9E2F] CRC32
12 36,8 [94D863BF] [9810B65A] CRC32
13 56,3 [88AA0AC9] [3CFD4A34] CRC32
14 59,6 [44456076] [F2F76E5C] CRC32
15 52,6 [DB90DE18] [876D8913] CRC32
16 59,8 [D3E90536] [B86E4822] CRC32
17 47,4 [DD71E5E2] [AB82BCE5] CRC32
18 45,9 [B5FFCB40] [F2E63E2E] CRC32
19 45,9 [AF4CDE13] [1967DA27] CRC32
20 54,0 [3E3FFFDE] [9450596B] CRC32
21 44,0 [80554429] [D6CB610F] CRC32
22 36,0 [6ED55EB0] [6BE7BB72] CRC32
23 57,1 [EFEBABB3] [A47E885B] CRC32
24 51,8 [792A173B] [68F0AD14] CRC32

foobar2000 1.2 / Dynamic Range Meter 1.1.1
log date: 2018-01-06 02:35:34

––––––––––––––––––––––––––––––––––––––––
Analyzed: Víctor Jara / Complete (CD4)
––––––––––––––––––––––––––––––––––––––––

DR Peak RMS Duration Track
––––––––––––––––––––––––––––––––––––––––
DR10 -13.35 dB -28.29 dB 0:55 01-Brindis
DR11 -11.81 dB -24.53 dB 3:16 02-La Palmatoria
DR11 -9.59 dB -22.67 dB 3:22 03-Vengan A Mi Casamiento
DR11 -9.92 dB -22.81 dB 2:20 04-La Fonda
DR10 -10.17 dB -22.11 dB 2:24 05-La Edad De La Mujer
DR9 -9.80 dB -21.39 dB 2:06 06-La Cafetera
DR11 -8.46 dB -20.41 dB 2:46 07-La Diuca
DR10 -8.41 dB -21.23 dB 3:04 08-Iba Yo Para Una Fiesta
DR9 -10.50 dB -22.07 dB 4:39 09-Por Un Pito Ruín
DR11 -8.92 dB -21.31 dB 2:37 10-La Beata
DR12 -10.29 dB -26.43 dB 1:00 11-Adivinanzas
DR10 -8.68 dB -19.80 dB 1:58 12-El Chincolito
DR10 -4.98 dB -17.47 dB 4:30 13-Manifiesto
DR10 -4.49 dB -17.68 dB 3:13 14-Caicaivilu
DR9 -5.57 dB -18.23 dB 3:53 15-Cuando Voy Al Trabajo
DR10 -4.46 dB -17.00 dB 4:10 16-Lamento Borincano
DR11 -6.48 dB -20.77 dB 3:57 17-Pimiento
DR10 -6.75 dB -20.55 dB 3:37 18-Poema 15
DR11 -6.76 dB -20.71 dB 2:37 19-Vientos Del Pueblo
DR11 -5.34 dB -20.43 dB 3:02 20-Aquí Me Quedo
DR9 -7.12 dB -18.52 dB 2:54 21-Venían Del Desierto
DR11 -8.87 dB -24.60 dB 4:20 22-Doncella Encantada
DR10 -4.85 dB -18.63 dB 3:26 23-El Arado [second version]
DR10 -5.71 dB -18.05 dB 4:30 24-Canto Libre [second version]
––––––––––––––––––––––––––––––––––––––––

Number of tracks: 24
Official DR value: DR10

Samplerate: 44100 Hz
Channels: 2
Bits per sample: 16
Bitrate: 615 kbps
Codec: FLAC
================================================================================

Victor Jara - Complete (1997) 4 CD Box Set [Re-Up]

All thanks to original releaser - abrelapuertaninyo

More interesting music in My Blog