Subcategories

Vivarte Collection Vol. 1 [60CDs] (2013)

Posted By: ArlegZ
Vivarte Collection Vol. 1 [60CDs] (2013)

Vivarte Collection Vol. 1 [60 CDs] (2013)
EAC | FLAC | Image (Cue & Log) ~ 16,7 Gb | Total time: 62:33:34 | Scans included
Classical | Label: Sony Classical | # 88765448882 | Recorded: 1986-1999

VIVARTE is the legendary Sony Classical period music label known for producing outstanding recordings on period instruments. The recordings by legendary producer Wolf Erichson are made with the best recording technologies available and by one of the best production teams in the world (Tritonus Music Production, Stuttgart). The collection contains a perfect overview of VIVARTE's legendary catalogue ranging from Vivaldi to Brahms including recordings with specialists in historically informed performance practice such as Anner Bylsma, Gustav Leonhardt, Tafelmusik, Huelgas Ensemble, L'Archibudelli among others. Many of the recordings received critical acclaim all over the world and won prestigious awards. This box set includes CDs presented in paper sleeves with the original artwork, a 250 page booklet with track listings and the original liner notes for each recording.

Contents:
CDs-1-2: Bach: The works for Lute (Lutz Kirchhof)
CD-3: Bach: 3 Sonates pour Viole de Gambe; Sonate en la Majeur (Anner Bylsma, Bob van Asperen)
CD-4: Le Clavecin Aux Pays-Bas (Bob van Asperen)
CD-5: Bach: Cantates Profanes Bwv 206 & 207a (Frieder Bernius)
CD-6: Mozart: Missa Longa (Philipp Cieslewicz, Carsten Müller, Tölzer Knabenchor)
CD-7: Mozart: Divertimento K.334 & K.247 (L'Archibudelli)
CD-8: Mozart: Divertimento K.563 (L'Archibudelli)
CD-9: Schubert: Quintette à Cordes D.956 (Vera Beths, Lisa Rautenberg, Steven Dann, Judy Gatwood, Anner Bylsma)
CD-10: Schubert: Symphonies N° 5 & 6 (Bruno Weil)
CDs-11-12: Schütz: Psalmen Davids Swv 22-47 (Frieder Bernius)
CDs-13-14: Bach: 6 Suites pour Violoncelle, Bwv 1007-1012 (Anner Bylsma)
CD-15: Italia Mia (Paul Van Nevel, Huelgas-Ensemble)
CD-16: The Lute in Dance and Dream (Lutz Kirchhof)
CD-17: Beethoven: Sextuors, Quintette, Duo (L'Archibudelli)
CD-18: Schubert: Symphonies N° 7 & 8 (Bruno Weil)
CD-19: Beethoven: Trios à Cordes Op.9 N° 1-3 (L'Archibudelli)
CD-20: Febus Avant! (Paul Van Nevel, Huelgas-Ensemble)
CD-21: Gombert: Musique Pour la Cour de Charles V (Paul Van Nevel, Huelgas-Ensemble)
CD-22: Airs de Cour Français Du Xviie Siècle (Lutz Kirchhof)
CD-23: Vivaldi: Les Quatre Saisons; Sinfonia "Al Santo Sepolcro"; Concerto Op.3 (Charlotte Nediger, Tafelmusik Baroque Orchestra)
CD-24: Haydn: Symponies N° 41-43 (Bruno Weil, Tafelmusik Baroque Orchestra)
CD-25: Haydn: Symponies N° 44, 51 & 52 (Bruno Weil, Tafelmusik Baroque Orchestra)
CDs-26-27: Weiss: Aeuvres pour Luth Vol. 1 & 2 (Lutz Kirchhof)
CD-28: Vivaldi: Sonates pour Violoncelle et Basse Continue (Anner Bylsma)
CD-29: Beethoven: Trios «L'Archiduc» et «Des Esprits» (Anner Bylsma, Vera Beths, Jos van Immerseel)
CD-30: Handel: Concerti Grossi, Op. 3 (Jeanne Lamon, Tafelmusik Baroque Orchestra)
CD-31: Motets Du Xviie Siècle (Niederaltaicher Scholaren)
CD-32: Haydn : Les Trois Derniers Trios avec Piano (Anner Bylsma, Vera Beths, Robert Levin)
CD-33: Boccherini : Concertos pour Violoncelle en Ut Majeur et Ré Majeur (Jeanne Lamon, Tafelmusik Baroque Orchestra)
CD-34: Boccherini: Sonates pour Violoncelle (Anner Bylsma, Kenneth Slowik, Bob van Asperen)
CD-35: Mozart: Quintette avec Clarinet, Quatuor avec Clarinette, Trio Kegelstatt (L'Archibudelli)
CD-36: Musique pour Orgue d'Allemagne du Nord (Gustav Leonhardt)
CDs-37-38: C.P.E Bach : Intégrale des Sonates pour Flûte (Barthold Kuijken, Bob van Asperen)
CD-39: Franchomme & Chopin: Grand Duo Concertant (Anner Bylsma, Lambert Orkis, Kenneth Slowik)
CD-40: Schubert : Mass N° 5; Deutsche Messe (Bruno Weil)
CD-41: Musique pour Orgue en France et Au Sud Des Pays-Bas (Gustav Leonhardt)
CDs-42-43: Haydn: La Création (Intégrale) (Bruno Weil, Tafelmusik Baroque Orchestra, Toelzer Knabenchor)
CD-44: Agricola: Un Labyrinthe Secret (Paul Van Nevel, Huelgas-Ensemble)
CDs-45-46: Beethoven: Sonates pour Violoncelle et Piano (Anner Bylsma, Jos van Immerseel)
CD-47: Mozart: Requiem (Bruno Weil, Tafelmusik Baroque Orchestra)
CD-48: Schubert: Trios avec Piano N° 1 & 2 (Anner Bylsma, Vera Beths, Jos van Immerseel)
CD-49: Vivaldi: 11 Concertos (Anner Bylsma, Jeanne Lamon, Tafelmusik Baroque Orchestra)
CD-50: Haydn: Les Trois Derniers Quatuors à Cordes (L'Archibudelli)
CD-51: Handel: Feuermusik (Jeanne Lamon, Tafelmusik Baroque Orchestra)
CDs-52-54: Telemann: Quatuors Parisiens N° 1-12 (Gustav Leonhardt)
CD-55: Utopia Triumphans: Musique de la Renaissance (Paul Van Nevel, Huelgas-Ensemble)
CD-56: Bach: Concertos pour Violon (Jeanne Lamon, Tafelmusik Baroque Orchestra)
CDs-57-58: Bach: Concertos Brandebourgeois (Jeanne Lamon, Tafelmusik Baroque Orchestra)
CD-59: Brahms & Schumann: Sonates pour Violoncelle Op. 38 & Op. 99 5 Pièces Dans Le Style Populaire Op. 102 (Anner Bylsma, Lambert Orkis)
CD-60: Handel: Music for the Royal Fireworks (Jeanne Lamon, Tafelmusik Baroque Orchestra)



Exact Audio Copy V1.3 from 2. September 2016

EAC extraction logfile from 22. August 2019, 14:39

Lutz Kirchhof / VIVARTE - 60 CD Collection (CD 1) Bach - The Works for Lute (1)

Used drive : ATAPI iHAS124 F Adapter: 1 ID: 0

Read mode : Secure
Utilize accurate stream : Yes
Defeat audio cache : Yes
Make use of C2 pointers : No

Read offset correction : 6
Overread into Lead-In and Lead-Out : No
Fill up missing offset samples with silence : Yes
Delete leading and trailing silent blocks : No
Null samples used in CRC calculations : Yes
Used interface : Native Win32 interface for Win NT & 2000

Used output format : User Defined Encoder
Selected bitrate : 1024 kBit/s
Quality : High
Add ID3 tag : No
Command line compressor : C:\Program Files (x86)\Exact Audio Copy\FLAC\FLAC.EXE
Additional command line options : -6 -V -T "ARTIST=%artist%" -T "TITLE=%title%" -T "ALBUM=%albumtitle%" -T "DATE=%year%" -T "TRACKNUMBER=%tracknr%" -T "GENRE=%genre%" -T "COMMENT=%comment%" -T "BAND=%albuminterpret%" -T "ALBUMARTIST=%albuminterpret%" -T "COMPOSER=%composer%" %haslyrics%–tag-from-file=LYRICS="%lyricsfile%"%haslyrics% -T "DISCNUMBER=%cdnumber%" -T "TOTALDISCS=%totalcds%" -T "TOTALTRACKS=%numtracks%" %hascover%–picture="%coverfile%"%hascover% %source% -o %dest%


TOC of the extracted CD

Track | Start | Length | Start sector | End sector
––––––––––––––––––––––––––––-
1 | 0:00.00 | 5:05.37 | 0 | 22911
2 | 5:05.37 | 4:50.03 | 22912 | 44664
3 | 9:55.40 | 2:02.00 | 44665 | 53814
4 | 11:57.40 | 2:22.00 | 53815 | 64464
5 | 14:19.40 | 4:30.02 | 64465 | 84716
6 | 18:49.42 | 2:25.68 | 84717 | 95659
7 | 21:15.35 | 6:00.05 | 95660 | 122664
8 | 27:15.40 | 2:31.72 | 122665 | 134061
9 | 29:47.37 | 2:32.43 | 134062 | 145504
10 | 32:20.05 | 3:12.25 | 145505 | 159929
11 | 35:32.30 | 3:20.07 | 159930 | 174936
12 | 38:52.37 | 1:34.00 | 174937 | 181986
13 | 40:26.37 | 3:15.70 | 181987 | 196681
14 | 43:42.32 | 2:25.08 | 196682 | 207564
15 | 46:07.40 | 6:14.72 | 207565 | 235686
16 | 52:22.37 | 3:52.48 | 235687 | 253134


Range status and errors

Selected range

Filename C:\EACRip\SONY VIVARTE - 60 CD COLLECTION (Sony, 60CD)(2013) [Boxset]\CD01 - JS Bach - Lute (1)\VIVARTE - 60 CD Collection (CD 1) Bach - The Works for Lute (1) - Lutz Kirchhof.wav

Peak level 76.0 %
Extraction speed 6.4 X
Range quality 99.9 %
Test CRC E8976AC3
Copy CRC E8976AC3
Copy OK

No errors occurred


AccurateRip summary

Track 1 accurately ripped (confidence 40) [60F58A48] (AR v2)
Track 2 accurately ripped (confidence 39) [884C9D73] (AR v2)
Track 3 accurately ripped (confidence 39) [2BEF70AB] (AR v2)
Track 4 accurately ripped (confidence 39) [A5A3C75D] (AR v2)
Track 5 accurately ripped (confidence 39) [A2249593] (AR v2)
Track 6 accurately ripped (confidence 39) [D49EEABB] (AR v2)
Track 7 accurately ripped (confidence 39) [6AD80A6E] (AR v2)
Track 8 accurately ripped (confidence 39) [DF627B04] (AR v2)
Track 9 accurately ripped (confidence 39) [F63F4FAE] (AR v2)
Track 10 accurately ripped (confidence 39) [A60522B4] (AR v2)
Track 11 accurately ripped (confidence 39) [A34E00CD] (AR v2)
Track 12 accurately ripped (confidence 39) [5A93FBF6] (AR v2)
Track 13 accurately ripped (confidence 39) [5A5A6352] (AR v2)
Track 14 accurately ripped (confidence 39) [3E8D01E8] (AR v2)
Track 15 accurately ripped (confidence 39) [88D752E9] (AR v2)
Track 16 accurately ripped (confidence 39) [E75A823A] (AR v2)

All tracks accurately ripped

End of status report

–– CUETools DB Plugin V2.1.6

[CTDB TOCID: Rhwf40pK8cebuoWgQOyT3EgwPhE-] found
Submit result: Rhwf40pK8cebuoWgQOyT3EgwPhE- has been confirmed
Track | CTDB Status
1 | (66/66) Accurately ripped
2 | (66/66) Accurately ripped
3 | (66/66) Accurately ripped
4 | (66/66) Accurately ripped
5 | (66/66) Accurately ripped
6 | (66/66) Accurately ripped
7 | (65/66) Accurately ripped
8 | (65/66) Accurately ripped
9 | (65/66) Accurately ripped
10 | (65/66) Accurately ripped
11 | (65/66) Accurately ripped
12 | (66/66) Accurately ripped
13 | (66/66) Accurately ripped
14 | (66/66) Accurately ripped
15 | (66/66) Accurately ripped
16 | (66/66) Accurately ripped


==== Log checksum 0A6654B32BD90543F588234683D1AD4849CC3A0D85AA7154731786944CBB13B9 ====


Exact Audio Copy V1.3 from 2. September 2016

EAC extraction logfile from 22. August 2019, 15:43

Lutz Kirchhof / VIVARTE - 60 CD Collection (CD 2) Bach - The Works for Lute (2)

Used drive : ATAPI iHAS124 F Adapter: 1 ID: 0

Read mode : Secure
Utilize accurate stream : Yes
Defeat audio cache : Yes
Make use of C2 pointers : No

Read offset correction : 6
Overread into Lead-In and Lead-Out : No
Fill up missing offset samples with silence : Yes
Delete leading and trailing silent blocks : No
Null samples used in CRC calculations : Yes
Used interface : Native Win32 interface for Win NT & 2000

Used output format : User Defined Encoder
Selected bitrate : 1024 kBit/s
Quality : High
Add ID3 tag : No
Command line compressor : C:\Program Files (x86)\Exact Audio Copy\FLAC\FLAC.EXE
Additional command line options : -6 -V -T "ARTIST=%artist%" -T "TITLE=%title%" -T "ALBUM=%albumtitle%" -T "DATE=%year%" -T "TRACKNUMBER=%tracknr%" -T "GENRE=%genre%" -T "COMMENT=%comment%" -T "BAND=%albuminterpret%" -T "ALBUMARTIST=%albuminterpret%" -T "COMPOSER=%composer%" %haslyrics%–tag-from-file=LYRICS="%lyricsfile%"%haslyrics% -T "DISCNUMBER=%cdnumber%" -T "TOTALDISCS=%totalcds%" -T "TOTALTRACKS=%numtracks%" %hascover%–picture="%coverfile%"%hascover% %source% -o %dest%


TOC of the extracted CD

Track | Start | Length | Start sector | End sector
––––––––––––––––––––––––––––-
1 | 0:00.00 | 3:25.20 | 0 | 15394
2 | 3:25.20 | 7:26.27 | 15395 | 48871
3 | 10:51.47 | 5:19.73 | 48872 | 72869
4 | 16:11.45 | 3:05.72 | 72870 | 86816
5 | 19:17.42 | 3:23.00 | 86817 | 102041
6 | 22:40.42 | 1:59.70 | 102042 | 111036
7 | 24:40.37 | 5:01.13 | 111037 | 133624
8 | 29:41.50 | 3:34.00 | 133625 | 149674
9 | 33:15.50 | 3:27.70 | 149675 | 165269
10 | 36:43.45 | 2:04.00 | 165270 | 174569
11 | 38:47.45 | 2:08.07 | 174570 | 184176
12 | 40:55.52 | 2:11.60 | 184177 | 194061
13 | 43:07.37 | 2:05.50 | 194062 | 203486


Range status and errors

Selected range

Filename C:\EACRip\SONY VIVARTE - 60 CD COLLECTION (Sony, 60CD)(2013) [Boxset]\CD02 - JS Bach - Lute (2)\VIVARTE - 60 CD Collection (CD 2) Bach - The Works for Lute (2) - Lutz Kirchhof.wav

Peak level 65.4 %
Extraction speed 7.7 X
Range quality 99.9 %
Test CRC B15460F5
Copy CRC B15460F5
Copy OK

No errors occurred


AccurateRip summary

Track 1 accurately ripped (confidence 39) [4BC1277B] (AR v2)
Track 2 accurately ripped (confidence 38) [F46A98D4] (AR v2)
Track 3 accurately ripped (confidence 38) [0EFC7C88] (AR v2)
Track 4 accurately ripped (confidence 39) [1F51A666] (AR v2)
Track 5 accurately ripped (confidence 39) [E54D778E] (AR v2)
Track 6 accurately ripped (confidence 39) [48EA917D] (AR v2)
Track 7 accurately ripped (confidence 39) [5F5AC918] (AR v2)
Track 8 accurately ripped (confidence 39) [A3CA85BF] (AR v2)
Track 9 accurately ripped (confidence 39) [D54F776B] (AR v2)
Track 10 accurately ripped (confidence 39) [A7D6FD1F] (AR v2)
Track 11 accurately ripped (confidence 39) [E1D358BF] (AR v2)
Track 12 accurately ripped (confidence 39) [510C5492] (AR v2)
Track 13 accurately ripped (confidence 39) [45737851] (AR v2)

All tracks accurately ripped

End of status report

–– CUETools DB Plugin V2.1.6

[CTDB TOCID: 58FhxX5vfjujR7D652wg72UiUg0-] found
Submit result: 58FhxX5vfjujR7D652wg72UiUg0- has been confirmed
Track | CTDB Status
1 | (62/62) Accurately ripped
2 | (62/62) Accurately ripped
3 | (61/62) Accurately ripped
4 | (62/62) Accurately ripped
5 | (61/62) Accurately ripped
6 | (62/62) Accurately ripped
7 | (62/62) Accurately ripped
8 | (62/62) Accurately ripped
9 | (62/62) Accurately ripped
10 | (62/62) Accurately ripped
11 | (62/62) Accurately ripped
12 | (61/62) Accurately ripped
13 | (61/62) Accurately ripped


==== Log checksum E6540A90B30B6349FDFBA6830F7EF3E2FD4E68BDEB2D0114223342C88A59D81C ====


Exact Audio Copy V1.3 from 2. September 2016

EAC extraction logfile from 22. August 2019, 17:32

Anner Bylsma, Bob Van Asperen / VIVARTE - 60 CD Collection (CD 3) JS Bach - Sonatas for Viola da Gamba & JChrF Bach

Used drive : ATAPI iHAS124 F Adapter: 1 ID: 0

Read mode : Secure
Utilize accurate stream : Yes
Defeat audio cache : Yes
Make use of C2 pointers : No

Read offset correction : 6
Overread into Lead-In and Lead-Out : No
Fill up missing offset samples with silence : Yes
Delete leading and trailing silent blocks : No
Null samples used in CRC calculations : Yes
Used interface : Native Win32 interface for Win NT & 2000

Used output format : User Defined Encoder
Selected bitrate : 1024 kBit/s
Quality : High
Add ID3 tag : No
Command line compressor : C:\Program Files (x86)\Exact Audio Copy\FLAC\FLAC.EXE
Additional command line options : -6 -V -T "ARTIST=%artist%" -T "TITLE=%title%" -T "ALBUM=%albumtitle%" -T "DATE=%year%" -T "TRACKNUMBER=%tracknr%" -T "GENRE=%genre%" -T "COMMENT=%comment%" -T "BAND=%albuminterpret%" -T "ALBUMARTIST=%albuminterpret%" -T "COMPOSER=%composer%" %haslyrics%–tag-from-file=LYRICS="%lyricsfile%"%haslyrics% -T "DISCNUMBER=%cdnumber%" -T "TOTALDISCS=%totalcds%" -T "TOTALTRACKS=%numtracks%" %hascover%–picture="%coverfile%"%hascover% %source% -o %dest%


TOC of the extracted CD

Track | Start | Length | Start sector | End sector
––––––––––––––––––––––––––––-
1 | 0:00.00 | 4:52.50 | 0 | 21949
2 | 4:52.50 | 5:31.00 | 21950 | 46774
3 | 10:23.50 | 3:21.00 | 46775 | 61849
4 | 13:44.50 | 1:41.17 | 61850 | 69441
5 | 15:25.67 | 3:49.58 | 69442 | 86674
6 | 19:15.50 | 4:07.37 | 86675 | 105236
7 | 23:23.12 | 3:21.38 | 105237 | 120349
8 | 26:44.50 | 3:35.50 | 120350 | 136524
9 | 30:20.25 | 3:13.62 | 136525 | 151061
10 | 33:34.12 | 2:42.38 | 151062 | 163249
11 | 36:16.50 | 3:00.00 | 163250 | 176749
12 | 39:16.50 | 4:12.70 | 176750 | 195719
13 | 43:29.45 | 4:15.05 | 195720 | 214849
14 | 47:44.50 | 3:39.15 | 214850 | 231289


Range status and errors

Selected range

Filename C:\EACRip\SONY VIVARTE - 60 CD COLLECTION (Sony, 60CD)(2013) [Boxset]\CD03 - JS Bach (da Gamba) & JChrF Bach\CD\VIVARTE - 60 CD Collection (CD 3) JS Bach - Sonatas for Viola da Gamba & JChrF Bach - Bylsma, Van Asperen.wav

Peak level 78.1 %
Extraction speed 8.4 X
Range quality 100.0 %
Test CRC D8D31F15
Copy CRC D8D31F15
Copy OK

No errors occurred


AccurateRip summary

Track 1 accurately ripped (confidence 40) [64767CD1] (AR v2)
Track 2 accurately ripped (confidence 40) [76967E6D] (AR v2)
Track 3 accurately ripped (confidence 40) [D3967D5E] (AR v2)
Track 4 accurately ripped (confidence 40) [BC40163E] (AR v2)
Track 5 accurately ripped (confidence 40) [436B61A6] (AR v2)
Track 6 accurately ripped (confidence 40) [07355D6B] (AR v2)
Track 7 accurately ripped (confidence 40) [72DFD617] (AR v2)
Track 8 accurately ripped (confidence 40) [824F47FA] (AR v2)
Track 9 accurately ripped (confidence 40) [89E06AE5] (AR v2)
Track 10 accurately ripped (confidence 40) [A83D378A] (AR v2)
Track 11 accurately ripped (confidence 40) [4C6E940D] (AR v2)
Track 12 accurately ripped (confidence 39) [B91BCE7D] (AR v2)
Track 13 accurately ripped (confidence 39) [1CB63F4A] (AR v2)
Track 14 accurately ripped (confidence 39) [E6221615] (AR v2)

All tracks accurately ripped

End of status report

–– CUETools DB Plugin V2.1.6

[CTDB TOCID: DYYHENBXToKbWxoqIvZgVblQfAI-] found
Submit result: DYYHENBXToKbWxoqIvZgVblQfAI- has been confirmed
Track | CTDB Status
1 | (139/139) Accurately ripped
2 | (138/139) Accurately ripped
3 | (138/139) Accurately ripped
4 | (139/139) Accurately ripped
5 | (137/139) Accurately ripped
6 | (138/139) Accurately ripped
7 | (138/139) Accurately ripped
8 | (139/139) Accurately ripped
9 | (138/139) Accurately ripped
10 | (138/139) Accurately ripped
11 | (138/139) Accurately ripped
12 | (138/139) Accurately ripped
13 | (139/139) Accurately ripped
14 | (135/139) Accurately ripped


==== Log checksum 9D65157FA1A3272A646CEBE8EFEEE8EF5AD26F10E20ADEA1FD0B21A2F4858850 ====


Exact Audio Copy V1.3 from 2. September 2016

EAC extraction logfile from 22. August 2019, 18:27

Bob van Asperen / VIVARTE - 60 CD Collection (CD 4) The Harpsichord in the Netherlands 1580-1712

Used drive : ATAPI iHAS124 F Adapter: 1 ID: 0

Read mode : Secure
Utilize accurate stream : Yes
Defeat audio cache : Yes
Make use of C2 pointers : No

Read offset correction : 6
Overread into Lead-In and Lead-Out : No
Fill up missing offset samples with silence : Yes
Delete leading and trailing silent blocks : No
Null samples used in CRC calculations : Yes
Used interface : Native Win32 interface for Win NT & 2000

Used output format : User Defined Encoder
Selected bitrate : 1024 kBit/s
Quality : High
Add ID3 tag : No
Command line compressor : C:\Program Files (x86)\Exact Audio Copy\FLAC\FLAC.EXE
Additional command line options : -6 -V -T "ARTIST=%artist%" -T "TITLE=%title%" -T "ALBUM=%albumtitle%" -T "DATE=%year%" -T "TRACKNUMBER=%tracknr%" -T "GENRE=%genre%" -T "COMMENT=%comment%" -T "BAND=%albuminterpret%" -T "ALBUMARTIST=%albuminterpret%" -T "COMPOSER=%composer%" %haslyrics%–tag-from-file=LYRICS="%lyricsfile%"%haslyrics% -T "DISCNUMBER=%cdnumber%" -T "TOTALDISCS=%totalcds%" -T "TOTALTRACKS=%numtracks%" %hascover%–picture="%coverfile%"%hascover% %source% -o %dest%


TOC of the extracted CD

Track | Start | Length | Start sector | End sector
––––––––––––––––––––––––––––-
1 | 0:00.00 | 1:44.70 | 0 | 7869
2 | 1:44.70 | 6:21.25 | 7870 | 36469
3 | 8:06.20 | 2:34.50 | 36470 | 48069
4 | 10:40.70 | 1:43.45 | 48070 | 55839
5 | 12:24.40 | 2:26.42 | 55840 | 66831
6 | 14:51.07 | 1:28.25 | 66832 | 73456
7 | 16:19.32 | 2:56.20 | 73457 | 86676
8 | 19:15.52 | 0:54.18 | 86677 | 90744
9 | 20:09.70 | 6:03.00 | 90745 | 117969
10 | 26:12.70 | 5:03.00 | 117970 | 140694
11 | 31:15.70 | 9:29.00 | 140695 | 183369
12 | 40:44.70 | 4:20.00 | 183370 | 202869
13 | 45:04.70 | 6:05.00 | 202870 | 230244
14 | 51:09.70 | 1:43.47 | 230245 | 238016
15 | 52:53.42 | 3:47.65 | 238017 | 255106
16 | 56:41.32 | 1:03.63 | 255107 | 259894
17 | 57:45.20 | 5:52.57 | 259895 | 286351
18 | 63:38.02 | 1:35.10 | 286352 | 293486
19 | 65:13.12 | 2:04.55 | 293487 | 302841
20 | 67:17.67 | 7:11.30 | 302842 | 335196


Range status and errors

Selected range

Filename C:\EACRip\SONY VIVARTE - 60 CD COLLECTION (Sony, 60CD)(2013) [Boxset]\CD04 - Harpsichord in Netherlands\VIVARTE - 60 CD Collection (CD 4) The Harpsichord in the Netherlands 1580-1712 - Bob van Asperen.wav

Peak level 52.7 %
Extraction speed 8.1 X
Range quality 100.0 %
Test CRC F0E9F525
Copy CRC F0E9F525
Copy OK

No errors occurred


AccurateRip summary

Track 1 accurately ripped (confidence 37) [473C2C69] (AR v2)
Track 2 accurately ripped (confidence 37) [D7AF4923] (AR v2)
Track 3 accurately ripped (confidence 37) [0EB706D2] (AR v2)
Track 4 accurately ripped (confidence 38) [DFF75E03] (AR v2)
Track 5 accurately ripped (confidence 38) [E151ACC6] (AR v2)
Track 6 accurately ripped (confidence 38) [37FF8BF4] (AR v2)
Track 7 accurately ripped (confidence 38) [88D04136] (AR v2)
Track 8 accurately ripped (confidence 38) [D25F05A1] (AR v2)
Track 9 accurately ripped (confidence 38) [BEC1B37A] (AR v2)
Track 10 accurately ripped (confidence 38) [7D9FF425] (AR v2)
Track 11 accurately ripped (confidence 38) [A7D4367A] (AR v2)
Track 12 accurately ripped (confidence 38) [0B4B418A] (AR v2)
Track 13 accurately ripped (confidence 38) [5D2B6FEB] (AR v2)
Track 14 accurately ripped (confidence 38) [DAEE4859] (AR v2)
Track 15 accurately ripped (confidence 38) [459A32ED] (AR v2)
Track 16 accurately ripped (confidence 38) [6E75DE0D] (AR v2)
Track 17 accurately ripped (confidence 38) [C197619A] (AR v2)
Track 18 accurately ripped (confidence 38) [9B13EFE3] (AR v2)
Track 19 accurately ripped (confidence 38) [69756F77] (AR v2)
Track 20 accurately ripped (confidence 38) [8A2D3772] (AR v2)

All tracks accurately ripped

End of status report

–– CUETools DB Plugin V2.1.6

[CTDB TOCID: UK_EJwdL6.GPrraMa3z_.8c7cRA-] found
Submit result: UK_EJwdL6.GPrraMa3z_.8c7cRA- has been confirmed
Track | CTDB Status
1 | (70/70) Accurately ripped
2 | (70/70) Accurately ripped
3 | (70/70) Accurately ripped
4 | (70/70) Accurately ripped
5 | (69/70) Accurately ripped
6 | (69/70) Accurately ripped
7 | (70/70) Accurately ripped
8 | (70/70) Accurately ripped
9 | (70/70) Accurately ripped
10 | (70/70) Accurately ripped
11 | (70/70) Accurately ripped
12 | (69/70) Accurately ripped
13 | (69/70) Accurately ripped
14 | (70/70) Accurately ripped
15 | (70/70) Accurately ripped
16 | (70/70) Accurately ripped
17 | (70/70) Accurately ripped
18 | (70/70) Accurately ripped
19 | (68/70) Accurately ripped
20 | (69/70) Accurately ripped


==== Log checksum DAE31EDCECE770E58CDDC0A484CBF798D2CE20895A2CF4E5890F544C78F57DCB ====


Exact Audio Copy V1.3 from 2. September 2016

EAC extraction logfile from 22. August 2019, 19:49

Ruth Ziesak, Michael Chance, Christoph Pregardien, Peter Kooy; Frieder Bernius / VIVARTE - 60 CD Collection (CD 5) JS Bach - Cantatas BWV 207a & 206

Used drive : ATAPI iHAS124 F Adapter: 1 ID: 0

Read mode : Secure
Utilize accurate stream : Yes
Defeat audio cache : Yes
Make use of C2 pointers : No

Read offset correction : 6
Overread into Lead-In and Lead-Out : No
Fill up missing offset samples with silence : Yes
Delete leading and trailing silent blocks : No
Null samples used in CRC calculations : Yes
Used interface : Native Win32 interface for Win NT & 2000

Used output format : User Defined Encoder
Selected bitrate : 1024 kBit/s
Quality : High
Add ID3 tag : No
Command line compressor : C:\Program Files (x86)\Exact Audio Copy\FLAC\FLAC.EXE
Additional command line options : -6 -V -T "ARTIST=%artist%" -T "TITLE=%title%" -T "ALBUM=%albumtitle%" -T "DATE=%year%" -T "TRACKNUMBER=%tracknr%" -T "GENRE=%genre%" -T "COMMENT=%comment%" -T "BAND=%albuminterpret%" -T "ALBUMARTIST=%albuminterpret%" -T "COMPOSER=%composer%" %haslyrics%–tag-from-file=LYRICS="%lyricsfile%"%haslyrics% -T "DISCNUMBER=%cdnumber%" -T "TOTALDISCS=%totalcds%" -T "TOTALTRACKS=%numtracks%" %hascover%–picture="%coverfile%"%hascover% %source% -o %dest%


TOC of the extracted CD

Track | Start | Length | Start sector | End sector
––––––––––––––––––––––––––––-
1 | 0:00.32 | 4:14.50 | 32 | 19131
2 | 4:15.07 | 2:01.33 | 19132 | 28239
3 | 6:16.40 | 3:36.42 | 28240 | 44481
4 | 9:53.07 | 1:40.43 | 44482 | 52024
5 | 11:33.50 | 5:31.57 | 52025 | 76906
6 | 17:05.32 | 0:46.25 | 76907 | 80381
7 | 17:51.57 | 5:26.38 | 80382 | 104869
8 | 23:18.20 | 2:47.12 | 104870 | 117406
9 | 26:05.32 | 3:43.00 | 117407 | 134131
10 | 29:48.32 | 6:17.08 | 134132 | 162414
11 | 36:05.40 | 1:23.07 | 162415 | 168646
12 | 37:28.47 | 4:51.70 | 168647 | 190541
13 | 42:20.42 | 1:31.40 | 190542 | 197406
14 | 43:52.07 | 6:14.58 | 197407 | 225514
15 | 50:06.65 | 1:02.15 | 225515 | 230179
16 | 51:09.05 | 5:58.70 | 230180 | 257099
17 | 57:08.00 | 1:40.50 | 257100 | 264649
18 | 58:48.50 | 3:32.05 | 264650 | 280554
19 | 62:20.55 | 1:29.15 | 280555 | 287244
20 | 63:49.70 | 3:02.25 | 287245 | 300919


Range status and errors

Selected range

Filename C:\EACRip\SONY VIVARTE - 60 CD COLLECTION (Sony, 60CD)(2013) [Boxset]\CD05 - JS Bach - 2 Cantatas\VIVARTE - 60 CD Collection (CD 5) JS Bach - Cantatas BWV 207a & 206 - Frieder Bernius.wav

Peak level 98.5 %
Extraction speed 9.4 X
Range quality 100.0 %
Test CRC 8085EAB5
Copy CRC 8085EAB5
Copy OK

No errors occurred


AccurateRip summary

Track 1 accurately ripped (confidence 35) [35F7A5C7] (AR v2)
Track 2 accurately ripped (confidence 36) [F6F70CDC] (AR v2)
Track 3 accurately ripped (confidence 36) [CBDC32E7] (AR v2)
Track 4 accurately ripped (confidence 36) [32301C07] (AR v2)
Track 5 accurately ripped (confidence 36) [DD5AEF76] (AR v2)
Track 6 accurately ripped (confidence 36) [56662192] (AR v2)
Track 7 accurately ripped (confidence 36) [5D079E54] (AR v2)
Track 8 accurately ripped (confidence 36) [0D6BBB52] (AR v2)
Track 9 accurately ripped (confidence 36) [A87F8E75] (AR v2)
Track 10 accurately ripped (confidence 36) [D6BB8A14] (AR v2)
Track 11 accurately ripped (confidence 36) [D70572E2] (AR v2)
Track 12 accurately ripped (confidence 36) [5B4D786E] (AR v2)
Track 13 accurately ripped (confidence 36) [134CFF4C] (AR v2)
Track 14 accurately ripped (confidence 36) [229F3A8D] (AR v2)
Track 15 accurately ripped (confidence 36) [C44E3277] (AR v2)
Track 16 accurately ripped (confidence 36) [2C5294AA] (AR v2)
Track 17 accurately ripped (confidence 36) [3D6BAB47] (AR v2)
Track 18 accurately ripped (confidence 36) [348EA3AF] (AR v2)
Track 19 accurately ripped (confidence 36) [BF0965D4] (AR v2)
Track 20 accurately ripped (confidence 36) [5D0BD591] (AR v2)

All tracks accurately ripped

End of status report

–– CUETools DB Plugin V2.1.6

[CTDB TOCID: Z5Bz983sZtZaKE8UZmmE5H3eWeo-] found
Submit result: Z5Bz983sZtZaKE8UZmmE5H3eWeo- has been confirmed
Track | CTDB Status
1 | (37/37) Accurately ripped
2 | (37/37) Accurately ripped
3 | (37/37) Accurately ripped
4 | (37/37) Accurately ripped
5 | (37/37) Accurately ripped
6 | (37/37) Accurately ripped
7 | (37/37) Accurately ripped
8 | (37/37) Accurately ripped
9 | (37/37) Accurately ripped
10 | (37/37) Accurately ripped
11 | (37/37) Accurately ripped
12 | (37/37) Accurately ripped
13 | (37/37) Accurately ripped
14 | (37/37) Accurately ripped
15 | (37/37) Accurately ripped
16 | (37/37) Accurately ripped
17 | (37/37) Accurately ripped
18 | (37/37) Accurately ripped
19 | (37/37) Accurately ripped
20 | (37/37) Accurately ripped


==== Log checksum D4D5BCCBC9330597CA61BAE0D129B9DEBB2D6B760965787C658C00F0426B8A3B ====


Exact Audio Copy V1.3 from 2. September 2016

EAC extraction logfile from 22. August 2019, 20:46

Christian Gunther, Carsten Muller, Philipp Cieslewicz, Christian M. Immler / VIVARTE - 60 CD Collection (CD 6) Mozart - Missa Longa, etc

Used drive : ATAPI iHAS124 F Adapter: 1 ID: 0

Read mode : Secure
Utilize accurate stream : Yes
Defeat audio cache : Yes
Make use of C2 pointers : No

Read offset correction : 6
Overread into Lead-In and Lead-Out : No
Fill up missing offset samples with silence : Yes
Delete leading and trailing silent blocks : No
Null samples used in CRC calculations : Yes
Used interface : Native Win32 interface for Win NT & 2000

Used output format : User Defined Encoder
Selected bitrate : 1024 kBit/s
Quality : High
Add ID3 tag : No
Command line compressor : C:\Program Files (x86)\Exact Audio Copy\FLAC\FLAC.EXE
Additional command line options : -6 -V -T "ARTIST=%artist%" -T "TITLE=%title%" -T "ALBUM=%albumtitle%" -T "DATE=%year%" -T "TRACKNUMBER=%tracknr%" -T "GENRE=%genre%" -T "COMMENT=%comment%" -T "BAND=%albuminterpret%" -T "ALBUMARTIST=%albuminterpret%" -T "COMPOSER=%composer%" %haslyrics%–tag-from-file=LYRICS="%lyricsfile%"%haslyrics% -T "DISCNUMBER=%cdnumber%" -T "TOTALDISCS=%totalcds%" -T "TOTALTRACKS=%numtracks%" %hascover%–picture="%coverfile%"%hascover% %source% -o %dest%


TOC of the extracted CD

Track | Start | Length | Start sector | End sector
––––––––––––––––––––––––––––-
1 | 0:00.00 | 3:50.50 | 0 | 17299
2 | 3:50.50 | 4:56.00 | 17300 | 39499
3 | 8:46.50 | 11:54.00 | 39500 | 93049
4 | 20:40.50 | 2:08.25 | 93050 | 102674
5 | 22:49.00 | 3:20.50 | 102675 | 117724
6 | 26:09.50 | 4:45.00 | 117725 | 139099
7 | 30:54.50 | 6:21.00 | 139100 | 167674
8 | 37:15.50 | 6:59.00 | 167675 | 199099
9 | 44:14.50 | 5:01.00 | 199100 | 221674
10 | 49:15.50 | 6:30.00 | 221675 | 250924
11 | 55:45.50 | 3:13.00 | 250925 | 265399


Range status and errors

Selected range

Filename C:\EACRip\SONY VIVARTE - 60 CD COLLECTION (Sony, 60CD)(2013) [Boxset]\CD06 - Mozart - Misa Longa, etc\VIVARTE - 60 CD Collection (CD 6) Mozart - Missa Longa, etc - Gerhard Schmidt-Gaden.wav

Peak level 98.1 %
Extraction speed 7.3 X
Range quality 100.0 %
Test CRC 0C79F086
Copy CRC 0C79F086
Copy OK

No errors occurred


AccurateRip summary

Track 1 accurately ripped (confidence 35) [0826D9F0] (AR v2)
Track 2 accurately ripped (confidence 35) [ED7AD875] (AR v2)
Track 3 accurately ripped (confidence 35) [24746945] (AR v2)
Track 4 accurately ripped (confidence 35) [F07346A9] (AR v2)
Track 5 accurately ripped (confidence 34) [599152BE] (AR v2)
Track 6 accurately ripped (confidence 35) [7D2F8D1E] (AR v2)
Track 7 accurately ripped (confidence 35) [75754907] (AR v2)
Track 8 accurately ripped (confidence 35) [229E1975] (AR v2)
Track 9 accurately ripped (confidence 34) [858E6615] (AR v2)
Track 10 accurately ripped (confidence 35) [881FA094] (AR v2)
Track 11 accurately ripped (confidence 35) [DDF14E72] (AR v2)

All tracks accurately ripped

End of status report

–– CUETools DB Plugin V2.1.6

[CTDB TOCID: LtL1cfXqHDoH6WqsYz4_fxDs4JE-] found
Submit result: LtL1cfXqHDoH6WqsYz4_fxDs4JE- has been confirmed
Track | CTDB Status
1 | (63/63) Accurately ripped
2 | (63/63) Accurately ripped
3 | (63/63) Accurately ripped
4 | (63/63) Accurately ripped
5 | (63/63) Accurately ripped
6 | (63/63) Accurately ripped
7 | (63/63) Accurately ripped
8 | (63/63) Accurately ripped
9 | (63/63) Accurately ripped
10 | (63/63) Accurately ripped
11 | (63/63) Accurately ripped


==== Log checksum 3B18B59F894BA1DF4523EAFE1503C9171603B126D5BFAB1AB67D760268E3108B ====


Exact Audio Copy V1.3 from 2. September 2016

EAC extraction logfile from 22. August 2019, 22:14

L'Archibudelli / VIVARTE - 60 CD Collection (CD 7) Mozart - Divertimenti K. 334 & K. 247

Used drive : ATAPI iHAS124 F Adapter: 1 ID: 0

Read mode : Secure
Utilize accurate stream : Yes
Defeat audio cache : Yes
Make use of C2 pointers : No

Read offset correction : 6
Overread into Lead-In and Lead-Out : No
Fill up missing offset samples with silence : Yes
Delete leading and trailing silent blocks : No
Null samples used in CRC calculations : Yes
Used interface : Native Win32 interface for Win NT & 2000

Used output format : User Defined Encoder
Selected bitrate : 1024 kBit/s
Quality : High
Add ID3 tag : No
Command line compressor : C:\Program Files (x86)\Exact Audio Copy\FLAC\FLAC.EXE
Additional command line options : -6 -V -T "ARTIST=%artist%" -T "TITLE=%title%" -T "ALBUM=%albumtitle%" -T "DATE=%year%" -T "TRACKNUMBER=%tracknr%" -T "GENRE=%genre%" -T "COMMENT=%comment%" -T "BAND=%albuminterpret%" -T "ALBUMARTIST=%albuminterpret%" -T "COMPOSER=%composer%" %haslyrics%–tag-from-file=LYRICS="%lyricsfile%"%haslyrics% -T "DISCNUMBER=%cdnumber%" -T "TOTALDISCS=%totalcds%" -T "TOTALTRACKS=%numtracks%" %hascover%–picture="%coverfile%"%hascover% %source% -o %dest%


TOC of the extracted CD

Track | Start | Length | Start sector | End sector
––––––––––––––––––––––––––––-
1 | 0:00.00 | 9:48.52 | 0 | 44151
2 | 9:48.52 | 7:58.60 | 44152 | 80061
3 | 17:47.37 | 4:21.58 | 80062 | 99694
4 | 22:09.20 | 5:02.07 | 99695 | 122351
5 | 27:11.27 | 7:11.43 | 122352 | 154719
6 | 34:22.70 | 9:14.17 | 154720 | 196286
7 | 43:37.12 | 8:39.55 | 196287 | 235266
8 | 52:16.67 | 4:02.68 | 235267 | 253484
9 | 56:19.60 | 4:15.42 | 253485 | 272651
10 | 60:35.27 | 5:01.60 | 272652 | 295286
11 | 65:37.12 | 3:37.00 | 295287 | 311561
12 | 69:14.12 | 5:51.13 | 311562 | 337899


Range status and errors

Selected range

Filename C:\EACRip\SONY VIVARTE - 60 CD COLLECTION (Sony, 60CD)(2013) [Boxset]\CD07 - Mozart - Divertimenti 334, 247\VIVARTE - 60 CD Collection (CD 7) Mozart - Divertimenti K. 334 & K. 247 - L'Archibudelli.wav

Peak level 99.9 %
Extraction speed 9.2 X
Range quality 99.9 %
Test CRC 940CB77C
Copy CRC 940CB77C
Copy OK

No errors occurred


AccurateRip summary

Track 1 accurately ripped (confidence 37) [12F441FD] (AR v2)
Track 2 accurately ripped (confidence 37) [E6A97971] (AR v2)
Track 3 accurately ripped (confidence 37) [6311A3C4] (AR v2)
Track 4 accurately ripped (confidence 37) [8B9693EF] (AR v2)
Track 5 accurately ripped (confidence 37) [99CDF32B] (AR v2)
Track 6 accurately ripped (confidence 37) [7491D760] (AR v2)
Track 7 accurately ripped (confidence 37) [EEC29A98] (AR v2)
Track 8 accurately ripped (confidence 37) [4B75F41B] (AR v2)
Track 9 accurately ripped (confidence 37) [8AE903D3] (AR v2)
Track 10 accurately ripped (confidence 37) [BBAD0B02] (AR v2)
Track 11 accurately ripped (confidence 37) [AD2B97C9] (AR v2)
Track 12 accurately ripped (confidence 36) [82287729] (AR v2)

All tracks accurately ripped

End of status report

–– CUETools DB Plugin V2.1.6

[CTDB TOCID: dbWg.AYU8vxjKhXWAVravYtpECQ-] found
Submit result: dbWg.AYU8vxjKhXWAVravYtpECQ- has been confirmed
Track | CTDB Status
1 | (66/66) Accurately ripped
2 | (66/66) Accurately ripped
3 | (66/66) Accurately ripped
4 | (66/66) Accurately ripped
5 | (66/66) Accurately ripped
6 | (66/66) Accurately ripped
7 | (66/66) Accurately ripped
8 | (66/66) Accurately ripped
9 | (66/66) Accurately ripped
10 | (66/66) Accurately ripped
11 | (66/66) Accurately ripped
12 | (66/66) Accurately ripped


==== Log checksum E58363775C42C97A71205147139B08883CBD610EF6DDB290AFC5B306594EC7A3 ====


Exact Audio Copy V1.3 from 2. September 2016

EAC extraction logfile from 23. August 2019, 0:41

L'Archibudelli / VIVARTE - 60 CD Collection (CD 8) Mozart - Divertimento, K. 563; 4 Adagios & Fugues after Bach

Used drive : ATAPI iHAS124 F Adapter: 1 ID: 0

Read mode : Secure
Utilize accurate stream : Yes
Defeat audio cache : Yes
Make use of C2 pointers : No

Read offset correction : 6
Overread into Lead-In and Lead-Out : No
Fill up missing offset samples with silence : Yes
Delete leading and trailing silent blocks : No
Null samples used in CRC calculations : Yes
Used interface : Native Win32 interface for Win NT & 2000

Used output format : User Defined Encoder
Selected bitrate : 1024 kBit/s
Quality : High
Add ID3 tag : No
Command line compressor : C:\Program Files (x86)\Exact Audio Copy\FLAC\FLAC.EXE
Additional command line options : -6 -V -T "ARTIST=%artist%" -T "TITLE=%title%" -T "ALBUM=%albumtitle%" -T "DATE=%year%" -T "TRACKNUMBER=%tracknr%" -T "GENRE=%genre%" -T "COMMENT=%comment%" -T "BAND=%albuminterpret%" -T "ALBUMARTIST=%albuminterpret%" -T "COMPOSER=%composer%" %haslyrics%–tag-from-file=LYRICS="%lyricsfile%"%haslyrics% -T "DISCNUMBER=%cdnumber%" -T "TOTALDISCS=%totalcds%" -T "TOTALTRACKS=%numtracks%" %hascover%–picture="%coverfile%"%hascover% %source% -o %dest%


TOC of the extracted CD

Track | Start | Length | Start sector | End sector
––––––––––––––––––––––––––––-
1 | 0:00.32 | 7:51.18 | 32 | 35374
2 | 7:51.50 | 8:09.05 | 35375 | 72054
3 | 16:00.55 | 4:55.20 | 72055 | 94199
4 | 20:56.00 | 6:45.12 | 94200 | 124586
5 | 27:41.12 | 5:27.38 | 124587 | 149149
6 | 33:08.50 | 5:53.20 | 149150 | 175644
7 | 39:01.70 | 3:24.37 | 175645 | 190981
8 | 42:26.32 | 2:34.03 | 190982 | 202534
9 | 45:00.35 | 3:35.40 | 202535 | 218699
10 | 48:36.00 | 3:44.62 | 218700 | 235561
11 | 52:20.62 | 2:39.28 | 235562 | 247514
12 | 55:00.15 | 2:26.20 | 247515 | 258484
13 | 57:26.35 | 3:04.40 | 258485 | 272324
14 | 60:31.00 | 2:11.45 | 272325 | 282194


Range status and errors

Selected range

Filename C:\EACRip\SONY VIVARTE - 60 CD COLLECTION (Sony, 60CD)(2013) [Boxset]\CD08 - Mozart - Divertimento 563, etc\CD\VIVARTE - 60 CD Collection (CD 8) Mozart - Divertimento, K. 563, 4 Adagios & Fugues after Bach - L'Archibudelli.wav

Peak level 95.4 %
Extraction speed 9.2 X
Range quality 100.0 %
Test CRC FF7E3DDC
Copy CRC FF7E3DDC
Copy OK

No errors occurred


AccurateRip summary

Track 1 accurately ripped (confidence 36) [B8CB6A45] (AR v2)
Track 2 accurately ripped (confidence 36) [B923FBF3] (AR v2)
Track 3 accurately ripped (confidence 36) [9EB4E272] (AR v2)
Track 4 accurately ripped (confidence 36) [6F274857] (AR v2)
Track 5 accurately ripped (confidence 36) [C56880E5] (AR v2)
Track 6 accurately ripped (confidence 35) [7052986C] (AR v2)
Track 7 accurately ripped (confidence 35) [191A6718] (AR v2)
Track 8 accurately ripped (confidence 36) [E758702F] (AR v2)
Track 9 accurately ripped (confidence 36) [EA20D6A2] (AR v2)
Track 10 accurately ripped (confidence 36) [A1663AFC] (AR v2)
Track 11 accurately ripped (confidence 36) [096AC0A7] (AR v2)
Track 12 accurately ripped (confidence 36) [088299FF] (AR v2)
Track 13 accurately ripped (confidence 36) [3D709728] (AR v2)
Track 14 accurately ripped (confidence 36) [6D2E79DE] (AR v2)

All tracks accurately ripped

End of status report

–– CUETools DB Plugin V2.1.6

[CTDB TOCID: f8RO9CXVk._nStNE0eWQaKSJWVs-] found
Submit result: f8RO9CXVk._nStNE0eWQaKSJWVs- has been confirmed
Track | CTDB Status
1 | (39/39) Accurately ripped
2 | (39/39) Accurately ripped
3 | (39/39) Accurately ripped
4 | (39/39) Accurately ripped
5 | (39/39) Accurately ripped
6 | (39/39) Accurately ripped
7 | (39/39) Accurately ripped
8 | (39/39) Accurately ripped
9 | (39/39) Accurately ripped
10 | (39/39) Accurately ripped
11 | (39/39) Accurately ripped
12 | (39/39) Accurately ripped
13 | (39/39) Accurately ripped
14 | (39/39) Accurately ripped


==== Log checksum 1BAA1FC0F34CCD7A9818168E2F92083D59AE321DA7F9775336144FE6AD9E9D74 ====


Exact Audio Copy V1.3 from 2. September 2016

EAC extraction logfile from 23. August 2019, 1:16

Vera Beths, Lisa Reutenberg, Jody Gatwood, Steven Dann, Anner Bylsma, Kenneth Slowik / VIVARTE - 60 CD Collection (CD 9) Schubert - Quintet in C, Rondo in A

Used drive : ATAPI iHAS124 F Adapter: 1 ID: 0

Read mode : Secure
Utilize accurate stream : Yes
Defeat audio cache : Yes
Make use of C2 pointers : No

Read offset correction : 6
Overread into Lead-In and Lead-Out : No
Fill up missing offset samples with silence : Yes
Delete leading and trailing silent blocks : No
Null samples used in CRC calculations : Yes
Used interface : Native Win32 interface for Win NT & 2000

Used output format : User Defined Encoder
Selected bitrate : 1024 kBit/s
Quality : High
Add ID3 tag : No
Command line compressor : C:\Program Files (x86)\Exact Audio Copy\FLAC\FLAC.EXE
Additional command line options : -6 -V -T "ARTIST=%artist%" -T "TITLE=%title%" -T "ALBUM=%albumtitle%" -T "DATE=%year%" -T "TRACKNUMBER=%tracknr%" -T "GENRE=%genre%" -T "COMMENT=%comment%" -T "BAND=%albuminterpret%" -T "ALBUMARTIST=%albuminterpret%" -T "COMPOSER=%composer%" %haslyrics%–tag-from-file=LYRICS="%lyricsfile%"%haslyrics% -T "DISCNUMBER=%cdnumber%" -T "TOTALDISCS=%totalcds%" -T "TOTALTRACKS=%numtracks%" %hascover%–picture="%coverfile%"%hascover% %source% -o %dest%


TOC of the extracted CD

Track | Start | Length | Start sector | End sector
––––––––––––––––––––––––––––-
1 | 0:00.00 | 18:06.12 | 0 | 81461
2 | 18:06.12 | 14:26.00 | 81462 | 146411
3 | 32:32.12 | 10:04.00 | 146412 | 191711
4 | 42:36.12 | 9:24.00 | 191712 | 234011
5 | 52:00.12 | 15:42.20 | 234012 | 304681


Range status and errors

Selected range

Filename C:\EACRip\SONY VIVARTE - 60 CD COLLECTION (Sony, 60CD)(2013) [Boxset]\CD09 - Schubert - Octet in C, Rondo in A\VIVARTE - 60 CD Collection (CD 9) Schubert - Quintet in C, Rondo in A.wav

Peak level 94.8 %
Extraction speed 9.5 X
Range quality 100.0 %
Test CRC EB20A795
Copy CRC EB20A795
Copy OK

No errors occurred


AccurateRip summary

Track 1 accurately ripped (confidence 38) [367A275E] (AR v2)
Track 2 accurately ripped (confidence 38) [954A07B9] (AR v2)
Track 3 accurately ripped (confidence 38) [168BDC31] (AR v2)
Track 4 accurately ripped (confidence 38) [F1013D03] (AR v2)
Track 5 accurately ripped (confidence 38) [BA3E81D6] (AR v2)

All tracks accurately ripped

End of status report

–– CUETools DB Plugin V2.1.6

[CTDB TOCID: SNprUqnE4FwPGLfRmxsoAGZAubc-] found
Submit result: SNprUqnE4FwPGLfRmxsoAGZAubc- has been confirmed
Track | CTDB Status
1 | (63/63) Accurately ripped
2 | (63/63) Accurately ripped
3 | (63/63) Accurately ripped
4 | (63/63) Accurately ripped
5 | (63/63) Accurately ripped


==== Log checksum 943438D3F7A79ACBE6DCF132613E64E01F5B5C5726011828C62FF6E4D41D74B0 ====


Exact Audio Copy V1.3 from 2. September 2016

EAC extraction logfile from 23. August 2019, 1:49

Bruno Weil / VIVARTE - 60 CD Collection (CD 10) Schubert - Symphonies 5 & 6

Used drive : ATAPI iHAS124 F Adapter: 1 ID: 0

Read mode : Secure
Utilize accurate stream : Yes
Defeat audio cache : Yes
Make use of C2 pointers : No

Read offset correction : 6
Overread into Lead-In and Lead-Out : No
Fill up missing offset samples with silence : Yes
Delete leading and trailing silent blocks : No
Null samples used in CRC calculations : Yes
Used interface : Native Win32 interface for Win NT & 2000

Used output format : User Defined Encoder
Selected bitrate : 1024 kBit/s
Quality : High
Add ID3 tag : No
Command line compressor : C:\Program Files (x86)\Exact Audio Copy\FLAC\FLAC.EXE
Additional command line options : -6 -V -T "ARTIST=%artist%" -T "TITLE=%title%" -T "ALBUM=%albumtitle%" -T "DATE=%year%" -T "TRACKNUMBER=%tracknr%" -T "GENRE=%genre%" -T "COMMENT=%comment%" -T "BAND=%albuminterpret%" -T "ALBUMARTIST=%albuminterpret%" -T "COMPOSER=%composer%" %haslyrics%–tag-from-file=LYRICS="%lyricsfile%"%haslyrics% -T "DISCNUMBER=%cdnumber%" -T "TOTALDISCS=%totalcds%" -T "TOTALTRACKS=%numtracks%" %hascover%–picture="%coverfile%"%hascover% %source% -o %dest%


TOC of the extracted CD

Track | Start | Length | Start sector | End sector
––––––––––––––––––––––––––––-
1 | 0:00.00 | 6:52.38 | 0 | 30937
2 | 6:52.38 | 7:51.05 | 30938 | 66267
3 | 14:43.43 | 4:23.40 | 66268 | 86032
4 | 19:07.08 | 5:43.70 | 86033 | 111827
5 | 24:51.03 | 9:22.60 | 111828 | 154037
6 | 34:13.63 | 7:16.22 | 154038 | 186759
7 | 41:30.10 | 6:13.63 | 186760 | 214797
8 | 47:43.73 | 8:49.32 | 214798 | 254504


Range status and errors

Selected range

Filename C:\EACRip\SONY VIVARTE - 60 CD COLLECTION (Sony, 60CD)(2013) [Boxset]\CD10 - Schubert - Symphonies 5 & 6\VIVARTE - 60 CD Collection (CD 10) Schubert - Symphonies 5 & 6 - Bruno Weil.wav

Peak level 99.0 %
Extraction speed 8.5 X
Range quality 99.9 %
Test CRC 8E464FBC
Copy CRC 8E464FBC
Copy OK

No errors occurred


AccurateRip summary

Track 1 accurately ripped (confidence 36) [CFA9D65C] (AR v2)
Track 2 accurately ripped (confidence 36) [F29D4D76] (AR v2)
Track 3 accurately ripped (confidence 36) [C76CF3C4] (AR v2)
Track 4 accurately ripped (confidence 36) [715FC70C] (AR v2)
Track 5 accurately ripped (confidence 36) [252D0167] (AR v2)
Track 6 accurately ripped (confidence 36) [FD8D276C] (AR v2)
Track 7 accurately ripped (confidence 36) [06BEA414] (AR v2)
Track 8 accurately ripped (confidence 36) [46C352AA] (AR v2)

All tracks accurately ripped

End of status report

–– CUETools DB Plugin V2.1.6

[CTDB TOCID: 1gqczCe4ocIxi8A3j86zID_ExnQ-] found
Submit result: 1gqczCe4ocIxi8A3j86zID_ExnQ- has been confirmed
Track | CTDB Status
1 | (61/61) Accurately ripped
2 | (61/61) Accurately ripped
3 | (61/61) Accurately ripped
4 | (61/61) Accurately ripped
5 | (61/61) Accurately ripped
6 | (61/61) Accurately ripped
7 | (61/61) Accurately ripped
8 | (61/61) Accurately ripped


==== Log checksum 51A7025754EC6A0DA6D387305D655356251C98BC20470A993384C13473CA601C ====


Vivarte Collection Vol. 1 [60CDs] (2013)

Thanks to the original releaser