Subcategories

Vladimir Ashkenazy, Philharmonia Orchestra - W.A. Mozart: The Piano Concertos (1995) 10 CD Box Set, Reissue 2006 [Re-Up]

Posted By: Designol
Vladimir Ashkenazy, Philharmonia Orchestra - W.A. Mozart: The Piano Concertos (1995) 10 CD Box Set, Reissue 2006 [Re-Up]

Wolfgang Amadeus Mozart: The Piano Concertos (1995) 10 CD Box Set, Reissue 2006
Vladimir Ashkenazy (piano & conductor), Philharmonia Orchestra
with Fou Ts'ong, piano; English Chamber Orchestra, Daniel Barenboim (conductor & piano);
London Symphony Orchestra, István Kertész (conductor)

EAC | FLAC | Tracks (Cue&Log) ~ 2.78 Gb | Mp3 (CBR320) ~ 1.63 Gb | Scans ~ 165 Mb
Genre: Classical | Label: Decca | # 476 8904 | Time: 12:09:46

Even though Vladimir Ashkenazy is most often celebrated for his brilliantly virtuosic interpretations of Romantic repertoire, his skills in playing works of the Classical era are just as worthy, as proved by this 10-disc set from London of Wolfgang Amadeus Mozart's piano concertos. These performances span a period from 1966 to 1988, capturing a youthful and vigorous Ashkenazy playing and conducting the Philharmonia Orchestra and the English Chamber Orchestra from the keyboard, in approved Mozartian fashion. All of the keyboard concertos are here, including the official 27 concertos for piano and orchestra, the Concerto for two pianos in E flat major, K. 365, the Concerto for three pianos in F major, K. 242, as well as the two Rondos K. 382 and K. 386. Ashkenazy's elegant playing has been highly praised by critics and placed on a level with his esteemed contemporaries Murray Perahia, Daniel Barenboim, and Alfred Brendel, all past masters of Mozart's primary medium of expression. Because these recordings are either analog or digital, according to their dates, there are some noticeable differences in the quality of sound, but London has taken pains to master all the recordings to even out the volume levels and to adjust the tone of the performances.

Review by Blair Sanderson, Allmusic.com

Rarely do soloists and orchestras create such an amazing musical experience. Even more rare is that this experience is duplicated over two dozen times. Vladimir Ashkenazy and the Philharmonia Orchestra create what is truly one of the crowning achievements of audiophile history.

I have owned this set now for nearly half a decade and I am still surprised by Ashkenazy's level of musicianship. Not that I have ever doubted his skill, rather, I am still amazed that this master of Rachmaninoff and the romantics approaches these pieces so perfectly. Ashkenazy plays these concertos as they should be played. His typical sense of drama is somewhat subdued, replaced with a sublime sense of delicacy and classical phrasing. He brings out the beautiful chromaticism, the magical melodies, and the pure beauty of Mozart effortlessly.

What is even more wonderful is that the orchestral accompaniment is top notch. Although these are not period performances, the Philharmonia plays with a classical grace and level of perfection that push these performances over the top. The orchestra's sound is full, accompanying Ashkenazy's "full" sound quite well. As mentioned above, Ashkenazy (who conducts these performances from the piano) instills in the orchestra the perfect balance of classical grace and dramatic flair.

Finally, the recorded sound is flawless. This set is so appealing to me because Ashkenazy approaches these performances in an organized, coherent fashion. Unlike his set of the Beethoven concertos (where Ashkenazy's technique, phrasing, and ultimate interpretation is dramatically different in each concerto), Ashkenazy maintains a sense of classical style throughout the cycle. And not only are the interpretations so consistent, but the sound is as well. It almost seems as if all the concertos were recorded in one session.

Moments like this are rare in music. There are certainly individual performances of the concertos that may be more appealing here or there, but all in all Ashkenazy's cycle delivers the most consistently fresh, powerful, and beautiful interpretations. For those that are not sure they want to invest so much for this set, look into Decca's CD of the "Big Six" concertos (20-25) on two CDs. But you would be missing out. Ashkenazy does not "run through" the earlier concertos but actually plays them all as if they were all equally masterful. I highly recommend this set. It is a wonderful musical investment.

Review by Prescott Cunningham Moore

Vladimir Ashkenazy, Philharmonia Orchestra - W.A. Mozart: The Piano Concertos (1995) 10 CD Box Set, Reissue 2006 [Re-Up]



Vladimir Ashkenazy, Philharmonia Orchestra - W.A. Mozart: The Piano Concertos (1995) 10 CD Box Set, Reissue 2006 [Re-Up]



Tracklist:

CD1:

Konzert Nr. 5 D-dur, KV 175:
01. I. Allegro (08:25)
02. II. Andante ma un poco adagio (08:52)
03. III. Allegro (05:14)

Konzert Nr. 6 B-dur, KV 238:
04. I. Allegro aperto (06:46)
05. II. Andante un poco adagio (06:24)
06. III. Rondeau: Allegro (07:28)

Konzert Nr. 7 F-dur «Lodron-Konzert» (für 3 Klaviere), KV 242:
07. I. Allegro (08:21)
08. II. Adagio (09:11)
09. III. Rondeau: Tempo di Menuetto (05:54)

CD2:

Konzert Nr. 8 C-dur «Lützow-Konzert», KV 246:
01. I. Allegro aperto (07:45)
02. II. Andante (08:52)
03. III. Rondeau: Tempo di Menuetto (07:16)

Konzert Nr. 9 Es-dur «Jeunehomme-Konzert», KV 271:
04. I. Allegro (10:39)
05. II. Andantino (12:31)
06. III. Rondeau: Presto (10:45)

Konzert Nr. 1 F-dur, KV 37:
07. I. Allegro (05:07)
08. II. Andante (04:37)
09. III. Allegro (06:40)

CD3:

Konzert Nr. 11 F-dur, KV 413 (387a):
01. I. Allegro (09:23)
02. II. Larghetto (08:23)
03. III. Tempo di Menuetto (05:34)

Konzert Nr. 12 A-dur, KV 414 (385p):
04. I. Allegro (10:34)
05. II. Andante (10:02)
06. III. Rondeau: Allegretto (07:03)

Konzert Nr. 10 Es-dur (für 2 Klaviere), KV 365 (316a):
07. I. Allegro (09:43)
08. II. Andante (08:44)
09. III. Rondeau: Allegro (07:15)

CD4:

Konzert Nr. 13 C-dur, KV 415 (387b):
01. I. Allegro (10:46)
02. II. Andante (08:29)
03. III. Rondeau: Allegro (08:42)

Konzert Nr. 14 Es-dur, KV 449:
04. I. Allegro vivace (09:02)
05. II. Andantino (08:05)
06. III. Allegro ma non troppo (06:30)

Konzert Nr. 15 B-dur, KV 450:
07. I. Allegro (10:50)
08. II. Andante (06:11)
09. III. Allegro (07:56)

CD5:

Konzert Nr. 16 D-dur, KV 451:
01. I. Allegro assai (10:58)
02. II. Andante (06:46)
03. III. Rondeau: Allegro di molto (06:49)

Konzert Nr. 17 G-dur, KV 453:
04. I. Allegro (12:16)
05. II. Andante (11:06)
06. III. Allegretto (08:25)

Konzert Nr. 2 B-dur, KV 39:
07. I. Allegro spiritoso (04:45)
08. II. Andante (05:20)
09. III. Allegro molto (04:11)

CD6:

Konzert Nr. 18 B-dur, KV 456:
01. I. Allegro vivace (12:38)
02. II. Andante un poco sostenuto (11:29)
03. III. Allegro vivace (07:40)

Konzert Nr. 19 F-dur, KV 459:
04. I. Allegro (12:44)
05. II. Allegretto (08:14)
06. III. Allegro assai (07:52)

Konzert Nr. 3 D-dur, KV 40:
07. I. Allegro maestoso (05:10)
08. II. Andante (05:35)
09. III. Presto (03:49)

CD7:

Konzert Nr. 20 d-moll, KV 466:
01. I. Allegro (15:19)
02. II. Romance (10:40)
03. III. Allegro assai (08:32)

Konzert Nr. 22 Es-dur, KV 482:
04. I. Allegro (13:49)
05. II. Andante (10:12)
06. III. Allegro (12:44)

CD8:

Konzert Nr. 21 C-dur, KV 467:
01. I. Allegro maestoso (14:51)
02. II. Andante (07:54)
03. III. Allegro vivace assai (06:42)

Konzert Nr. 23 A-dur, KV 488:
04. I. Allegro (11:20)
05. II. Adagio (07:31)
06. III. Allegro assai (08:14)

Konzert Nr. 4 G-dur, KV 41:
07. I. Allegro (04:59)
08. II. Andante (04:20)
09. III. Allegro molto (03:54)

CD9:

Konzert Nr. 24 c-moll, KV 491:
01. I. Allegro (14:29)
02. II. Larghetto (08:19)
03. III. Allegretto (09:31)

Konzert Nr. 25 C-dur, KV 503:
04. I. Allegro maestoso (15:51)
05. II. Andante (07:33)
06. III. Allegretto (08:50)

07. Rondo D-dur, KV 382 (Alternative zum III. Satz von KV 175): Allegretto grazioso (10:41)

CD10:

Konzert Nr. 26 D-dur «Krönungskonzert», KV 537:
01. I. Allegro (14:45)
02. II. Larghetto (06:47)
03. III. Allegretto (10:46)

Konzert Nr. 27 B-dur, KV 595:
04. I. Allegro (14:12)
05. II. Larghetto (09:19)
06. III. Allegro (09:06)

07. Rondo A-dur, KV 386 (Alternative zum III. Satz von KV 414): Allegretto (08:22)


Exact Audio Copy V0.99 prebeta 5 from 4. May 2009

EAC extraction logfile from 9. July 2010, 12:57

Vladimir Ashkenazy, Philharmonia Orchestra / Mozart : The Piano Concertos (CD1) - Nos.5, 6 & Concerto for 3 Pianos

Used drive : TSSTcorpCD/DVDW TS-H653L Adapter: 2 ID: 1

Read mode : Secure
Utilize accurate stream : Yes
Defeat audio cache : Yes
Make use of C2 pointers : No

Read offset correction : 6
Overread into Lead-In and Lead-Out : No
Fill up missing offset samples with silence : Yes
Delete leading and trailing silent blocks : No
Null samples used in CRC calculations : Yes
Used interface : Native Win32 interface for Win NT & 2000
Gap handling : Appended to previous track

Used output format : User Defined Encoder
Selected bitrate : 320 kBit/s
Quality : High
Add ID3 tag : No
Command line compressor : C:\Program Files\FLAC\flac.exe
Additional command line options : -V -5 -T "artist=%a" -T "title=%t" -T "album=%g" -T "date=%y" -T "tracknumber=%n" -T "genre=%m" %s


TOC of the extracted CD

Track | Start | Length | Start sector | End sector
––––––––––––––––––––––––––––-
1 | 0:00.32 | 8:25.30 | 32 | 37936
2 | 8:25.62 | 8:52.45 | 37937 | 77881
3 | 17:18.32 | 5:14.70 | 77882 | 101501
4 | 22:33.27 | 6:46.05 | 101502 | 131956
5 | 29:19.32 | 6:24.33 | 131957 | 160789
6 | 35:43.65 | 7:28.45 | 160790 | 194434
7 | 43:12.35 | 8:21.50 | 194435 | 232059
8 | 51:34.10 | 9:11.55 | 232060 | 273439
9 | 60:45.65 | 5:54.02 | 273440 | 299991


Track 1

Filename j:\eacrips\Vladimir Ashkenazy, Philharmonia Orchestra - 1986 - Mozart - The Piano Concertos (CD1) - Nos.5, 6 & Concerto for 3 Pianos\01 - Piano Concerto No.5 in D major, KV 175 - I. Allegro.wav

Pre-gap length 0:00:02.32

Peak level 64.3 %
Track quality 99.9 %
Test CRC EC22DB7B
Copy CRC EC22DB7B
Accurately ripped (confidence 8) [B9E3BF91]
Copy OK

Track 2

Filename j:\eacrips\Vladimir Ashkenazy, Philharmonia Orchestra - 1986 - Mozart - The Piano Concertos (CD1) - Nos.5, 6 & Concerto for 3 Pianos\02 - Piano Concerto No.5 in D major, KV 175 - II. Andante ma un poco adagio.wav

Pre-gap length 0:00:02.62

Peak level 38.4 %
Track quality 99.9 %
Test CRC 331655F3
Copy CRC 331655F3
Accurately ripped (confidence 9) [5D9F58C2]
Copy OK

Track 3

Filename j:\eacrips\Vladimir Ashkenazy, Philharmonia Orchestra - 1986 - Mozart - The Piano Concertos (CD1) - Nos.5, 6 & Concerto for 3 Pianos\03 - Piano Concerto No.5 in D major, KV 175 - III. Allegro (cadenza by P. Badura-Skoda).wav

Pre-gap length 0:00:00.35

Peak level 55.7 %
Track quality 100.0 %
Test CRC F697FAEF
Copy CRC F697FAEF
Accurately ripped (confidence 9) [3C9F18B3]
Copy OK

Track 4

Filename j:\eacrips\Vladimir Ashkenazy, Philharmonia Orchestra - 1986 - Mozart - The Piano Concertos (CD1) - Nos.5, 6 & Concerto for 3 Pianos\04 - Piano Concerto No.6 in B major, KV 238 - I. Allegro aperto.wav

Pre-gap length 0:00:08.02

Peak level 51.7 %
Track quality 100.0 %
Test CRC 05434E64
Copy CRC 05434E64
Accurately ripped (confidence 7) [08233985]
Copy OK

Track 5

Filename j:\eacrips\Vladimir Ashkenazy, Philharmonia Orchestra - 1986 - Mozart - The Piano Concertos (CD1) - Nos.5, 6 & Concerto for 3 Pianos\05 - Piano Concerto No.6 in B major, KV 238 - II. (Andante un poco adagio).wav

Pre-gap length 0:00:01.60

Peak level 30.5 %
Track quality 100.0 %
Test CRC C2322C9D
Copy CRC C2322C9D
Accurately ripped (confidence 9) [85ECE649]
Copy OK

Track 6

Filename j:\eacrips\Vladimir Ashkenazy, Philharmonia Orchestra - 1986 - Mozart - The Piano Concertos (CD1) - Nos.5, 6 & Concerto for 3 Pianos\06 - Piano Concerto No.6 in B major, KV 238 - III. Rondeau- Allegro.wav

Peak level 46.3 %
Track quality 99.9 %
Test CRC FC36477E
Copy CRC FC36477E
Accurately ripped (confidence 9) [C82F3E3C]
Copy OK

Track 7

Filename j:\eacrips\Vladimir Ashkenazy, Philharmonia Orchestra - 1986 - Mozart - The Piano Concertos (CD1) - Nos.5, 6 & Concerto for 3 Pianos\07 - Concerto for Three Pianos in F major, KV 242 (with D. Barenboim, F. Ts'ong) - I. Allegro.wav

Pre-gap length 0:00:07.58

Peak level 73.3 %
Track quality 100.0 %
Test CRC 569A68F2
Copy CRC 569A68F2
Accurately ripped (confidence 9) [F6C46525]
Copy OK

Track 8

Filename j:\eacrips\Vladimir Ashkenazy, Philharmonia Orchestra - 1986 - Mozart - The Piano Concertos (CD1) - Nos.5, 6 & Concerto for 3 Pianos\08 - Concerto for Three Pianos in F major, KV 242 (with D. Barenboim, F. Ts'ong) - II. Adagio.wav

Pre-gap length 0:00:01.65

Peak level 47.5 %
Track quality 100.0 %
Test CRC EB383CAD
Copy CRC EB383CAD
Accurately ripped (confidence 9) [926A2C3F]
Copy OK

Track 9

Filename j:\eacrips\Vladimir Ashkenazy, Philharmonia Orchestra - 1986 - Mozart - The Piano Concertos (CD1) - Nos.5, 6 & Concerto for 3 Pianos\09 - Concerto for Three Pianos in F major, KV 242 (with D. Barenboim, F. Ts'ong) - III. Rondeau- Tempo di menu

Pre-gap length 0:00:02.53

Peak level 75.5 %
Track quality 100.0 %
Test CRC BCDCFDD6
Copy CRC BCDCFDD6
Accurately ripped (confidence 8) [BC77C82D]
Copy OK


All tracks accurately ripped

No errors occurred

End of status report

foobar2000 1.3.8 / Dynamic Range Meter 1.1.1
log date: 2015-05-16 20:26:36

––––––––––––––––––––––––––––––––––––––––
Analyzed: Philharmonia Orchestra. Vladimir Ashkenazy, soloist and conductor / Wolfgang Amadeus Mozart: Konzerte für Klavier und Orchester (1-6)
Vladimir Ashkenazy, Daniel Barenboim, Fou Ts'ong, English Chamber Orchestra. Daniel Barenboim, conductor / Wolfgang Amadeus Mozart: Konzerte für Klavier und Orchester (7-9)
––––––––––––––––––––––––––––––––––––––––

DR Peak RMS Duration Track
––––––––––––––––––––––––––––––––––––––––
DR13 -3.83 dB -22.09 dB 8:25 01-Konzert Nr. 5 D-dur, KV 175: I. Allegro
DR13 -8.30 dB -26.77 dB 8:53 02-Konzert Nr. 5 D-dur, KV 175: II. Andante ma un poco adagio
DR13 -5.07 dB -22.09 dB 5:15 03-Konzert Nr. 5 D-dur, KV 175: III. Allegro
DR13 -5.72 dB -23.27 dB 6:46 04-Konzert Nr. 6 B-dur, KV 238: I. Allegro aperto
DR12 -10.30 dB -28.85 dB 6:24 05-Konzert Nr. 6 B-dur, KV 238: II. Andante un poco adagio
DR13 -6.68 dB -24.14 dB 7:29 06-Konzert Nr. 6 B-dur, KV 238: III. Rondeau: Allegro
DR14 -2.70 dB -20.97 dB 8:22 07-Konzert Nr. 7 F-dur «Lodron-Konzert» (für 3 Klaviere), KV 242: I. Allegro
DR14 -6.45 dB -25.19 dB 9:12 08-Konzert Nr. 7 F-dur «Lodron-Konzert» (für 3 Klaviere), KV 242: II. Adagio
DR14 -2.44 dB -21.69 dB 5:54 09-Konzert Nr. 7 F-dur «Lodron-Konzert» (für 3 Klaviere), KV 242: III. Rondeau: Tempo di Menuetto
––––––––––––––––––––––––––––––––––––––––

Number of tracks: 9
Official DR value: DR13

Samplerate: 44100 Hz
Channels: 2
Bits per sample: 16
Bitrate: 527 kbps
Codec: FLAC
================================================================================


Exact Audio Copy V0.99 prebeta 5 from 4. May 2009

EAC extraction logfile from 9. July 2010, 13:22

Mozart / The Piano Concertos - Ashkenazy, Philharmonia Orchestra (Decca 2006) (Disc 2)

Used drive : TSSTcorpCD/DVDW TS-H653L Adapter: 2 ID: 1

Read mode : Secure
Utilize accurate stream : Yes
Defeat audio cache : Yes
Make use of C2 pointers : No

Read offset correction : 6
Overread into Lead-In and Lead-Out : No
Fill up missing offset samples with silence : Yes
Delete leading and trailing silent blocks : No
Null samples used in CRC calculations : Yes
Used interface : Native Win32 interface for Win NT & 2000
Gap handling : Appended to previous track

Used output format : User Defined Encoder
Selected bitrate : 320 kBit/s
Quality : High
Add ID3 tag : No
Command line compressor : C:\Program Files\FLAC\flac.exe
Additional command line options : -V -5 -T "artist=%a" -T "title=%t" -T "album=%g" -T "date=%y" -T "tracknumber=%n" -T "genre=%m" %s


TOC of the extracted CD

Track | Start | Length | Start sector | End sector
––––––––––––––––––––––––––––-
1 | 0:00.32 | 7:45.40 | 32 | 34946
2 | 7:45.72 | 8:52.70 | 34947 | 74916
3 | 16:38.67 | 7:16.40 | 74917 | 107656
4 | 23:55.32 | 10:39.00 | 107657 | 155581
5 | 34:34.32 | 12:31.00 | 155582 | 211906
6 | 47:05.32 | 10:45.00 | 211907 | 260281
7 | 57:50.32 | 5:07.00 | 260282 | 283306
8 | 62:57.32 | 4:37.00 | 283307 | 304081
9 | 67:34.32 | 6:40.00 | 304082 | 334081


Track 1

Filename j:\eacrips\Mozart - 2006 - The Piano Concertos - Ashkenazy, Philharmonia Orchestra (Decca 2006) (Disc 2)\01 - Concerto No. 8 in D major, K 246 - I Allegro aperto.wav

Pre-gap length 0:00:02.32

Peak level 95.5 %
Track quality 99.9 %
Test CRC F20A7CA7
Copy CRC F20A7CA7
Accurately ripped (confidence 7) [B85F6023]
Copy OK

Track 2

Filename j:\eacrips\Mozart - 2006 - The Piano Concertos - Ashkenazy, Philharmonia Orchestra (Decca 2006) (Disc 2)\02 - Concerto No. 8 in D major, K 246 - II Andante.wav

Pre-gap length 0:00:03.00

Peak level 82.5 %
Track quality 99.9 %
Test CRC 502557F2
Copy CRC 502557F2
Accurately ripped (confidence 8) [53A9023B]
Copy OK

Track 3

Filename j:\eacrips\Mozart - 2006 - The Piano Concertos - Ashkenazy, Philharmonia Orchestra (Decca 2006) (Disc 2)\03 - Concerto No. 8 in D major, K 246 - III Rondeau- Tempo di menuetto.wav

Pre-gap length 0:00:01.00

Peak level 76.3 %
Track quality 100.0 %
Test CRC 2B6F9AAC
Copy CRC 2B6F9AAC
Accurately ripped (confidence 8) [E8290596]
Copy OK

Track 4

Filename j:\eacrips\Mozart - 2006 - The Piano Concertos - Ashkenazy, Philharmonia Orchestra (Decca 2006) (Disc 2)\04 - Concerto No. 9 in E flat major, K 271 'Jeunehomme' - I Allegro.wav

Pre-gap length 0:00:09.00

Peak level 86.2 %
Track quality 100.0 %
Test CRC EF7AF207
Copy CRC EF7AF207
Accurately ripped (confidence 8) [9997FF31]
Copy OK

Track 5

Filename j:\eacrips\Mozart - 2006 - The Piano Concertos - Ashkenazy, Philharmonia Orchestra (Decca 2006) (Disc 2)\05 - Concerto No. 9 in E flat major, K 271 'Jeunehomme' - II Andantino.wav

Pre-gap length 0:00:03.00

Peak level 68.2 %
Track quality 100.0 %
Test CRC 455F9678
Copy CRC 455F9678
Accurately ripped (confidence 8) [FAEEF9B4]
Copy OK

Track 6

Filename j:\eacrips\Mozart - 2006 - The Piano Concertos - Ashkenazy, Philharmonia Orchestra (Decca 2006) (Disc 2)\06 - Concerto No. 9 in E flat major, K 271 'Jeunehomme' - III Presto · Menuetto · Presto.wav

Pre-gap length 0:00:02.00

Peak level 91.0 %
Track quality 100.0 %
Test CRC 30100AF7
Copy CRC 30100AF7
Accurately ripped (confidence 8) [79B85739]
Copy OK

Track 7

Filename j:\eacrips\Mozart - 2006 - The Piano Concertos - Ashkenazy, Philharmonia Orchestra (Decca 2006) (Disc 2)\07 - Concerto No. 1 in F major, K 37 - I Allegro.wav

Pre-gap length 0:00:09.00

Peak level 97.7 %
Track quality 100.0 %
Test CRC EB3A63CA
Copy CRC EB3A63CA
Accurately ripped (confidence 8) [A06D843D]
Copy OK

Track 8

Filename j:\eacrips\Mozart - 2006 - The Piano Concertos - Ashkenazy, Philharmonia Orchestra (Decca 2006) (Disc 2)\08 - Concerto No. 1 in F major, K 37 - II Andante.wav

Pre-gap length 0:00:04.00

Peak level 73.7 %
Track quality 100.0 %
Test CRC D0A99B59
Copy CRC D0A99B59
Accurately ripped (confidence 8) [5B59E081]
Copy OK

Track 9

Filename j:\eacrips\Mozart - 2006 - The Piano Concertos - Ashkenazy, Philharmonia Orchestra (Decca 2006) (Disc 2)\09 - Concerto No. 1 in F major, K 37 - III [Allegro].wav

Pre-gap length 0:00:01.00

Peak level 97.3 %
Track quality 100.0 %
Test CRC FFC885F6
Copy CRC FFC885F6
Accurately ripped (confidence 8) [4E144736]
Copy OK


All tracks accurately ripped

No errors occurred

End of status report

foobar2000 1.3.8 / Dynamic Range Meter 1.1.1
log date: 2015-05-16 20:27:52

––––––––––––––––––––––––––––––––––––––––
Analyzed: Philharmonia Orchestra. Vladimir Ashkenazy, soloist and conductor / Wolfgang Amadeus Mozart: Konzerte für Klavier und Orchester
––––––––––––––––––––––––––––––––––––––––

DR Peak RMS Duration Track
––––––––––––––––––––––––––––––––––––––––
DR13 -0.39 dB -19.94 dB 7:46 01-Konzert Nr. 8 C-dur «Lützow-Konzert», KV 246: I. Allegro aperto
DR13 -1.67 dB -22.30 dB 8:53 02-Konzert Nr. 8 C-dur «Lützow-Konzert», KV 246: II. Andante
DR13 -2.34 dB -19.77 dB 7:17 03-Konzert Nr. 8 C-dur «Lützow-Konzert», KV 246: III. Rondeau: Tempo di Menuetto
DR14 -1.29 dB -19.29 dB 10:39 04-Konzert Nr. 9 Es-dur «Jeunehomme-Konzert», KV 271: I. Allegro
DR13 -3.32 dB -22.40 dB 12:31 05-Konzert Nr. 9 Es-dur «Jeunehomme-Konzert», KV 271: II. Andantino
DR14 -0.82 dB -19.14 dB 10:45 06-Konzert Nr. 9 Es-dur «Jeunehomme-Konzert», KV 271: III. Rondeau: Presto
DR13 -0.20 dB -16.81 dB 5:07 07-Konzert Nr. 1 F-dur, KV 37: I. Allegro
DR13 -2.64 dB -22.06 dB 4:37 08-Konzert Nr. 1 F-dur, KV 37: II. Andante
DR14 -0.24 dB -17.77 dB 6:40 09-Konzert Nr. 1 F-dur, KV 37: III. Allegro
––––––––––––––––––––––––––––––––––––––––

Number of tracks: 9
Official DR value: DR13

Samplerate: 44100 Hz
Channels: 2
Bits per sample: 16
Bitrate: 598 kbps
Codec: FLAC
================================================================================


Exact Audio Copy V0.99 prebeta 5 from 4. May 2009

EAC extraction logfile from 9. July 2010, 14:41

Vladimir Ashkenazy, Philharmonia Orchestra / Mozart : The Piano Concertos (CD3) - Nos.11, 12 & Concerto for 2 Pianos

Used drive : TSSTcorpCD/DVDW TS-H653L Adapter: 2 ID: 1

Read mode : Secure
Utilize accurate stream : Yes
Defeat audio cache : Yes
Make use of C2 pointers : No

Read offset correction : 6
Overread into Lead-In and Lead-Out : No
Fill up missing offset samples with silence : Yes
Delete leading and trailing silent blocks : No
Null samples used in CRC calculations : Yes
Used interface : Native Win32 interface for Win NT & 2000
Gap handling : Appended to previous track

Used output format : User Defined Encoder
Selected bitrate : 320 kBit/s
Quality : High
Add ID3 tag : No
Command line compressor : C:\Program Files\FLAC\flac.exe
Additional command line options : -V -5 -T "artist=%a" -T "title=%t" -T "album=%g" -T "date=%y" -T "tracknumber=%n" -T "genre=%m" %s


TOC of the extracted CD

Track | Start | Length | Start sector | End sector
––––––––––––––––––––––––––––-
1 | 0:00.32 | 9:23.53 | 32 | 42309
2 | 9:24.10 | 8:23.22 | 42310 | 80056
3 | 17:47.32 | 5:34.00 | 80057 | 105106
4 | 23:21.32 | 10:34.55 | 105107 | 152711
5 | 33:56.12 | 10:02.20 | 152712 | 197881
6 | 43:58.32 | 7:03.65 | 197882 | 229671
7 | 51:02.22 | 9:43.50 | 229672 | 273446
8 | 60:45.72 | 8:44.53 | 273447 | 312799
9 | 69:30.50 | 7:15.57 | 312800 | 345481


Track 1

Filename j:\eacrips\Vladimir Ashkenazy, Philharmonia Orchestra - 1980 - Mozart - The Piano Concertos (CD3) - Nos.11, 12 & Concerto for 2 Pianos\01 - Piano Concerto No.11 in F major, KV 413,387a - I. Allegro.wav

Pre-gap length 0:00:02.32

Peak level 100.0 %
Track quality 100.0 %
Test CRC E0DFAAD7
Copy CRC E0DFAAD7
Accurately ripped (confidence 8) [77B50804]
Copy OK

Track 2

Filename j:\eacrips\Vladimir Ashkenazy, Philharmonia Orchestra - 1980 - Mozart - The Piano Concertos (CD3) - Nos.11, 12 & Concerto for 2 Pianos\02 - Piano Concerto No.11 in F major, KV 413,387a - II. Larghetto.wav

Pre-gap length 0:00:04.00

Peak level 65.9 %
Track quality 100.0 %
Test CRC CB0417EF
Copy CRC CB0417EF
Accurately ripped (confidence 9) [1AEB278D]
Copy OK

Track 3

Filename j:\eacrips\Vladimir Ashkenazy, Philharmonia Orchestra - 1980 - Mozart - The Piano Concertos (CD3) - Nos.11, 12 & Concerto for 2 Pianos\03 - Piano Concerto No.11 in F major, KV 413,387a - III. Tempo di menuetto.wav

Pre-gap length 0:00:02.00

Peak level 70.6 %
Track quality 100.0 %
Test CRC 05215926
Copy CRC 05215926
Accurately ripped (confidence 9) [8B3D09D0]
Copy OK

Track 4

Filename j:\eacrips\Vladimir Ashkenazy, Philharmonia Orchestra - 1980 - Mozart - The Piano Concertos (CD3) - Nos.11, 12 & Concerto for 2 Pianos\04 - Piano Concerto No.12 in A major, KV 414,385p - I. Allegro.wav

Pre-gap length 0:00:09.00

Peak level 97.9 %
Track quality 100.0 %
Test CRC 63063620
Copy CRC 63063620
Accurately ripped (confidence 9) [EBF444BE]
Copy OK

Track 5

Filename j:\eacrips\Vladimir Ashkenazy, Philharmonia Orchestra - 1980 - Mozart - The Piano Concertos (CD3) - Nos.11, 12 & Concerto for 2 Pianos\05 - Piano Concerto No.12 in A major, KV 414,385p - II. Andante.wav

Pre-gap length 0:00:03.00

Peak level 67.8 %
Track quality 100.0 %
Test CRC 73788AB6
Copy CRC 73788AB6
Accurately ripped (confidence 9) [4BE11D90]
Copy OK

Track 6

Filename j:\eacrips\Vladimir Ashkenazy, Philharmonia Orchestra - 1980 - Mozart - The Piano Concertos (CD3) - Nos.11, 12 & Concerto for 2 Pianos\06 - Piano Concerto No.12 in A major, KV 414,385p - III. Allegretto.wav

Pre-gap length 0:00:01.00

Peak level 95.3 %
Track quality 100.0 %
Test CRC 4D7FEAFB
Copy CRC 4D7FEAFB
Accurately ripped (confidence 9) [B9CE8898]
Copy OK

Track 7

Filename j:\eacrips\Vladimir Ashkenazy, Philharmonia Orchestra - 1980 - Mozart - The Piano Concertos (CD3) - Nos.11, 12 & Concerto for 2 Pianos\07 - Concerto for Two Pianos in E flat major, KV 365,316a (with D. Barenboim) - I. Allegro.wav

Pre-gap length 0:00:08.65

Peak level 87.4 %
Track quality 100.0 %
Test CRC 7B3FFC87
Copy CRC 7B3FFC87
Accurately ripped (confidence 9) [354C4BA2]
Copy OK

Track 8

Filename j:\eacrips\Vladimir Ashkenazy, Philharmonia Orchestra - 1980 - Mozart - The Piano Concertos (CD3) - Nos.11, 12 & Concerto for 2 Pianos\08 - Concerto for Two Pianos in E flat major, KV 365,316a (with D. Barenboim) - II. Andante.wav

Pre-gap length 0:00:04.62

Peak level 62.8 %
Track quality 100.0 %
Test CRC 9997A5C2
Copy CRC 9997A5C2
Accurately ripped (confidence 9) [0E7B1123]
Copy OK

Track 9

Filename j:\eacrips\Vladimir Ashkenazy, Philharmonia Orchestra - 1980 - Mozart - The Piano Concertos (CD3) - Nos.11, 12 & Concerto for 2 Pianos\09 - Concerto for Two Pianos in E flat major, KV 365,316a (with D. Barenboim) - III. Rondeau- Allegro.wav

Pre-gap length 0:00:00.63

Peak level 93.3 %
Track quality 100.0 %
Test CRC A6A21919
Copy CRC A6A21919
Accurately ripped (confidence 9) [B24CEE04]
Copy OK


All tracks accurately ripped

No errors occurred

End of status report

foobar2000 1.3.8 / Dynamic Range Meter 1.1.1
log date: 2015-05-16 20:28:58

––––––––––––––––––––––––––––––––––––––––
Analyzed: Philharmonia Orchestra. Vladimir Ashkenazy, soloist and conductor / Wolfgang Amadeus Mozart: Konzerte für Klavier und Orchester (1-6)
Vladimir Ashkenazy, Daniel Barenboim, English Chamber Orchestra. Daniel Barenboim, conductor / Wolfgang Amadeus Mozart: Konzerte für Klavier und Orchester (7-9)
––––––––––––––––––––––––––––––––––––––––

DR Peak RMS Duration Track
––––––––––––––––––––––––––––––––––––––––
DR15 0.00 dB -20.22 dB 9:24 01-Konzert Nr. 11 F-dur, KV 413 (387a): I. Allegro
DR13 -3.62 dB -23.33 dB 8:23 02-Konzert Nr. 11 F-dur, KV 413 (387a): II. Larghetto
DR13 -3.01 dB -22.05 dB 5:34 03-Konzert Nr. 11 F-dur, KV 413 (387a): III. Tempo di Menuetto
DR14 -0.18 dB -19.98 dB 10:35 04-Konzert Nr. 12 A-dur, KV 414 (385p): I. Allegro
DR13 -3.37 dB -22.53 dB 10:02 05-Konzert Nr. 12 A-dur, KV 414 (385p): II. Andante
DR13 -0.41 dB -20.03 dB 7:04 06-Konzert Nr. 12 A-dur, KV 414 (385p): III. Rondeau: Allegretto
DR14 -1.16 dB -19.78 dB 9:44 07-Konzert Nr. 10 Es-dur (für 2 Klaviere), KV 365 (316a): I. Allegro
DR16 -4.04 dB -25.50 dB 8:45 08-Konzert Nr. 10 Es-dur (für 2 Klaviere), KV 365 (316a): II. Andante
DR13 -0.60 dB -18.81 dB 7:16 09-Konzert Nr. 10 Es-dur (für 2 Klaviere), KV 365 (316a): III. Rondeau: Allegro
––––––––––––––––––––––––––––––––––––––––

Number of tracks: 9
Official DR value: DR14

Samplerate: 44100 Hz
Channels: 2
Bits per sample: 16
Bitrate: 563 kbps
Codec: FLAC
================================================================================


Exact Audio Copy V0.99 prebeta 5 from 4. May 2009

EAC extraction logfile from 9. July 2010, 15:15

Vladimir Ashkenazy, Philharmonia Orchestra / Mozart : The Piano Concertos (CD4) - Nos.13, 14 & 15

Used drive : TSSTcorpCD/DVDW TS-H653L Adapter: 2 ID: 1

Read mode : Secure
Utilize accurate stream : Yes
Defeat audio cache : Yes
Make use of C2 pointers : No

Read offset correction : 6
Overread into Lead-In and Lead-Out : No
Fill up missing offset samples with silence : Yes
Delete leading and trailing silent blocks : No
Null samples used in CRC calculations : Yes
Used interface : Native Win32 interface for Win NT & 2000
Gap handling : Appended to previous track

Used output format : User Defined Encoder
Selected bitrate : 320 kBit/s
Quality : High
Add ID3 tag : No
Command line compressor : C:\Program Files\FLAC\flac.exe
Additional command line options : -V -5 -T "artist=%a" -T "title=%t" -T "album=%g" -T "date=%y" -T "tracknumber=%n" -T "genre=%m" %s


TOC of the extracted CD

Track | Start | Length | Start sector | End sector
––––––––––––––––––––––––––––-
1 | 0:00.32 | 10:46.00 | 32 | 48481
2 | 10:46.32 | 8:29.00 | 48482 | 86656
3 | 19:15.32 | 8:42.00 | 86657 | 125806
4 | 27:57.32 | 9:02.00 | 125807 | 166456
5 | 36:59.32 | 8:05.00 | 166457 | 202831
6 | 45:04.32 | 6:30.00 | 202832 | 232081
7 | 51:34.32 | 10:50.60 | 232082 | 280891
8 | 62:25.17 | 6:11.70 | 280892 | 308786
9 | 68:37.12 | 7:56.20 | 308787 | 344506


Track 1

Filename j:\eacrips\Vladimir Ashkenazy, Philharmonia Orchestra - 1981 - Mozart - The Piano Concertos (CD4) - Nos.13, 14 & 15\01 - Piano Concerto No.13 in C major, KV 415,387b - I. Allegro.wav

Pre-gap length 0:00:02.32

Peak level 96.7 %
Track quality 100.0 %
Test CRC E4465581
Copy CRC E4465581
Accurately ripped (confidence 8) [50298851]
Copy OK

Track 2

Filename j:\eacrips\Vladimir Ashkenazy, Philharmonia Orchestra - 1981 - Mozart - The Piano Concertos (CD4) - Nos.13, 14 & 15\02 - Piano Concerto No.13 in C major, KV 415,387b - II. Andante.wav

Pre-gap length 0:00:03.00

Peak level 38.6 %
Track quality 100.0 %
Test CRC DBF1E00C
Copy CRC DBF1E00C
Accurately ripped (confidence 8) [AC036133]
Copy OK

Track 3

Filename j:\eacrips\Vladimir Ashkenazy, Philharmonia Orchestra - 1981 - Mozart - The Piano Concertos (CD4) - Nos.13, 14 & 15\03 - Piano Concerto No.13 in C major, KV 415,387b - III. Allegro.wav

Peak level 95.7 %
Track quality 99.9 %
Test CRC 30289E40
Copy CRC 30289E40
Accurately ripped (confidence 8) [7A7E6845]
Copy OK

Track 4

Filename j:\eacrips\Vladimir Ashkenazy, Philharmonia Orchestra - 1981 - Mozart - The Piano Concertos (CD4) - Nos.13, 14 & 15\04 - Piano Concerto No.14 in E flat major, KV 449 - I. Allegro vivace.wav

Pre-gap length 0:00:08.00

Peak level 84.2 %
Track quality 100.0 %
Test CRC 005C5AF2
Copy CRC 005C5AF2
Accurately ripped (confidence 8) [0CC470BC]
Copy OK

Track 5

Filename j:\eacrips\Vladimir Ashkenazy, Philharmonia Orchestra - 1981 - Mozart - The Piano Concertos (CD4) - Nos.13, 14 & 15\05 - Piano Concerto No.14 in E flat major, KV 449 - II. Andantino.wav

Pre-gap length 0:00:04.00

Peak level 47.2 %
Track quality 100.0 %
Test CRC A0B8F1A3
Copy CRC A0B8F1A3
Accurately ripped (confidence 8) [6CF304D6]
Copy OK

Track 6

Filename j:\eacrips\Vladimir Ashkenazy, Philharmonia Orchestra - 1981 - Mozart - The Piano Concertos (CD4) - Nos.13, 14 & 15\06 - Piano Concerto No.14 in E flat major, KV 449 - III. Allegro ma non troppo.wav

Pre-gap length 0:00:03.00

Peak level 81.6 %
Track quality 100.0 %
Test CRC C52993EA
Copy CRC C52993EA
Accurately ripped (confidence 8) [93A0B8C4]
Copy OK

Track 7

Filename j:\eacrips\Vladimir Ashkenazy, Philharmonia Orchestra - 1981 - Mozart - The Piano Concertos (CD4) - Nos.13, 14 & 15\07 - Piano Concerto No.15 in B flat major, KV 450 - I. Allegro.wav

Pre-gap length 0:00:09.00

Peak level 90.4 %
Track quality 100.0 %
Test CRC DC335C4C
Copy CRC DC335C4C
Accurately ripped (confidence 6) [0CCAE464]
Copy OK

Track 8

Filename j:\eacrips\Vladimir Ashkenazy, Philharmonia Orchestra - 1981 - Mozart - The Piano Concertos (CD4) - Nos.13, 14 & 15\08 - Piano Concerto No.15 in B flat major, KV 450 - II. Andante.wav

Pre-gap length 0:00:02.00

Peak level 42.9 %
Track quality 100.0 %
Test CRC D49E88AC
Copy CRC D49E88AC
Accurately ripped (confidence 7) [3FEA070F]
Copy OK

Track 9

Filename j:\eacrips\Vladimir Ashkenazy, Philharmonia Orchestra - 1981 - Mozart - The Piano Concertos (CD4) - Nos.13, 14 & 15\09 - Piano Concerto No.15 in B flat major, KV 450 - III. Allegro.wav

Pre-gap length 0:00:00.74

Peak level 96.0 %
Track quality 99.8 %
Test CRC 547F40F8
Copy CRC 547F40F8
Accurately ripped (confidence 8) [76B4FDA9]
Copy OK


All tracks accurately ripped

No errors occurred

End of status report

foobar2000 1.3.8 / Dynamic Range Meter 1.1.1
log date: 2015-05-16 20:29:58

––––––––––––––––––––––––––––––––––––––––
Analyzed: Philharmonia Orchestra. Vladimir Ashkenazy, soloist and conductor / Wolfgang Amadeus Mozart: Konzerte für Klavier und Orchester
––––––––––––––––––––––––––––––––––––––––

DR Peak RMS Duration Track
––––––––––––––––––––––––––––––––––––––––
DR14 -0.29 dB -19.70 dB 10:46 01-Konzert Nr. 13 C-dur, KV 415 (387b): I. Allegro
DR13 -8.26 dB -25.81 dB 8:29 02-Konzert Nr. 13 C-dur, KV 415 (387b): II. Andante
DR16 -0.38 dB -22.13 dB 8:42 03-Konzert Nr. 13 C-dur, KV 415 (387b): III. Rondeau: Allegro
DR14 -1.49 dB -20.26 dB 9:02 04-Konzert Nr. 14 Es-dur, KV 449: I. Allegro vivace
DR13 -6.52 dB -24.81 dB 8:05 05-Konzert Nr. 14 Es-dur, KV 449: II. Andantino
DR14 -1.76 dB -20.64 dB 6:30 06-Konzert Nr. 14 Es-dur, KV 449: III. Allegro ma non troppo
DR14 -0.87 dB -20.26 dB 10:51 07-Konzert Nr. 15 B-dur, KV 450: I. Allegro
DR13 -7.34 dB -24.99 dB 6:12 08-Konzert Nr. 15 B-dur, KV 450: II. Andante
DR13 -0.35 dB -18.20 dB 7:56 09-Konzert Nr. 15 B-dur, KV 450: III. Allegro
––––––––––––––––––––––––––––––––––––––––

Number of tracks: 9
Official DR value: DR14

Samplerate: 44100 Hz
Channels: 2
Bits per sample: 16
Bitrate: 583 kbps
Codec: FLAC
================================================================================


Exact Audio Copy V0.99 prebeta 5 from 4. May 2009

EAC extraction logfile from 9. July 2010, 15:42

Vladimir Ashkenazy, Philharmonia Orchestra / Mozart : The Piano Concertos (CD5) - Nos.2, 16 & 17

Used drive : TSSTcorpCD/DVDW TS-H653L Adapter: 2 ID: 1

Read mode : Secure
Utilize accurate stream : Yes
Defeat audio cache : Yes
Make use of C2 pointers : No

Read offset correction : 6
Overread into Lead-In and Lead-Out : No
Fill up missing offset samples with silence : Yes
Delete leading and trailing silent blocks : No
Null samples used in CRC calculations : Yes
Used interface : Native Win32 interface for Win NT & 2000
Gap handling : Appended to previous track

Used output format : User Defined Encoder
Selected bitrate : 320 kBit/s
Quality : High
Add ID3 tag : No
Command line compressor : C:\Program Files\FLAC\flac.exe
Additional command line options : -V -5 -T "artist=%a" -T "title=%t" -T "album=%g" -T "date=%y" -T "tracknumber=%n" -T "genre=%m" %s


TOC of the extracted CD

Track | Start | Length | Start sector | End sector
––––––––––––––––––––––––––––-
1 | 0:00.33 | 10:58.60 | 33 | 49442
2 | 10:59.18 | 6:46.72 | 49443 | 79964
3 | 17:46.15 | 6:49.18 | 79965 | 110657
4 | 24:35.33 | 12:16.00 | 110658 | 165857
5 | 36:51.33 | 11:06.52 | 165858 | 215859
6 | 47:58.10 | 8:25.23 | 215860 | 253757
7 | 56:23.33 | 4:45.00 | 253758 | 275132
8 | 61:08.33 | 5:20.00 | 275133 | 299132
9 | 66:28.33 | 4:11.00 | 299133 | 317957


Track 1

Filename j:\eacrips\Vladimir Ashkenazy, Philharmonia Orchestra - 1977 - Mozart - The Piano Concertos (CD5) - Nos.2, 16 & 17\01 - Piano Concerto No.16 in D major, KV 451 - I. Allegro.wav

Pre-gap length 0:00:02.33

Peak level 100.0 %
Track quality 99.9 %
Test CRC 61ACFE28
Copy CRC 61ACFE28
Accurately ripped (confidence 9) [FCC02839]
Copy OK

Track 2

Filename j:\eacrips\Vladimir Ashkenazy, Philharmonia Orchestra - 1977 - Mozart - The Piano Concertos (CD5) - Nos.2, 16 & 17\02 - Piano Concerto No.16 in D major, KV 451 - II. Andante.wav

Pre-gap length 0:00:05.00

Peak level 47.6 %
Track quality 100.0 %
Test CRC 27AAC6FF
Copy CRC 27AAC6FF
Accurately ripped (confidence 9) [D001000C]
Copy OK

Track 3

Filename j:\eacrips\Vladimir Ashkenazy, Philharmonia Orchestra - 1977 - Mozart - The Piano Concertos (CD5) - Nos.2, 16 & 17\03 - Piano Concerto No.16 in D major, KV 451 - III. Allegro di molto.wav

Pre-gap length 0:00:01.67

Peak level 98.0 %
Track quality 100.0 %
Test CRC 373297AD
Copy CRC 373297AD
Accurately ripped (confidence 9) [56656EA0]
Copy OK

Track 4

Filename j:\eacrips\Vladimir Ashkenazy, Philharmonia Orchestra - 1977 - Mozart - The Piano Concertos (CD5) - Nos.2, 16 & 17\04 - Piano Concerto No.17 in G major, KV 453 - I. Allegro.wav

Pre-gap length 0:00:10.00

Peak level 77.1 %
Track quality 100.0 %
Test CRC 534A8718
Copy CRC 534A8718
Accurately ripped (confidence 9) [3A47EADC]
Copy OK

Track 5

Filename j:\eacrips\Vladimir Ashkenazy, Philharmonia Orchestra - 1977 - Mozart - The Piano Concertos (CD5) - Nos.2, 16 & 17\05 - Piano Concerto No.17 in G major, KV 453 - II. Andante.wav

Pre-gap length 0:00:04.00

Peak level 63.7 %
Track quality 100.0 %
Test CRC 4833FEF9
Copy CRC 4833FEF9
Accurately ripped (confidence 9) [714CEA01]
Copy OK

Track 6

Filename j:\eacrips\Vladimir Ashkenazy, Philharmonia Orchestra - 1977 - Mozart - The Piano Concertos (CD5) - Nos.2, 16 & 17\06 - Piano Concerto No.17 in G major, KV 453 - III. Allegretto.wav

Pre-gap length 0:00:03.00

Peak level 85.9 %
Track quality 100.0 %
Test CRC 2631D30F
Copy CRC 2631D30F
Accurately ripped (confidence 9) [3AFBB45C]
Copy OK

Track 7

Filename j:\eacrips\Vladimir Ashkenazy, Philharmonia Orchestra - 1977 - Mozart - The Piano Concertos (CD5) - Nos.2, 16 & 17\07 - Piano Concerto No.2 in B flat major, KV 39 - I. Allegro spiritoso.wav

Pre-gap length 0:00:08.00

Peak level 97.7 %
Track quality 100.0 %
Test CRC BD257A22
Copy CRC BD257A22
Accurately ripped (confidence 9) [D401C389]
Copy OK

Track 8

Filename j:\eacrips\Vladimir Ashkenazy, Philharmonia Orchestra - 1977 - Mozart - The Piano Concertos (CD5) - Nos.2, 16 & 17\08 - Piano Concerto No.2 in B flat major, KV 39 - II. Andante.wav

Pre-gap length 0:00:03.00

Peak level 54.7 %
Track quality 100.0 %
Test CRC DEA68647
Copy CRC DEA68647
Accurately ripped (confidence 9) [019C4A91]
Copy OK

Track 9

Filename j:\eacrips\Vladimir Ashkenazy, Philharmonia Orchestra - 1977 - Mozart - The Piano Concertos (CD5) - Nos.2, 16 & 17\09 - Piano Concerto No.2 in B flat major, KV 39 - III. Molto allegro.wav

Peak level 82.4 %
Track quality 100.0 %
Test CRC DD04A875
Copy CRC DD04A875
Accurately ripped (confidence 7) [317473CC]
Copy OK


All tracks accurately ripped

No errors occurred

End of status report

foobar2000 1.3.8 / Dynamic Range Meter 1.1.1
log date: 2015-05-16 20:30:58

––––––––––––––––––––––––––––––––––––––––
Analyzed: Philharmonia Orchestra. Vladimir Ashkenazy, soloist and conductor / Wolfgang Amadeus Mozart: Konzerte für Klavier und Orchester
––––––––––––––––––––––––––––––––––––––––

DR Peak RMS Duration Track
––––––––––––––––––––––––––––––––––––––––
DR14 0.00 dB -18.94 dB 10:59 01-Konzert Nr. 16 D-dur, KV 451: I. Allegro assai
DR13 -6.43 dB -25.77 dB 6:47 02-Konzert Nr. 16 D-dur, KV 451: II. Andante
DR14 -0.17 dB -19.44 dB 6:49 03-Konzert Nr. 16 D-dur, KV 451: III. Rondeau: Allegro di molto
DR15 -2.25 dB -23.32 dB 12:16 04-Konzert Nr. 17 G-dur, KV 453: I. Allegro
DR16 -3.90 dB -26.92 dB 11:07 05-Konzert Nr. 17 G-dur, KV 453: II. Andante
DR15 -1.31 dB -23.20 dB 8:25 06-Konzert Nr. 17 G-dur, KV 453: III. Allegretto
DR13 -0.20 dB -17.53 dB 4:45 07-Konzert Nr. 2 B-dur, KV 39: I. Allegro spiritoso
DR12 -5.23 dB -22.61 dB 5:20 08-Konzert Nr. 2 B-dur, KV 39: II. Andante
DR12 -1.68 dB -18.90 dB 4:11 09-Konzert Nr. 2 B-dur, KV 39: III. Allegro molto
––––––––––––––––––––––––––––––––––––––––

Number of tracks: 9
Official DR value: DR14

Samplerate: 44100 Hz
Channels: 2
Bits per sample: 16
Bitrate: 572 kbps
Codec: FLAC
================================================================================


Exact Audio Copy V0.99 prebeta 5 from 4. May 2009

EAC extraction logfile from 9. July 2010, 16:07

Vladimir Ashkenazy, Philharmonia Orchestra / Mozart : The Piano Concertos (CD6) - Nos.3, 18 & 19

Used drive : TSSTcorpCD/DVDW TS-H653L Adapter: 2 ID: 1

Read mode : Secure
Utilize accurate stream : Yes
Defeat audio cache : Yes
Make use of C2 pointers : No

Read offset correction : 6
Overread into Lead-In and Lead-Out : No
Fill up missing offset samples with silence : Yes
Delete leading and trailing silent blocks : No
Null samples used in CRC calculations : Yes
Used interface : Native Win32 interface for Win NT & 2000
Gap handling : Appended to previous track

Used output format : User Defined Encoder
Selected bitrate : 320 kBit/s
Quality : High
Add ID3 tag : No
Command line compressor : C:\Program Files\FLAC\flac.exe
Additional command line options : -V -5 -T "artist=%a" -T "title=%t" -T "album=%g" -T "date=%y" -T "tracknumber=%n" -T "genre=%m" %s


TOC of the extracted CD

Track | Start | Length | Start sector | End sector
––––––––––––––––––––––––––––-
1 | 0:00.33 | 12:38.00 | 33 | 56882
2 | 12:38.33 | 11:29.55 | 56883 | 108612
3 | 24:08.13 | 7:40.70 | 108613 | 143182
4 | 31:49.08 | 12:44.05 | 143183 | 200487
5 | 44:33.13 | 8:14.20 | 200488 | 237557
6 | 52:47.33 | 7:52.00 | 237558 | 272957
7 | 60:39.33 | 5:10.27 | 272958 | 296234
8 | 65:49.60 | 5:35.48 | 296235 | 321407
9 | 71:25.33 | 3:49.00 | 321408 | 338582


Track 1

Filename j:\eacrips\Vladimir Ashkenazy, Philharmonia Orchestra - 1978 - Mozart - The Piano Concertos (CD6) - Nos.3, 18 & 19\01 - Piano Concerto No.18 in B flat major, KV 456 - I. Allegro vivace.wav

Pre-gap length 0:00:02.33

Peak level 91.3 %
Track quality 100.0 %
Test CRC 44B93761
Copy CRC 44B93761
Accurately ripped (confidence 7) [ECACB64E]
Copy OK

Track 2

Filename j:\eacrips\Vladimir Ashkenazy, Philharmonia Orchestra - 1978 - Mozart - The Piano Concertos (CD6) - Nos.3, 18 & 19\02 - Piano Concerto No.18 in B flat major, KV 456 - II. Andante un poco sostenuto.wav

Pre-gap length 0:00:02.00

Peak level 88.2 %
Track quality 100.0 %
Test CRC C42720D5
Copy CRC C42720D5
Accurately ripped (confidence 7) [B8061887]
Copy OK

Track 3

Filename j:\eacrips\Vladimir Ashkenazy, Philharmonia Orchestra - 1978 - Mozart - The Piano Concertos (CD6) - Nos.3, 18 & 19\03 - Piano Concerto No.18 in B flat major, KV 456 - III. Allegro vivace.wav

Pre-gap length 0:00:00.74

Peak level 97.7 %
Track quality 100.0 %
Test CRC 3ABBCC58
Copy CRC 3ABBCC58
Accurately ripped (confidence 7) [98AEA6FF]
Copy OK

Track 4

Filename j:\eacrips\Vladimir Ashkenazy, Philharmonia Orchestra - 1978 - Mozart - The Piano Concertos (CD6) - Nos.3, 18 & 19\04 - Piano Concerto No.19 in F major, KV 459 - I. Allegro.wav

Pre-gap length 0:00:09.50

Peak level 83.8 %
Track quality 99.9 %
Test CRC 94C62261
Copy CRC 94C62261
Accurately ripped (confidence 7) [B80CD67E]
Copy OK

Track 5

Filename j:\eacrips\Vladimir Ashkenazy, Philharmonia Orchestra - 1978 - Mozart - The Piano Concertos (CD6) - Nos.3, 18 & 19\05 - Piano Concerto No.19 in F major, KV 459 - II. Allegretto.wav

Pre-gap length 0:00:05.00

Peak level 65.8 %
Track quality 100.0 %
Test CRC 2BAF83CB
Copy CRC 2BAF83CB
Accurately ripped (confidence 7) [8B2610D1]
Copy OK

Track 6

Filename j:\eacrips\Vladimir Ashkenazy, Philharmonia Orchestra - 1978 - Mozart - The Piano Concertos (CD6) - Nos.3, 18 & 19\06 - Piano Concerto No.19 in F major, KV 459 - III. Allegro assai.wav

Pre-gap length 0:00:06.00

Peak level 92.3 %
Track quality 100.0 %
Test CRC 3B77D722
Copy CRC 3B77D722
Accurately ripped (confidence 7) [5AB74E34]
Copy OK

Track 7

Filename j:\eacrips\Vladimir Ashkenazy, Philharmonia Orchestra - 1978 - Mozart - The Piano Concertos (CD6) - Nos.3, 18 & 19\07 - Piano Concerto No.3 in D major, KV 40 - I. Allegro maestoso.wav

Pre-gap length 0:00:09.00

Peak level 80.8 %
Track quality 100.0 %
Test CRC 586915EB
Copy CRC 586915EB
Accurately ripped (confidence 7) [134A8F0B]
Copy OK

Track 8

Filename j:\eacrips\Vladimir Ashkenazy, Philharmonia Orchestra - 1978 - Mozart - The Piano Concertos (CD6) - Nos.3, 18 & 19\08 - Piano Concerto No.3 in D major, KV 40 - II. Andante.wav

Pre-gap length 0:00:03.00

Peak level 44.5 %
Track quality 100.0 %
Test CRC C412A24D
Copy CRC C412A24D
Accurately ripped (confidence 7) [C5C166CA]
Copy OK

Track 9

Filename j:\eacrips\Vladimir Ashkenazy, Philharmonia Orchestra - 1978 - Mozart - The Piano Concertos (CD6) - Nos.3, 18 & 19\09 - Piano Concerto No.3 in D major, KV 40 - III. Presto.wav

Pre-gap length 0:00:01.00

Peak level 85.0 %
Track quality 100.0 %
Test CRC 565D6DBC
Copy CRC 565D6DBC
Accurately ripped (confidence 6) [BF0B2745]
Copy OK


All tracks accurately ripped

No errors occurred

End of status report

foobar2000 1.3.8 / Dynamic Range Meter 1.1.1
log date: 2015-05-16 20:32:08

––––––––––––––––––––––––––––––––––––––––
Analyzed: Philharmonia Orchestra. Vladimir Ashkenazy, soloist and conductor / Wolfgang Amadeus Mozart: Konzerte für Klavier und Orchester
––––––––––––––––––––––––––––––––––––––––

DR Peak RMS Duration Track
––––––––––––––––––––––––––––––––––––––––
DR13 -0.78 dB -18.15 dB 12:38 01-Konzert Nr. 18 B-dur, KV 456: I. Allegro vivace
DR14 -1.09 dB -20.42 dB 11:30 02-Konzert Nr. 18 B-dur, KV 456: II. Andante un poco sostenuto
DR13 -0.20 dB -16.74 dB 7:41 03-Konzert Nr. 18 B-dur, KV 456: III. Allegro vivace
DR15 -1.53 dB -21.17 dB 12:44 04-Konzert Nr. 19 F-dur, KV 459: I. Allegro
DR15 -3.62 dB -24.86 dB 8:14 05-Konzert Nr. 19 F-dur, KV 459: II. Allegretto
DR14 -0.69 dB -19.61 dB 7:52 06-Konzert Nr. 19 F-dur, KV 459: III. Allegro assai
DR14 -1.85 dB -20.69 dB 5:10 07-Konzert Nr. 3 D-dur, KV 40: I. Allegro maestoso
DR14 -7.03 dB -25.31 dB 5:36 08-Konzert Nr. 3 D-dur, KV 40: II. Andante
DR14 -1.40 dB -19.24 dB 3:49 09-Konzert Nr. 3 D-dur, KV 40: III. Presto
––––––––––––––––––––––––––––––––––––––––

Number of tracks: 9
Official DR value: DR14

Samplerate: 44100 Hz
Channels: 2
Bits per sample: 16
Bitrate: 609 kbps
Codec: FLAC
================================================================================


Exact Audio Copy V0.99 prebeta 5 from 4. May 2009

EAC extraction logfile from 9. July 2010, 16:30

Vladimir Ashkenazy, Philharmonia Orchestra / Mozart : The Piano Concertos (CD7) - Nos.20 & 22

Used drive : TSSTcorpCD/DVDW TS-H653L Adapter: 2 ID: 1

Read mode : Secure
Utilize accurate stream : Yes
Defeat audio cache : Yes
Make use of C2 pointers : No

Read offset correction : 6
Overread into Lead-In and Lead-Out : No
Fill up missing offset samples with silence : Yes
Delete leading and trailing silent blocks : No
Null samples used in CRC calculations : Yes
Used interface : Native Win32 interface for Win NT & 2000
Gap handling : Appended to previous track

Used output format : User Defined Encoder
Selected bitrate : 320 kBit/s
Quality : High
Add ID3 tag : No
Command line compressor : C:\Program Files\FLAC\flac.exe
Additional command line options : -V -5 -T "artist=%a" -T "title=%t" -T "album=%g" -T "date=%y" -T "tracknumber=%n" -T "genre=%m" %s


TOC of the extracted CD

Track | Start | Length | Start sector | End sector
––––––––––––––––––––––––––––-
1 | 0:00.32 | 15:19.00 | 32 | 68956
2 | 15:19.32 | 10:40.55 | 68957 | 117011
3 | 26:00.12 | 8:32.08 | 117012 | 155419
4 | 34:32.20 | 13:49.12 | 155420 | 217606
5 | 48:21.32 | 10:12.00 | 217607 | 263506
6 | 58:33.32 | 12:44.00 | 263507 | 320806


Track 1

Filename j:\eacrips\Vladimir Ashkenazy, Philharmonia Orchestra - 1978 - Mozart - The Piano Concertos (CD7) - Nos.20 & 22\01 - Piano Concerto No.20 in D minor, KV 466 - I. Allegro (Cadenza by L. van Beethoven).wav

Pre-gap length 0:00:02.32

Peak level 73.2 %
Track quality 100.0 %
Test CRC F6DA0E7E
Copy CRC F6DA0E7E
Accurately ripped (confidence 7) [56508AC9]
Copy OK

Track 2

Filename j:\eacrips\Vladimir Ashkenazy, Philharmonia Orchestra - 1978 - Mozart - The Piano Concertos (CD7) - Nos.20 & 22\02 - Piano Concerto No.20 in D minor, KV 466 - II. Romance.wav

Pre-gap length 0:00:04.00

Peak level 57.6 %
Track quality 100.0 %
Test CRC ACAB017F
Copy CRC ACAB017F
Accurately ripped (confidence 7) [D90D08D5]
Copy OK

Track 3

Filename j:\eacrips\Vladimir Ashkenazy, Philharmonia Orchestra - 1978 - Mozart - The Piano Concertos (CD7) - Nos.20 & 22\03 - Piano Concerto No.20 in D minor, KV 466 - III. Rondo- Allegro assai.wav

Pre-gap length 0:00:01.00

Peak level 85.7 %
Track quality 100.0 %
Test CRC 02789CED
Copy CRC 02789CED
Accurately ripped (confidence 7) [82CB2884]
Copy OK

Track 4

Filename j:\eacrips\Vladimir Ashkenazy, Philharmonia Orchestra - 1978 - Mozart - The Piano Concertos (CD7) - Nos.20 & 22\04 - Piano Concerto No.22 in E flat major, KV 482 - I. Allegro (Cadenza by V. Ashkenazy).wav

Pre-gap length 0:00:09.63

Peak level 100.0 %
Track quality 99.9 %
Test CRC 0B6E2A75
Copy CRC 0B6E2A75
Accurately ripped (confidence 7) [D6235800]
Copy OK

Track 5

Filename j:\eacrips\Vladimir Ashkenazy, Philharmonia Orchestra - 1978 - Mozart - The Piano Concertos (CD7) - Nos.20 & 22\05 - Piano Concerto No.22 in E flat major, KV 482 - II. Andante.wav

Pre-gap length 0:00:03.65

Peak level 71.0 %
Track quality 99.9 %
Test CRC 7560B7A4
Copy CRC 7560B7A4
Accurately ripped (confidence 7) [0389F16C]
Copy OK

Track 6

Filename j:\eacrips\Vladimir Ashkenazy, Philharmonia Orchestra - 1978 - Mozart - The Piano Concertos (CD7) - Nos.20 & 22\06 - Piano Concerto No.22 in E flat major, KV 482 - III. Allegro.wav

Pre-gap length 0:00:04.00

Peak level 100.0 %
Track quality 100.0 %
Test CRC 8A852716
Copy CRC 8A852716
Accurately ripped (confidence 7) [8E8CF254]
Copy OK


All tracks accurately ripped

No errors occurred

End of status report

foobar2000 1.3.8 / Dynamic Range Meter 1.1.1
log date: 2015-05-16 20:33:12

––––––––––––––––––––––––––––––––––––––––
Analyzed: Philharmonia Orchestra. Vladimir Ashkenazy, soloist and conductor / Wolfgang Amadeus Mozart: Konzerte für Klavier und Orchester
––––––––––––––––––––––––––––––––––––––––

DR Peak RMS Duration Track
––––––––––––––––––––––––––––––––––––––––
DR15 -2.70 dB -22.44 dB 15:19 01-Konzert Nr. 20 d-moll, KV 466: I. Allegro
DR13 -4.78 dB -24.76 dB 10:41 02-Konzert Nr. 20 d-moll, KV 466: II. Romance
DR15 -1.34 dB -21.88 dB 8:32 03-Konzert Nr. 20 d-moll, KV 466: III. Allegro assai
DR14 0.00 dB -18.85 dB 13:49 04-Konzert Nr. 22 Es-dur, KV 482: I. Allegro
DR16 -2.97 dB -24.18 dB 10:12 05-Konzert Nr. 22 Es-dur, KV 482: II. Andante
DR15 0.00 dB -21.42 dB 12:44 06-Konzert Nr. 22 Es-dur, KV 482: III. Allegro
––––––––––––––––––––––––––––––––––––––––

Number of tracks: 6
Official DR value: DR15

Samplerate: 44100 Hz
Channels: 2
Bits per sample: 16
Bitrate: 534 kbps
Codec: FLAC
================================================================================


Exact Audio Copy V0.99 prebeta 5 from 4. May 2009

EAC extraction logfile from 9. July 2010, 16:51

Vladimir Ashkenazy, Philharmonia Orchestra / Mozart : The Piano Concertos (CD8) - Nos.4, 21 & 23

Used drive : TSSTcorpCD/DVDW TS-H653L Adapter: 2 ID: 1

Read mode : Secure
Utilize accurate stream : Yes
Defeat audio cache : Yes
Make use of C2 pointers : No

Read offset correction : 6
Overread into Lead-In and Lead-Out : No
Fill up missing offset samples with silence : Yes
Delete leading and trailing silent blocks : No
Null samples used in CRC calculations : Yes
Used interface : Native Win32 interface for Win NT & 2000
Gap handling : Appended to previous track

Used output format : User Defined Encoder
Selected bitrate : 320 kBit/s
Quality : High
Add ID3 tag : No
Command line compressor : C:\Program Files\FLAC\flac.exe
Additional command line options : -V -5 -T "artist=%a" -T "title=%t" -T "album=%g" -T "date=%y" -T "tracknumber=%n" -T "genre=%m" %s


TOC of the extracted CD

Track | Start | Length | Start sector | End sector
––––––––––––––––––––––––––––-
1 | 0:00.32 | 14:51.00 | 32 | 66856
2 | 14:51.32 | 7:54.20 | 66857 | 102426
3 | 22:45.52 | 6:42.55 | 102427 | 132631
4 | 29:28.32 | 11:20.00 | 132632 | 183631
5 | 40:48.32 | 7:31.28 | 183632 | 217484
6 | 48:19.60 | 8:14.47 | 217485 | 254581
7 | 56:34.32 | 4:59.00 | 254582 | 277006
8 | 61:33.32 | 4:20.28 | 277007 | 296534
9 | 65:53.60 | 3:54.47 | 296535 | 314131


Track 1

Filename j:\eacrips\Vladimir Ashkenazy, Philharmonia Orchestra - 1977 - Mozart - The Piano Concertos (CD8) - Nos.4, 21 & 23\01 - Piano Concerto No.21 in C major, KV 467 - I. Allegro maestoso (cadenza by V. Ashkenazy).wav

Pre-gap length 0:00:02.32

Peak level 100.0 %
Track quality 100.0 %
Test CRC DDB1A7FE
Copy CRC DDB1A7FE
Accurately ripped (confidence 6) [63C639F4]
Copy OK

Track 2

Filename j:\eacrips\Vladimir Ashkenazy, Philharmonia Orchestra - 1977 - Mozart - The Piano Concertos (CD8) - Nos.4, 21 & 23\02 - Piano Concerto No.21 in C major, KV 467 - II. Andante.wav

Pre-gap length 0:00:07.00

Peak level 38.1 %
Track quality 100.0 %
Test CRC 265B7DE5
Copy CRC 265B7DE5
Accurately ripped (confidence 6) [42623573]
Copy OK

Track 3

Filename j:\eacrips\Vladimir Ashkenazy, Philharmonia Orchestra - 1977 - Mozart - The Piano Concertos (CD8) - Nos.4, 21 & 23\03 - Piano Concerto No.21 in C major, KV 467 - III. Allegro vivace assai.wav

Pre-gap length 0:00:01.00

Peak level 100.0 %
Track quality 100.0 %
Test CRC 48F6F134
Copy CRC 48F6F134
Accurately ripped (confidence 6) [44A3AD98]
Copy OK

Track 4

Filename j:\eacrips\Vladimir Ashkenazy, Philharmonia Orchestra - 1977 - Mozart - The Piano Concertos (CD8) - Nos.4, 21 & 23\04 - Piano Concerto No.23 in A major, KV 488 - I. Allegro (cadenza by W. A. Mozart).wav

Pre-gap length 0:00:08.00

Peak level 99.7 %
Track quality 100.0 %
Test CRC 2ACEE160
Copy CRC 2ACEE160
Accurately ripped (confidence 6) [7A265132]
Copy OK

Track 5

Filename j:\eacrips\Vladimir Ashkenazy, Philharmonia Orchestra - 1977 - Mozart - The Piano Concertos (CD8) - Nos.4, 21 & 23\05 - Piano Concerto No.23 in A major, KV 488 - II. Adagio.wav

Pre-gap length 0:00:04.00

Peak level 46.5 %
Track quality 100.0 %
Test CRC 1644F1A1
Copy CRC 1644F1A1
Accurately ripped (confidence 6) [D545896D]
Copy OK

Track 6

Filename j:\eacrips\Vladimir Ashkenazy, Philharmonia Orchestra - 1977 - Mozart - The Piano Concertos (CD8) - Nos.4, 21 & 23\06 - Piano Concerto No.23 in A major, KV 488 - III. Presto.wav

Peak level 92.8 %
Track quality 100.0 %
Test CRC 2DE776E7
Copy CRC 2DE776E7
Accurately ripped (confidence 6) [297F9450]
Copy OK

Track 7

Filename j:\eacrips\Vladimir Ashkenazy, Philharmonia Orchestra - 1977 - Mozart - The Piano Concertos (CD8) - Nos.4, 21 & 23\07 - Piano Concerto No.4 in G major, KV 41 - I. Allegro.wav

Pre-gap length 0:00:09.00

Peak level 87.0 %
Track quality 100.0 %
Test CRC DBA4627D
Copy CRC DBA4627D
Accurately ripped (confidence 5) [7940AC78]
Copy OK

Track 8

Filename j:\eacrips\Vladimir Ashkenazy, Philharmonia Orchestra - 1977 - Mozart - The Piano Concertos (CD8) - Nos.4, 21 & 23\08 - Piano Concerto No.4 in G major, KV 41 - II. Andante.wav

Pre-gap length 0:00:03.00

Peak level 38.1 %
Track quality 100.0 %
Test CRC E06C53F5
Copy CRC E06C53F5
Accurately ripped (confidence 5) [973011CA]
Copy OK

Track 9

Filename j:\eacrips\Vladimir Ashkenazy, Philharmonia Orchestra - 1977 - Mozart - The Piano Concertos (CD8) - Nos.4, 21 & 23\09 - Piano Concerto No.4 in G major, KV 41 - III. (Allegro).wav

Pre-gap length 0:00:01.00

Peak level 98.4 %
Track quality 100.0 %
Test CRC D3A2A4A6
Copy CRC D3A2A4A6
Accurately ripped (confidence 5) [19E90A08]
Copy OK


All tracks accurately ripped

No errors occurred

End of status report

foobar2000 1.3.8 / Dynamic Range Meter 1.1.1
log date: 2015-05-16 20:34:16

––––––––––––––––––––––––––––––––––––––––
Analyzed: Philharmonia Orchestra. Vladimir Ashkenazy, soloist and conductor / Wolfgang Amadeus Mozart: Konzerte für Klavier und Orchester
––––––––––––––––––––––––––––––––––––––––

DR Peak RMS Duration Track
––––––––––––––––––––––––––––––––––––––––
DR13 0.00 dB -19.86 dB 14:51 01-Konzert Nr. 21 C-dur, KV 467: I. Allegro maestoso
DR12 -8.37 dB -25.83 dB 7:54 02-Konzert Nr. 21 C-dur, KV 467: II. Andante
DR16 0.00 dB -21.30 dB 6:43 03-Konzert Nr. 21 C-dur, KV 467: III. Allegro vivace assai
DR14 -0.03 dB -20.23 dB 11:20 04-Konzert Nr. 23 A-dur, KV 488: I. Allegro
DR13 -6.65 dB -27.29 dB 7:31 05-Konzert Nr. 23 A-dur, KV 488: II. Adagio
DR14 -0.65 dB -19.81 dB 8:15 06-Konzert Nr. 23 A-dur, KV 488: III. Allegro assai
DR13 -1.20 dB -18.37 dB 4:59 07-Konzert Nr. 4 G-dur, KV 41: I. Allegro
DR12 -8.36 dB -24.23 dB 4:20 08-Konzert Nr. 4 G-dur, KV 41: II. Andante
DR13 -0.13 dB -18.11 dB 3:55 09-Konzert Nr. 4 G-dur, KV 41: III. Allegro molto
––––––––––––––––––––––––––––––––––––––––

Number of tracks: 9
Official DR value: DR13

Samplerate: 44100 Hz
Channels: 2
Bits per sample: 16
Bitrate: 587 kbps
Codec: FLAC
================================================================================


Exact Audio Copy V0.99 prebeta 5 from 4. May 2009

EAC extraction logfile from 9. July 2010, 17:15

Vladimir Ashkenazy, Philharmonia Orchestra / Mozart : The Piano Concertos (CD9) - Nos.24 & 25

Used drive : TSSTcorpCD/DVDW TS-H653L Adapter: 2 ID: 1

Read mode : Secure
Utilize accurate stream : Yes
Defeat audio cache : Yes
Make use of C2 pointers : No

Read offset correction : 6
Overread into Lead-In and Lead-Out : No
Fill up missing offset samples with silence : Yes
Delete leading and trailing silent blocks : No
Null samples used in CRC calculations : Yes
Used interface : Native Win32 interface for Win NT & 2000
Gap handling : Appended to previous track

Used output format : User Defined Encoder
Selected bitrate : 320 kBit/s
Quality : High
Add ID3 tag : No
Command line compressor : C:\Program Files\FLAC\flac.exe
Additional command line options : -V -5 -T "artist=%a" -T "title=%t" -T "album=%g" -T "date=%y" -T "tracknumber=%n" -T "genre=%m" %s


TOC of the extracted CD

Track | Start | Length | Start sector | End sector
––––––––––––––––––––––––––––-
1 | 0:00.33 | 14:29.47 | 33 | 65254
2 | 14:30.05 | 8:19.03 | 65255 | 102682
3 | 22:49.08 | 9:31.25 | 102683 | 145532
4 | 32:20.33 | 15:51.00 | 145533 | 216857
5 | 48:11.33 | 7:33.27 | 216858 | 250859
6 | 55:44.60 | 8:50.35 | 250860 | 290644
7 | 64:35.20 | 10:41.13 | 290645 | 338732


Track 1

Filename j:\eacrips\Vladimir Ashkenazy, Philharmonia Orchestra - 1979 - Mozart - The Piano Concertos (CD9) - Nos.24 & 25\01 - Piano Concerto No.24 in C minor, KV 491 - I. Allegro.wav

Pre-gap length 0:00:02.33

Peak level 93.7 %
Track quality 100.0 %
Test CRC 0BCD4545
Copy CRC 0BCD4545
Accurately ripped (confidence 7) [0C0BE17D]
Copy OK

Track 2

Filename j:\eacrips\Vladimir Ashkenazy, Philharmonia Orchestra - 1979 - Mozart - The Piano Concertos (CD9) - Nos.24 & 25\02 - Piano Concerto No.24 in C minor, KV 491 - II. Larghetto.wav

Pre-gap length 0:00:05.62

Peak level 32.6 %
Track quality 100.0 %
Test CRC 4E6223FB
Copy CRC 4E6223FB
Accurately ripped (confidence 7) [498DA2C3]
Copy OK

Track 3

Filename j:\eacrips\Vladimir Ashkenazy, Philharmonia Orchestra - 1979 - Mozart - The Piano Concertos (CD9) - Nos.24 & 25\03 - Piano Concerto No.24 in C minor, KV 491 - III. Allegretto.wav

Pre-gap length 0:00:04.73

Peak level 99.6 %
Track quality 100.0 %
Test CRC A664A8B5
Copy CRC A664A8B5
Accurately ripped (confidence 7) [C57A54F1]
Copy OK

Track 4

Filename j:\eacrips\Vladimir Ashkenazy, Philharmonia Orchestra - 1979 - Mozart - The Piano Concertos (CD9) - Nos.24 & 25\04 - Piano Concerto No.25 in C major, KV 503 - I. Allegro maestoso.wav

Pre-gap length 0:00:09.00

Peak level 98.0 %
Track quality 99.9 %
Test CRC DBFD4BC5
Copy CRC DBFD4BC5
Accurately ripped (confidence 7) [DD6AFB7F]
Copy OK

Track 5

Filename j:\eacrips\Vladimir Ashkenazy, Philharmonia Orchestra - 1979 - Mozart - The Piano Concertos (CD9) - Nos.24 & 25\05 - Piano Concerto No.25 in C major, KV 503 - II. Andante.wav

Pre-gap length 0:00:02.63

Peak level 44.1 %
Track quality 100.0 %
Test CRC 588E8746
Copy CRC 588E8746
Accurately ripped (confidence 7) [9909B741]
Copy OK

Track 6

Filename j:\eacrips\Vladimir Ashkenazy, Philharmonia Orchestra - 1979 - Mozart - The Piano Concertos (CD9) - Nos.24 & 25\06 - Piano Concerto No.25 in C major, KV 503 - III. Allegretto.wav

Pre-gap length 0:00:01.00

Peak level 97.7 %
Track quality 100.0 %
Test CRC A900DABF
Copy CRC A900DABF
Accurately ripped (confidence 7) [D322E69C]
Copy OK

Track 7

Filename j:\eacrips\Vladimir Ashkenazy, Philharmonia Orchestra - 1979 - Mozart - The Piano Concertos (CD9) - Nos.24 & 25\07 - Rondo in D major, KV 382.wav

Pre-gap length 0:00:09.25

Peak level 91.0 %
Track quality 100.0 %
Test CRC 0F3446A5
Copy CRC 0F3446A5
Accurately ripped (confidence 7) [918A00E9]
Copy OK


All tracks accurately ripped

No errors occurred

End of status report

foobar2000 1.3.8 / Dynamic Range Meter 1.1.1
log date: 2015-05-16 20:35:23

––––––––––––––––––––––––––––––––––––––––
Analyzed: Philharmonia Orchestra. Vladimir Ashkenazy, soloist and conductor / Wolfgang Amadeus Mozart: Konzerte für Klavier und Orchester
––––––––––––––––––––––––––––––––––––––––

DR Peak RMS Duration Track
––––––––––––––––––––––––––––––––––––––––
DR14 -0.56 dB -20.87 dB 14:30 01-Konzert Nr. 24 c-moll, KV 491: I. Allegro
DR13 -9.72 dB -29.25 dB 8:19 02-Konzert Nr. 24 c-moll, KV 491: II. Larghetto
DR16 -0.03 dB -22.44 dB 9:31 03-Konzert Nr. 24 c-moll, KV 491: III. Allegretto
DR14 -0.17 dB -18.68 dB 15:51 04-Konzert Nr. 25 C-dur, KV 503: I. Allegro maestoso
DR13 -7.09 dB -24.66 dB 7:33 05-Konzert Nr. 25 C-dur, KV 503: II. Andante
DR15 -0.20 dB -20.44 dB 8:50 06-Konzert Nr. 25 C-dur, KV 503: III. Allegretto
DR16 -0.81 dB -21.61 dB 10:41 07-Rondo D-dur, KV 382 (Alternative zum III. Satz von KV 175): Allegretto grazioso
––––––––––––––––––––––––––––––––––––––––

Number of tracks: 7
Official DR value: DR14

Samplerate: 44100 Hz
Channels: 2
Bits per sample: 16
Bitrate: 514 kbps
Codec: FLAC
================================================================================


Exact Audio Copy V0.99 prebeta 5 from 4. May 2009

EAC extraction logfile from 9. July 2010, 17:39

Vladimir Ashkenazy, Philharmonia Orchestra / Mozart : The Piano Concertos (CD10) - Nos.26 & 27

Used drive : TSSTcorpCD/DVDW TS-H653L Adapter: 2 ID: 1

Read mode : Secure
Utilize accurate stream : Yes
Defeat audio cache : Yes
Make use of C2 pointers : No

Read offset correction : 6
Overread into Lead-In and Lead-Out : No
Fill up missing offset samples with silence : Yes
Delete leading and trailing silent blocks : No
Null samples used in CRC calculations : Yes
Used interface : Native Win32 interface for Win NT & 2000
Gap handling : Appended to previous track

Used output format : User Defined Encoder
Selected bitrate : 320 kBit/s
Quality : High
Add ID3 tag : No
Command line compressor : C:\Program Files\FLAC\flac.exe
Additional command line options : -V -5 -T "artist=%a" -T "title=%t" -T "album=%g" -T "date=%y" -T "tracknumber=%n" -T "genre=%m" %s


TOC of the extracted CD

Track | Start | Length | Start sector | End sector
––––––––––––––––––––––––––––-
1 | 0:00.32 | 14:45.28 | 32 | 66434
2 | 14:45.60 | 6:47.30 | 66435 | 96989
3 | 21:33.15 | 10:46.72 | 96990 | 145511
4 | 32:20.12 | 14:12.48 | 145512 | 209459
5 | 46:32.60 | 9:19.47 | 209460 | 251431
6 | 55:52.32 | 9:06.00 | 251432 | 292381
7 | 64:58.32 | 8:22.00 | 292382 | 330031


Track 1

Filename j:\eacrips\Vladimir Ashkenazy, Philharmonia Orchestra - 1980 - Mozart - The Piano Concertos (CD10) - Nos.26 & 27\01 - Piano Concerto No.26 in D major, KV 537 'Coronation' - I. Allegro.wav

Pre-gap length 0:00:02.32

Peak level 86.3 %
Track quality 100.0 %
Test CRC 3BD05E3B
Copy CRC 3BD05E3B
Accurately ripped (confidence 7) [6FA5A664]
Copy OK

Track 2

Filename j:\eacrips\Vladimir Ashkenazy, Philharmonia Orchestra - 1980 - Mozart - The Piano Concertos (CD10) - Nos.26 & 27\02 - Piano Concerto No.26 in D major, KV 537 'Coronation' - II. Larghetto.wav

Pre-gap length 0:00:03.00

Peak level 32.5 %
Track quality 100.0 %
Test CRC 6FA38C2F
Copy CRC 6FA38C2F
Accurately ripped (confidence 6) [2CB9728C]
Copy OK

Track 3

Filename j:\eacrips\Vladimir Ashkenazy, Philharmonia Orchestra - 1980 - Mozart - The Piano Concertos (CD10) - Nos.26 & 27\03 - Piano Concerto No.26 in D major, KV 537 'Coronation' - III. Allegretto.wav

Peak level 91.2 %
Track quality 100.0 %
Test CRC 9C08FDD3
Copy CRC 9C08FDD3
Accurately ripped (confidence 7) [8B8262B2]
Copy OK

Track 4

Filename j:\eacrips\Vladimir Ashkenazy, Philharmonia Orchestra - 1980 - Mozart - The Piano Concertos (CD10) - Nos.26 & 27\04 - Piano Concerto No.27 in B flat major, KV 595 - I. Allegro.wav

Pre-gap length 0:00:08.00

Peak level 93.4 %
Track quality 100.0 %
Test CRC 0A427164
Copy CRC 0A427164
Accurately ripped (confidence 7) [38D66998]
Copy OK

Track 5

Filename j:\eacrips\Vladimir Ashkenazy, Philharmonia Orchestra - 1980 - Mozart - The Piano Concertos (CD10) - Nos.26 & 27\05 - Piano Concerto No.27 in B flat major, KV 595 - II. Larghetto.wav

Pre-gap length 0:00:03.00

Peak level 75.0 %
Track quality 100.0 %
Test CRC DB397FCD
Copy CRC DB397FCD
Accurately ripped (confidence 7) [06A7D412]
Copy OK

Track 6

Filename j:\eacrips\Vladimir Ashkenazy, Philharmonia Orchestra - 1980 - Mozart - The Piano Concertos (CD10) - Nos.26 & 27\06 - Piano Concerto No.27 in B flat major, KV 595 - III. Allegro.wav

Pre-gap length 0:00:02.00

Peak level 98.6 %
Track quality 100.0 %
Test CRC 3026C4A2
Copy CRC 3026C4A2
Accurately ripped (confidence 7) [0F30CD26]
Copy OK

Track 7

Filename j:\eacrips\Vladimir Ashkenazy, Philharmonia Orchestra - 1980 - Mozart - The Piano Concertos (CD10) - Nos.26 & 27\07 - Rondo in A major, KV 386 (I. Kertesz conducts).wav

Pre-gap length 0:00:09.00

Peak level 83.5 %
Track quality 100.0 %
Test CRC C7DBFC65
Copy CRC C7DBFC65
Accurately ripped (confidence 7) [C9A98A6D]
Copy OK


All tracks accurately ripped

No errors occurred

End of status report

foobar2000 1.3.8 / Dynamic Range Meter 1.1.1
log date: 2015-05-16 20:36:29

––––––––––––––––––––––––––––––––––––––––
Analyzed: Philharmonia Orchestra. Vladimir Ashkenazy, soloist and conductor / Wolfgang Amadeus Mozart: Konzerte für Klavier und Orchester (1-6)
Vladimir Ashkenazy, London Symphony Orchestra. István Kertész, conductor / Wolfgang Amadeus Mozart: Konzerte für Klavier und Orchester (7)
––––––––––––––––––––––––––––––––––––––––

DR Peak RMS Duration Track
––––––––––––––––––––––––––––––––––––––––
DR15 -1.27 dB -21.85 dB 14:45 01-Konzert Nr. 26 D-dur «Krönungskonzert», KV 537: I. Allegro
DR14 -9.76 dB -29.62 dB 6:47 02-Konzert Nr. 26 D-dur «Krönungskonzert», KV 537: II. Larghetto
DR16 -0.80 dB -22.31 dB 10:47 03-Konzert Nr. 26 D-dur «Krönungskonzert», KV 537: III. Allegretto
DR14 -0.59 dB -19.90 dB 14:13 04-Konzert Nr. 27 B-dur, KV 595: I. Allegro
DR15 -2.50 dB -24.62 dB 9:20 05-Konzert Nr. 27 B-dur, KV 595: II. Larghetto
DR14 -0.12 dB -19.62 dB 9:06 06-Konzert Nr. 27 B-dur, KV 595: III. Allegro
DR14 -1.56 dB -20.92 dB 8:22 07-Rondo A-dur, KV 386 (Alternative zum III. Satz von KV 414): Allegretto
––––––––––––––––––––––––––––––––––––––––

Number of tracks: 7
Official DR value: DR15

Samplerate: 44100 Hz
Channels: 2
Bits per sample: 16
Bitrate: 574 kbps
Codec: FLAC
================================================================================


Vladimir Ashkenazy, Philharmonia Orchestra - W.A. Mozart: The Piano Concertos (1995) 10 CD Box Set, Reissue 2006 [Re-Up]

All thanks to original releaser - Bricolage

More interesting music in My Blog