Subcategories

Yello - Albums Collection: 1980-1991 (8CD) Non-Remastered [Re-Up]

Posted By: Designol
Yello - Albums Collection: 1980-1991 (8CD) Non-Remastered [Re-Up]

Yello - Albums Collection: 1980-1991 (8CD) [Non-remastered]
EAC | FLAC | Image (Cue&Log) ~ 2.42 Gb (incl 5%) | Mp3 (CBR320) ~ 1.14 Gb (incl 5%)
Genre: Electronic, Synthpop, New Wave, Art Rock | Time: 06:03:03 | Complete Scans

Collection includes: 'Solid Pleasure' (1980); 'Claro Que Si' (1981); 'You Gotta Say Yes To Another Excess' (1983); 'Stella' (1985); '1980–1985 The New Mix In One Go' (1986); 'One Second' (1987); 'Flag' (1988); 'Baby' (1991).

The ambitious Swiss electronic duo Yello comprised vocalist/conceptualist Dieter Meier – a millionaire industrialist, professional gambler, and member of Switzerland's national golf team – and composer/arranger Boris Blank. Meier, a former solo artist who also spent time with the group Fresh Colour, began collaborating with Blank in 1979, and the duo bowed with the single "I.T. Splash." After signing with the Residents' label, Ralph Records, Yello issued their 1980 debut LP, Solid Pleasure, which spawned the dance hit "Bostitch."

With 1981's Claro Que Si, Yello made its first forays into music video; their clip for the single "Pinball Cha Cha," directed by Meier, garnered considerable acclaim and in 1985 was selected as one of 32 works included in the Museum of Modern Art's Music Video Exhibition. Visual accompaniment remained a pivotal component of the duo's work after they signed to Elektra in 1983 for the LP You Gotta Say Yes to Another Excess, as the videos for "I Love You" and "Lost and Found" received heavy airplay on MTV.

1985's Stella proved to be Yello's commercial breakthrough: while the singles and videos "Desire" and "Vicious Games" found success upon their initial release, the duo enjoyed a delayed hit with the album track "Oh Yeah," which reached the U.S. singles chart after being prominently featured in the films Ferris Bueller's Day Off and The Secret of My Success. After the remix project 1980-1985: The New Mix in Go, Yello recruited diva Shirley Bassey and ex-Associate Billy McKenzie for 1987's One Second.

Despite the success of 1988's Flag, which contained the international hit "The Race," over the course of the next several years Yello grew increasingly involved with film projects: after scoring the comedy Nuns on the Run, Meier directed his own feature, 1990's Snowball. In 1991, the duo resurfaced with Baby, followed three years later by Zebra. 1995's Hands on Yello compiled reinterpretations of the group's songs by the likes of Moby, the Orb, and the Grid, while Pocket Universe, a collection of new material, appeared in 1997. Their tenth effort, Motion Picture, arrived only two years later, which was itself followed by 2003's The Eye, which featured Jade Davies on a number of tracks. Touch Yello, their 12th album, landed in 2009 and featured smooth jazz megastar Till Brönner on three selections. Incredibly the duo had never performed live in their long history, yet their 2016 album Toy was released amid news that they would undertake their first ever live performance in Berlin later in the same year.

Biography by Jason Ankeny, Allmusic.com

Yello - Albums Collection: 1980-1991 (8CD) Non-Remastered [Re-Up]






Yello - Albums Collection: 1980-1991 (8CD) Non-Remastered [Re-Up]

Yello - Solid Pleasure (1980)
EAC | FLAC | Image (Cue&Log) ~ 259 Mb (incl 5%) | Mp3 (CBR320) ~ 135 Mb (incl 5%)
Label: Mercury | # 818 339-2 | Time: 00:41:03 | Scans included

The most varied and accomplished of any synth pop debut, Yello's first album presents a few irresistible pop songs (the hit "Bostich," plus "Bimbo" and "Eternal Legs"), Boris Blank's synthesizer interpretations of several different forms of music ("Downtown Samba," "Bananas to the Beat," "Rock Stop," "Coast to Polka"), and even a three-song suite of atmospheric industrial music that functions as a miniature invisible soundtrack. The dark lyrical concerns and futurist electronics immediately lifted Yello above the rut of Kraftwerk imitators.

Review by John Bush, Allmusic.com

Tracklist:

01. Bimbo (03:39)
02. Night Flanger (04:55)
03. Reverse Lion (01:21)
04. Downtown Samba (02:38)
05. Magneto (02:47)
06. Massage (01:27)
07. Assistant's Cry (01:49)
08. Bostich (02:14)
09. Rock Stop (02:33)
10. Coast To Polka (01:57)
11. Blue Green (05:28)
12. Eternal Legs (04:08)
13. Stanztrigger (02:56)
14. Bananas To The Beat (03:05)


Exact Audio Copy V1.0 beta 3 from 29. August 2011

EAC extraction logfile from 19. November 2013, 15:49

Yello / Solid Pleasure

Used drive : PLEXTOR DVDR PX-810SA Adapter: 2 ID: 0

Read mode : Secure
Utilize accurate stream : Yes
Defeat audio cache : Yes
Make use of C2 pointers : No

Read offset correction : 48
Overread into Lead-In and Lead-Out : No
Fill up missing offset samples with silence : Yes
Delete leading and trailing silent blocks : No
Null samples used in CRC calculations : Yes
Used interface : Installed external ASPI interface

Used output format : User Defined Encoder
Selected bitrate : 1024 kBit/s
Quality : High
Add ID3 tag : No
Command line compressor : C:\Program Files (x86)\Exact Audio Copy\Flac\flac.exe
Additional command line options : -8 -V -T "Date=%year%" -T "Genre=%genre%" -T "COMMENT=ripped by bvstudio®" %source%


TOC of the extracted CD

Track | Start | Length | Start sector | End sector
––––––––––––––––––––––––––––-
1 | 0:00.33 | 3:39.25 | 33 | 16482
2 | 3:39.58 | 4:55.02 | 16483 | 38609
3 | 8:34.60 | 1:21.30 | 38610 | 44714
4 | 9:56.15 | 2:38.40 | 44715 | 56604
5 | 12:34.55 | 2:47.55 | 56605 | 69184
6 | 15:22.35 | 1:27.43 | 69185 | 75752
7 | 16:50.03 | 1:49.12 | 75753 | 83939
8 | 18:39.15 | 2:14.40 | 83940 | 94029
9 | 20:53.55 | 2:33.20 | 94030 | 105524
10 | 23:27.00 | 1:57.08 | 105525 | 114307
11 | 25:24.08 | 5:28.05 | 114308 | 138912
12 | 30:52.13 | 4:08.42 | 138913 | 157554
13 | 35:00.55 | 2:56.63 | 157555 | 170817
14 | 37:57.43 | 3:05.60 | 170818 | 184752


Range status and errors

Selected range

Filename F:\Yello\1980 - Solid Pleasure (1985 - Mercury. USA - 818 339-2)\Yello - Solid Pleasure.wav

Peak level 92.2 %
Extraction speed 6.6 X
Range quality 100.0 %
Test CRC 9DF3FA59
Copy CRC 9DF3FA59
Copy OK

No errors occurred


AccurateRip summary

Track 1 accurately ripped (confidence 4) [9AE19855] (AR v2)
Track 2 accurately ripped (confidence 4) [6C4DC235] (AR v2)
Track 3 accurately ripped (confidence 4) [9D158947] (AR v2)
Track 4 accurately ripped (confidence 4) [85F8B04F] (AR v2)
Track 5 accurately ripped (confidence 4) [89B6D8C3] (AR v2)
Track 6 accurately ripped (confidence 4) [1E699D82] (AR v2)
Track 7 accurately ripped (confidence 4) [C10B0D7A] (AR v2)
Track 8 accurately ripped (confidence 4) [AA0910CD] (AR v2)
Track 9 accurately ripped (confidence 4) [7C0080A1] (AR v2)
Track 10 accurately ripped (confidence 4) [D66C28EA] (AR v2)
Track 11 accurately ripped (confidence 4) [883A7BF7] (AR v2)
Track 12 accurately ripped (confidence 4) [BC445F7C] (AR v2)
Track 13 accurately ripped (confidence 4) [034FD0CF] (AR v2)
Track 14 accurately ripped (confidence 4) [6E7BA05B] (AR v2)

All tracks accurately ripped

End of status report

–– CUETools DB Plugin V2.1.5

[CTDB TOCID: Yyi4AeDmFct9VyuMoZcMYyztJEg-] found
Submit result: Yyi4AeDmFct9VyuMoZcMYyztJEg- has been confirmed
Track | CTDB Status
1 | ( 7/13) Accurately ripped
2 | ( 7/13) Accurately ripped
3 | ( 7/13) Accurately ripped
4 | ( 7/13) Accurately ripped
5 | ( 7/13) Accurately ripped
6 | ( 7/13) Accurately ripped
7 | ( 7/13) Accurately ripped
8 | ( 7/13) Accurately ripped
9 | ( 7/13) Accurately ripped
10 | ( 7/13) Accurately ripped
11 | ( 7/13) Accurately ripped
12 | ( 7/13) Accurately ripped
13 | ( 7/13) Accurately ripped
14 | ( 7/13) Accurately ripped


==== Log checksum B9A7AF6515AC2AB3F9435403036FCD0A4601FE1C6C1C02BE3BA612377883815A ====

foobar2000 1.2 / Dynamic Range Meter 1.1.1
log date: 2014-01-27 01:36:29

––––––––––––––––––––––––––––––––––––––––
Analyzed: Yello / Solid Pleasure
––––––––––––––––––––––––––––––––––––––––

DR Peak RMS Duration Track
––––––––––––––––––––––––––––––––––––––––
DR12 -1.31 dB -15.78 dB 3:39 01-Bimbo
DR12 -2.51 dB -16.71 dB 4:55 02-Night Flanger
DR13 -3.20 dB -18.58 dB 1:21 03-Reverse Lion
DR11 -1.62 dB -15.83 dB 2:39 04-Downtown Samba
DR13 -5.74 dB -23.48 dB 2:48 05-Magneto
DR10 -5.40 dB -18.51 dB 1:28 06-Massage
DR12 -1.78 dB -17.41 dB 1:49 07-Assistant's Cry
DR14 -1.58 dB -19.17 dB 2:15 08-Bostich
DR14 -1.76 dB -17.87 dB 2:33 09-Rock Stop
DR12 -2.15 dB -15.41 dB 1:57 10-Coast To Polka
DR13 -3.51 dB -19.91 dB 5:28 11-Blue Green
DR13 -3.84 dB -19.59 dB 4:09 12-Eternal Legs
DR11 -0.70 dB -17.29 dB 2:57 13-Stanztrigger
DR15 -1.02 dB -19.39 dB 3:06 14-Bananas To The Beat
––––––––––––––––––––––––––––––––––––––––

Number of tracks: 14
Official DR value: DR13

Samplerate: 44100 Hz
Channels: 2
Bits per sample: 16
Bitrate: 722 kbps
Codec: FLAC
================================================================================




Yello - Albums Collection: 1980-1991 (8CD) Non-Remastered [Re-Up]

Yello - Claro Que Si (1981)
EAC | FLAC | Image (Cue&Log) ~ 248 Mb (incl 5%) | Mp3 (CBR320) ~ 117 Mb (incl 5%)
Label: Vertigo | # 818 340-2 Q | Time: 00:37:52 | Scans included

Another leap in musical sophistication made Yello's second album another high point in the development of synth pop. The future of Euro-disco and dance-pop are easily audible from the opening "Daily Disco" and other tracks like "Pinball Cha Cha," "The Evening's Young," and "Cuad el Habib." Though Claro Que Si is slightly more pop-oriented than the group's debut, with Boris Blank's electronics just as innovative and obtuse as before, that's hardly a step backward.

Review by John Bush, Allmusic.com

Tracklist:

01. Daily Disco (04:33)
02. No More Roger (03:15)
03. Take It All (01:48)
04. The Evening's Young (04:53)
05. She's Got A Gun (03:44)
06. Ballet Mecanique (03:44)
07. Quad El Habib (03:24)
08. The Lorry (03:34)
09. Homer Hossa (05:16)
10. Pinball Cha Cha (03:38)


Exact Audio Copy V1.0 beta 3 from 29. August 2011

EAC extraction logfile from 19. November 2013, 16:19

Yello / Claro Que Si

Used drive : PLEXTOR DVDR PX-810SA Adapter: 2 ID: 0

Read mode : Secure
Utilize accurate stream : Yes
Defeat audio cache : Yes
Make use of C2 pointers : No

Read offset correction : 48
Overread into Lead-In and Lead-Out : No
Fill up missing offset samples with silence : Yes
Delete leading and trailing silent blocks : No
Null samples used in CRC calculations : Yes
Used interface : Installed external ASPI interface

Used output format : User Defined Encoder
Selected bitrate : 1024 kBit/s
Quality : High
Add ID3 tag : No
Command line compressor : C:\Program Files (x86)\Exact Audio Copy\Flac\flac.exe
Additional command line options : -8 -V -T "Date=%year%" -T "Genre=%genre%" -T "COMMENT=ripped by bvstudio®" %source%


TOC of the extracted CD

Track | Start | Length | Start sector | End sector
––––––––––––––––––––––––––––-
1 | 0:00.33 | 4:33.17 | 33 | 20524
2 | 4:33.50 | 3:15.53 | 20525 | 35202
3 | 7:49.28 | 1:48.22 | 35203 | 43324
4 | 9:37.50 | 4:53.23 | 43325 | 65322
5 | 14:30.73 | 3:43.72 | 65323 | 82119
6 | 18:14.70 | 3:44.20 | 82120 | 98939
7 | 21:59.15 | 3:24.38 | 98940 | 114277
8 | 25:23.53 | 3:34.10 | 114278 | 130337
9 | 28:57.63 | 5:16.30 | 130338 | 154067
10 | 34:14.18 | 3:38.05 | 154068 | 170422


Range status and errors

Selected range

Filename F:\Yello\1981 - Claro Que Si (1991 - Vertigo. Germany - 818 340-2 Q)\Yello - Claro Que Si.wav

Peak level 91.9 %
Extraction speed 6.5 X
Range quality 100.0 %
Test CRC 11F96C4C
Copy CRC 11F96C4C
Copy OK

No errors occurred


AccurateRip summary

Track 1 accurately ripped (confidence 26) [D3392A0B] (AR v2)
Track 2 accurately ripped (confidence 26) [73454834] (AR v2)
Track 3 accurately ripped (confidence 26) [8930229A] (AR v2)
Track 4 accurately ripped (confidence 26) [8AEE80B9] (AR v2)
Track 5 accurately ripped (confidence 26) [48449EAD] (AR v2)
Track 6 accurately ripped (confidence 26) [EA68CE91] (AR v2)
Track 7 accurately ripped (confidence 26) [29CF2B39] (AR v2)
Track 8 accurately ripped (confidence 26) [8C589AA9] (AR v2)
Track 9 accurately ripped (confidence 26) [28F71FCC] (AR v2)
Track 10 accurately ripped (confidence 26) [EC9342AB] (AR v2)

All tracks accurately ripped

End of status report

–– CUETools DB Plugin V2.1.5

[CTDB TOCID: AFjx4jZ0eSK.4egz0RZd0S871w8-] found
Submit result: AFjx4jZ0eSK.4egz0RZd0S871w8- has been confirmed
Track | CTDB Status
1 | (1/1) Accurately ripped
2 | (1/1) Accurately ripped
3 | (1/1) Accurately ripped
4 | (1/1) Accurately ripped
5 | (1/1) Accurately ripped
6 | (1/1) Accurately ripped
7 | (1/1) Accurately ripped
8 | (1/1) Accurately ripped
9 | (1/1) Accurately ripped
10 | (1/1) Accurately ripped


==== Log checksum EAC75EB2D3AA7C6D695DC032837BBB3CEEFD24A937E04F3466921835EC7D25AD ====

foobar2000 1.2 / Dynamic Range Meter 1.1.1
log date: 2014-01-27 01:36:47

––––––––––––––––––––––––––––––––––––––––
Analyzed: Yello / Claro Que Si
––––––––––––––––––––––––––––––––––––––––

DR Peak RMS Duration Track
––––––––––––––––––––––––––––––––––––––––
DR14 -1.11 dB -17.05 dB 4:33 01-Daily Disco
DR11 -2.10 dB -15.53 dB 3:16 02-No More Roger
DR10 -2.09 dB -16.96 dB 1:48 03-Take It All
DR10 -3.21 dB -16.50 dB 4:53 04-The Evening's Young
DR12 -1.88 dB -17.79 dB 3:44 05-She's Got A Gun
DR11 -2.39 dB -16.27 dB 3:44 06-Ballet Mecanique
DR10 -3.04 dB -15.63 dB 3:25 07-Quad El Habib
DR11 -0.73 dB -15.24 dB 3:34 08-The Lorry
DR11 -2.59 dB -17.06 dB 5:16 09-Homer Hossa
DR11 -1.58 dB -14.03 dB 3:38 10-Pinball Cha Cha
––––––––––––––––––––––––––––––––––––––––

Number of tracks: 10
Official DR value: DR11

Samplerate: 44100 Hz
Channels: 2
Bits per sample: 16
Bitrate: 779 kbps
Codec: FLAC
================================================================================




Yello - Albums Collection: 1980-1991 (8CD) Non-Remastered [Re-Up]

Yello - You Gotta Say Yes To Another Excess (1983)
EAC | FLAC | Image (Cue&Log) ~ 229 Mb (incl 5%) | Mp3 (CBR320) ~ 112 Mb (incl 5%)
Label: Mercury | # 812 166-2 | Time: 00:37:34 | Scans included

The seeds of Euro-dance sown on Claro Que Si reached fruition on Yello's next record, naturally titled You Gotta Say Yes to Another Excess. There are fewer novelty synth tracks than before, those being replaced by a series of sleazy, deep-throated vocals on "I Love You," "Lost Again," "Heavy Whispers," and the title track. There are also a few exercises in worldbeat synth pop, with heavy percussion on the title track as well as the closing number, "Salut Mayoumba." Though Blank's production doesn't sound as consistently innovative as on the first two Yello records, that's probably due more to other synth pop groups catching up than any comedown on his part.

Review by John Bush, Allmusic.com

Tracklist:

01. I Love You (03:16)
02. Lost Again (04:21)
03. No More Words (03:58)
04. Crash Dance (02:11)
05. Great Mission (02:56)
06. You Gotta Say Yes To Another Excess (02:10)
07. Swing (03:28)
08. Heavy Whispers (03:58)
09. Smile On You (03:11)
10. Pumping Velvet (03:20)
11. Salut Mayoumba (04:40)


Exact Audio Copy V1.0 beta 3 from 29. August 2011

EAC extraction logfile from 19. November 2013, 16:49

Yello / You Gotta Say Yes To Another Excess

Used drive : PLEXTOR DVDR PX-810SA Adapter: 2 ID: 0

Read mode : Secure
Utilize accurate stream : Yes
Defeat audio cache : Yes
Make use of C2 pointers : No

Read offset correction : 48
Overread into Lead-In and Lead-Out : No
Fill up missing offset samples with silence : Yes
Delete leading and trailing silent blocks : No
Null samples used in CRC calculations : Yes
Used interface : Installed external ASPI interface

Used output format : User Defined Encoder
Selected bitrate : 1024 kBit/s
Quality : High
Add ID3 tag : No
Command line compressor : C:\Program Files (x86)\Exact Audio Copy\Flac\flac.exe
Additional command line options : -8 -V -T "Date=%year%" -T "Genre=%genre%" -T "COMMENT=ripped by bvstudio®" %source%


TOC of the extracted CD

Track | Start | Length | Start sector | End sector
––––––––––––––––––––––––––––-
1 | 0:00.33 | 3:16.57 | 33 | 14789
2 | 3:17.15 | 4:21.05 | 14790 | 34369
3 | 7:38.20 | 3:58.10 | 34370 | 52229
4 | 11:36.30 | 2:11.00 | 52230 | 62054
5 | 13:47.30 | 2:56.08 | 62055 | 75262
6 | 16:43.38 | 2:10.40 | 75263 | 85052
7 | 18:54.03 | 3:28.40 | 85053 | 100692
8 | 22:22.43 | 3:58.35 | 100693 | 118577
9 | 26:21.03 | 3:11.25 | 118578 | 132927
10 | 29:32.28 | 3:20.60 | 132928 | 147987
11 | 32:53.13 | 4:40.32 | 147988 | 169019


Range status and errors

Selected range

Filename F:\Yello\1983 - You Gotta Say Yes To Another Excess (1988 - Mercury. USA - 812 166-2)\Yello - You Gotta Say Yes To Another Excess.wav

Peak level 84.4 %
Extraction speed 6.4 X
Range quality 99.9 %
Test CRC 6249A88F
Copy CRC 6249A88F
Copy OK

No errors occurred


AccurateRip summary

Track 1 accurately ripped (confidence 48) [85DC0C20] (AR v2)
Track 2 accurately ripped (confidence 48) [DB634BEA] (AR v2)
Track 3 accurately ripped (confidence 48) [B779046E] (AR v2)
Track 4 accurately ripped (confidence 48) [F2D969E9] (AR v2)
Track 5 accurately ripped (confidence 48) [3E9EBBF4] (AR v2)
Track 6 accurately ripped (confidence 48) [9499FA2F] (AR v2)
Track 7 accurately ripped (confidence 48) [0A857917] (AR v2)
Track 8 accurately ripped (confidence 48) [57198651] (AR v2)
Track 9 accurately ripped (confidence 48) [CB480BC3] (AR v2)
Track 10 accurately ripped (confidence 47) [1076D447] (AR v2)
Track 11 accurately ripped (confidence 47) [9A49D605] (AR v2)

All tracks accurately ripped

End of status report

–– CUETools DB Plugin V2.1.5

[CTDB TOCID: pWN521CNzcroaVFA..yhrPZNPMg-] found
Submit result: pWN521CNzcroaVFA..yhrPZNPMg- has been confirmed
Track | CTDB Status
1 | (6/6) Accurately ripped
2 | (6/6) Accurately ripped
3 | (6/6) Accurately ripped
4 | (6/6) Accurately ripped
5 | (6/6) Accurately ripped
6 | (6/6) Accurately ripped
7 | (6/6) Accurately ripped
8 | (6/6) Accurately ripped
9 | (6/6) Accurately ripped
10 | (6/6) Accurately ripped
11 | (6/6) Accurately ripped


==== Log checksum 848A817CF136D1C16335DAA182D3799A157CBAB815CE9D5181140990F6A42E3B ====

foobar2000 1.2 / Dynamic Range Meter 1.1.1
log date: 2014-01-27 01:37:04

––––––––––––––––––––––––––––––––––––––––
Analyzed: Yello / You Gotta Say Yes To Another Excess
––––––––––––––––––––––––––––––––––––––––

DR Peak RMS Duration Track
––––––––––––––––––––––––––––––––––––––––
DR14 -1.47 dB -17.66 dB 3:17 01-I Love You
DR14 -1.75 dB -19.73 dB 4:21 02-Lost Again
DR15 -3.61 dB -20.75 dB 3:58 03-No More Words
DR12 -6.33 dB -21.04 dB 2:11 04-Crash Dance
DR14 -8.91 dB -26.16 dB 2:56 05-Great Mission
DR11 -4.14 dB -19.09 dB 2:11 06-You Gotta Say Yes To Another Excess
DR13 -2.49 dB -18.58 dB 3:29 07-Swing
DR15 -5.45 dB -23.40 dB 3:58 08-Heavy Whispers
DR12 -2.65 dB -18.19 dB 3:11 09-Smile On You
DR14 -2.55 dB -19.83 dB 3:21 10-Pumping Velvet
DR13 -4.70 dB -20.81 dB 4:40 11-Salut Mayoumba
––––––––––––––––––––––––––––––––––––––––

Number of tracks: 11
Official DR value: DR13

Samplerate: 44100 Hz
Channels: 2
Bits per sample: 16
Bitrate: 736 kbps
Codec: FLAC
================================================================================




Yello - Albums Collection: 1980-1991 (8CD) Non-Remastered [Re-Up]

Yello - Stella (1985)
EAC | FLAC | Image (Cue&Log) ~ 257 Mb (incl 5%) | Mp3 (CBR320) ~ 126 Mb (incl 5%)
Label: Mercury | # 822 820-2 | Time: 00:40:56 | Scans included

Yes, Stella is the album that includes Yello's biggest hit, "Oh Yeah." It's also their best single LP, an excellent production throughout by Boris Blank, from the theatric instrumentals "Stalakdrama" and "Ciel Ouvert" to the frenetic pitched percussion on "Let Me Cry." As well, Dieter Meier proves he's at his best vocally, whether it's the seamy side of life on "Desert Inn" or an exaggerated leer for "Koladi-ola." Both hit their peak on the same album, and Stella is a complete joy for fans of the vocal or production side of the group.

Review by John Bush, Allmusic.com

Tracklist:

01. Desire (03:42)
02. Vicious Games (04:20)
03. Oh Yeah (03:04)
04. Desert Inn (03:30)
05. Stalakdrama (03:06)
06. Koladi-ola (02:57)
07. Domingo (04:33)
08. Somtimes (Dr. Hirsch) (03:35)
09. Let Me Cry (03:30)
10. Ciel Ouvert (05:26)
11. Angel No (03:07)


Exact Audio Copy V1.0 beta 3 from 29. August 2011

EAC extraction logfile from 19. November 2013, 17:14

Yello / Stella

Used drive : PLEXTOR DVDR PX-810SA Adapter: 2 ID: 0

Read mode : Secure
Utilize accurate stream : Yes
Defeat audio cache : Yes
Make use of C2 pointers : No

Read offset correction : 48
Overread into Lead-In and Lead-Out : No
Fill up missing offset samples with silence : Yes
Delete leading and trailing silent blocks : No
Null samples used in CRC calculations : Yes
Used interface : Installed external ASPI interface

Used output format : User Defined Encoder
Selected bitrate : 1024 kBit/s
Quality : High
Add ID3 tag : No
Command line compressor : C:\Program Files (x86)\Exact Audio Copy\Flac\flac.exe
Additional command line options : -8 -V -T "Date=%year%" -T "Genre=%genre%" -T "COMMENT=ripped by bvstudio®" %source%


TOC of the extracted CD

Track | Start | Length | Start sector | End sector
––––––––––––––––––––––––––––-
1 | 0:00.33 | 3:42.50 | 33 | 16732
2 | 3:43.08 | 4:20.60 | 16733 | 36292
3 | 8:03.68 | 3:04.70 | 36293 | 50162
4 | 11:08.63 | 3:30.22 | 50163 | 65934
5 | 14:39.10 | 3:05.73 | 65935 | 79882
6 | 17:45.08 | 2:57.62 | 79883 | 93219
7 | 20:42.70 | 4:33.38 | 93220 | 113732
8 | 25:16.33 | 3:35.67 | 113733 | 129924
9 | 28:52.25 | 3:30.25 | 129925 | 145699
10 | 32:22.50 | 5:26.20 | 145700 | 170169
11 | 37:48.70 | 3:07.13 | 170170 | 184207


Range status and errors

Selected range

Filename F:\Yello\1985 - Stella (1985 - Mercury. USA - 822 820-2)\Yello - Stella.wav

Peak level 89.6 %
Extraction speed 6.6 X
Range quality 100.0 %
Test CRC AEFA142C
Copy CRC AEFA142C
Copy OK

No errors occurred


AccurateRip summary

Track 1 accurately ripped (confidence 22) [BDA52F83] (AR v2)
Track 2 accurately ripped (confidence 23) [0AAABB66] (AR v2)
Track 3 accurately ripped (confidence 23) [60211402] (AR v2)
Track 4 accurately ripped (confidence 23) [B4016C71] (AR v2)
Track 5 accurately ripped (confidence 23) [D5451AD3] (AR v2)
Track 6 accurately ripped (confidence 23) [79F5CA25] (AR v2)
Track 7 accurately ripped (confidence 23) [803B071F] (AR v2)
Track 8 accurately ripped (confidence 23) [97066A5D] (AR v2)
Track 9 accurately ripped (confidence 22) [0C50B264] (AR v2)
Track 10 accurately ripped (confidence 23) [6B70F0B3] (AR v2)
Track 11 accurately ripped (confidence 23) [87948FC5] (AR v2)

All tracks accurately ripped

End of status report

–– CUETools DB Plugin V2.1.5

[CTDB TOCID: FKnKjNFizYphVC3X38DAgyuOW3I-] found
Submit result: FKnKjNFizYphVC3X38DAgyuOW3I- has been confirmed
Track | CTDB Status
1 | (3/4) Accurately ripped
2 | (4/4) Accurately ripped
3 | (4/4) Accurately ripped
4 | (4/4) Accurately ripped
5 | (4/4) Accurately ripped
6 | (4/4) Accurately ripped
7 | (4/4) Accurately ripped
8 | (4/4) Accurately ripped
9 | (4/4) Accurately ripped
10 | (4/4) Accurately ripped
11 | (4/4) Accurately ripped


==== Log checksum 4EE5037A3A120A58966321C8900DFAFA3E0D5DA5170442157EE8D6F12F702357 ====

foobar2000 1.2 / Dynamic Range Meter 1.1.1
log date: 2014-01-27 01:37:18

––––––––––––––––––––––––––––––––––––––––
Analyzed: Yello / Stella
––––––––––––––––––––––––––––––––––––––––

DR Peak RMS Duration Track
––––––––––––––––––––––––––––––––––––––––
DR14 -2.75 dB -18.65 dB 3:43 01-Desire
DR15 -1.89 dB -18.67 dB 4:21 02-Vicious Games
DR13 -3.70 dB -19.88 dB 3:05 03-Oh Yeah
DR17 -0.95 dB -19.71 dB 3:30 04-Desert Inn
DR10 -6.17 dB -21.88 dB 3:06 05-Stalakdrama
DR14 -5.09 dB -20.58 dB 2:58 06-Koladi-ola
DR13 -3.39 dB -18.95 dB 4:34 07-Domingo
DR13 -3.41 dB -18.46 dB 3:36 08-Somtimes (Dr. Hirsch)
DR12 -3.33 dB -18.25 dB 3:30 09-Let Me Cry
DR14 -5.14 dB -22.14 dB 5:26 10-Ciel Ouvert
DR14 -1.97 dB -17.81 dB 3:07 11-Angel No
––––––––––––––––––––––––––––––––––––––––

Number of tracks: 11
Official DR value: DR13

Samplerate: 44100 Hz
Channels: 2
Bits per sample: 16
Bitrate: 747 kbps
Codec: FLAC
================================================================================




Yello - Albums Collection: 1980-1991 (8CD) Non-Remastered [Re-Up]

Yello - 1980–1985 The New Mix In One Go (1986)
EAC | FLAC | Image (Cue&Log) ~ 456 Mb (incl 5%) | Mp3 (CBR320) ~ 213 Mb (incl 5%)
Label: Vertigo | # 826 773-2 Q | Time: 01:03:58 | Scans included

The New Mix in One Go: 80-'85 is a double-record set comprised of remixes and re-recordings of older songs, plus a handful of new material designed to entice collectors.

Review by Stephen Thomas Erlewine, Allmusic.com

Tracklist:

01. Daily Disco (04:06)
02. Swing (03:29)
03. The Evening's Young (03:07)
04. Pinball Cha Cha (03:34)
05. I Love You (04:07)
06. Vicious Games (03:51)
07. Sometimes (Dr. Hirsch) (03:33)
08. Base For Alec (02:54)
09. Oh Yeah (03:04)
10. Lost Again (04:33)
11. Tub Dub (02:04)
12. Angel No (03:04)
13. Desire (03:34)
14. Bananas To The Beat (02:58)
15. Koladi-Ola (02:54)
16. Domingo (04:30)
17. Bostich (04:33)
18. Live At The Roxy (03:56)


Exact Audio Copy V1.0 beta 3 from 29. August 2011

EAC extraction logfile from 19. November 2013, 17:45

Yello / 1980 - 1985 The New Mix In One Go

Used drive : PLEXTOR DVDR PX-810SA Adapter: 2 ID: 0

Read mode : Secure
Utilize accurate stream : Yes
Defeat audio cache : Yes
Make use of C2 pointers : No

Read offset correction : 48
Overread into Lead-In and Lead-Out : No
Fill up missing offset samples with silence : Yes
Delete leading and trailing silent blocks : No
Null samples used in CRC calculations : Yes
Used interface : Installed external ASPI interface

Used output format : User Defined Encoder
Selected bitrate : 1024 kBit/s
Quality : High
Add ID3 tag : No
Command line compressor : C:\Program Files (x86)\Exact Audio Copy\Flac\flac.exe
Additional command line options : -8 -V -T "Date=%year%" -T "Genre=%genre%" -T "COMMENT=ripped by bvstudio®" %source%


TOC of the extracted CD

Track | Start | Length | Start sector | End sector
––––––––––––––––––––––––––––-
1 | 0:00.33 | 4:06.05 | 33 | 18487
2 | 4:06.38 | 3:29.02 | 18488 | 34164
3 | 7:35.40 | 3:07.43 | 34165 | 48232
4 | 10:43.08 | 3:34.65 | 48233 | 64347
5 | 14:17.73 | 4:07.17 | 64348 | 82889
6 | 18:25.15 | 3:51.33 | 82890 | 100247
7 | 22:16.48 | 3:32.70 | 100248 | 116217
8 | 25:49.43 | 2:54.15 | 116218 | 129282
9 | 28:43.58 | 3:04.62 | 129283 | 143144
10 | 31:48.45 | 4:33.25 | 143145 | 163644
11 | 36:21.70 | 2:04.00 | 163645 | 172944
12 | 38:25.70 | 3:03.70 | 172945 | 186739
13 | 41:29.65 | 3:34.53 | 186740 | 202842
14 | 45:04.43 | 2:58.15 | 202843 | 216207
15 | 48:02.58 | 2:54.40 | 216208 | 229297
16 | 50:57.23 | 4:30.30 | 229298 | 249577
17 | 55:27.53 | 4:33.40 | 249578 | 270092
18 | 60:01.18 | 3:56.42 | 270093 | 287834


Range status and errors

Selected range

Filename F:\Yello\1985 - The New Mix In One Go (1991 - Vertigo. Germany - 826 773-2 Q)\Yello - 1980 - 1985 The New Mix In One Go.wav

Peak level 100.0 %
Extraction speed 8.0 X
Range quality 100.0 %
Test CRC 89CAD08B
Copy CRC 89CAD08B
Copy OK

No errors occurred


AccurateRip summary

Track 1 accurately ripped (confidence 149) [3B9B7BD9] (AR v2)
Track 2 accurately ripped (confidence 149) [8A529F55] (AR v2)
Track 3 accurately ripped (confidence 149) [A14C3D5C] (AR v2)
Track 4 accurately ripped (confidence 149) [69240FD2] (AR v2)
Track 5 accurately ripped (confidence 149) [3045FD69] (AR v2)
Track 6 accurately ripped (confidence 149) [F14269D9] (AR v2)
Track 7 accurately ripped (confidence 149) [7C3133C2] (AR v2)
Track 8 accurately ripped (confidence 149) [CA336888] (AR v2)
Track 9 accurately ripped (confidence 149) [B1885E14] (AR v2)
Track 10 accurately ripped (confidence 147) [909630D1] (AR v2)
Track 11 accurately ripped (confidence 148) [103B4035] (AR v2)
Track 12 accurately ripped (confidence 145) [3A2CE1AC] (AR v2)
Track 13 accurately ripped (confidence 147) [C0176EC1] (AR v2)
Track 14 accurately ripped (confidence 147) [2F125CE0] (AR v2)
Track 15 accurately ripped (confidence 147) [9B171854] (AR v2)
Track 16 accurately ripped (confidence 146) [B4A95E0D] (AR v2)
Track 17 accurately ripped (confidence 148) [54483EE9] (AR v2)
Track 18 accurately ripped (confidence 148) [2CFB2476] (AR v2)

All tracks accurately ripped

End of status report

–– CUETools DB Plugin V2.1.5

[CTDB TOCID: TrrbjGMNkGTLHlhzeWQ72mhkmmc-] found
Submit result: TrrbjGMNkGTLHlhzeWQ72mhkmmc- has been confirmed
Track | CTDB Status
1 | (7/7) Accurately ripped
2 | (7/7) Accurately ripped
3 | (7/7) Accurately ripped
4 | (7/7) Accurately ripped
5 | (7/7) Accurately ripped
6 | (7/7) Accurately ripped
7 | (7/7) Accurately ripped
8 | (7/7) Accurately ripped
9 | (7/7) Accurately ripped
10 | (7/7) Accurately ripped
11 | (7/7) Accurately ripped
12 | (7/7) Accurately ripped
13 | (7/7) Accurately ripped
14 | (7/7) Accurately ripped
15 | (7/7) Accurately ripped
16 | (7/7) Accurately ripped
17 | (7/7) Accurately ripped
18 | (7/7) Accurately ripped


==== Log checksum 73717810B6928D5549361147F4560694B68205D6680B0225E32677283352E6F1 ====

foobar2000 1.2 / Dynamic Range Meter 1.1.1
log date: 2014-01-27 01:37:40

––––––––––––––––––––––––––––––––––––––––
Analyzed: Yello / 1980 - 1985 The New Mix In One Go
––––––––––––––––––––––––––––––––––––––––

DR Peak RMS Duration Track
––––––––––––––––––––––––––––––––––––––––
DR16 0.00 dB -17.04 dB 4:06 01-Daily Disco
DR13 -4.61 dB -20.12 dB 3:29 02-Swing
DR14 -1.44 dB -18.89 dB 3:08 03-The Evening's Young
DR11 -3.07 dB -17.36 dB 3:35 04-Pinball Cha Cha
DR14 -2.16 dB -18.66 dB 4:07 05-I Love You
DR12 -1.97 dB -17.59 dB 3:51 06-Vicious Games
DR13 -3.77 dB -18.20 dB 3:33 07-Sometimes (Dr. Hirsch)
DR15 -3.65 dB -19.72 dB 2:54 08-Base For Alec
DR13 -2.87 dB -18.04 dB 3:05 09-Oh Yeah
DR15 -2.00 dB -18.36 dB 4:33 10-Lost Again
DR14 -3.09 dB -20.08 dB 2:04 11-Tub Dub
DR14 -1.72 dB -17.29 dB 3:04 12-Angel No
DR14 -3.07 dB -18.65 dB 3:35 13-Desire
DR16 -1.70 dB -19.60 dB 2:58 14-Bananas To The Beat
DR13 -3.72 dB -19.00 dB 2:55 15-Koladi-Ola
DR13 -3.18 dB -17.99 dB 4:30 16-Domingo
DR14 -1.74 dB -18.19 dB 4:34 17-Bostich
DR14 -2.51 dB -19.33 dB 3:57 18-Live At The Roxy
––––––––––––––––––––––––––––––––––––––––

Number of tracks: 18
Official DR value: DR14

Samplerate: 44100 Hz
Channels: 2
Bits per sample: 16
Bitrate: 827 kbps
Codec: FLAC
================================================================================




Yello - Albums Collection: 1980-1991 (8CD) Non-Remastered [Re-Up]

Yello - One Second (1987)
EAC | FLAC | Image (Cue&Log) ~ 363 Mb (incl 5%) | Mp3 (CBR320) ~ 161 Mb (incl 5%)
Label: Mercury | # 832 675-2 | Time: 00:53:02 | Scans included

One Second expands the Eurodisco approach of Stella, and while it's considerably less adventurous than Yello's earlier works, it's engaging dance music, highlighted by some clever uses of Latin rhythms and vocal cameos from Billy Mackenzie and Shirley Bassey.

Review by Stephen Thomas Erlewine, Allmusic.com

Tracklist:

01. La Habanera (05:14)
02. Moon In Ice (04:17)
03. Call It Love (05:07)
04. Le Secret Farida (03:18)
05. Hawaiian Chance (04:21)
06. The Rhythm Divine (04:13)
07. Santiago (05:49)
08. Goldrush (04:21)
09. Oh Yeah (03:04)
10. Dr Van Steiner (04:19)
11. Si Senor The Hairy Grill (04:55)
12. L'Hotel (03:57)


Exact Audio Copy V1.0 beta 3 from 29. August 2011

EAC extraction logfile from 19. November 2013, 18:51

Yello / One Second

Used drive : PLEXTOR DVDR PX-810SA Adapter: 2 ID: 0

Read mode : Secure
Utilize accurate stream : Yes
Defeat audio cache : Yes
Make use of C2 pointers : No

Read offset correction : 48
Overread into Lead-In and Lead-Out : No
Fill up missing offset samples with silence : Yes
Delete leading and trailing silent blocks : No
Null samples used in CRC calculations : Yes
Used interface : Installed external ASPI interface

Used output format : User Defined Encoder
Selected bitrate : 1024 kBit/s
Quality : High
Add ID3 tag : No
Command line compressor : C:\Program Files (x86)\Exact Audio Copy\Flac\flac.exe
Additional command line options : -8 -V -T "Date=%year%" -T "Genre=%genre%" -T "COMMENT=ripped by bvstudio®" %source%


TOC of the extracted CD

Track | Start | Length | Start sector | End sector
––––––––––––––––––––––––––––-
1 | 0:00.32 | 5:14.50 | 32 | 23631
2 | 5:15.07 | 4:17.50 | 23632 | 42956
3 | 9:32.57 | 5:07.53 | 42957 | 66034
4 | 14:40.35 | 3:18.50 | 66035 | 80934
5 | 17:59.10 | 4:21.52 | 80935 | 100561
6 | 22:20.62 | 4:13.38 | 100562 | 119574
7 | 26:34.25 | 5:49.37 | 119575 | 145786
8 | 32:23.62 | 4:21.65 | 145787 | 165426
9 | 36:45.52 | 3:04.30 | 165427 | 179256
10 | 39:50.07 | 4:19.20 | 179257 | 198701
11 | 44:09.27 | 4:55.50 | 198702 | 220876
12 | 49:05.02 | 3:57.23 | 220877 | 238674


Range status and errors

Selected range

Filename F:\Yello\1987 - One Second (1987 - Mercury. USA - 832 675-2)\Yello - One Second.wav

Peak level 100.0 %
Extraction speed 1.7 X
Range quality 100.0 %
Test CRC BEA0C76A
Copy CRC BEA0C76A
Copy OK

No errors occurred


AccurateRip summary

Track 1 accurately ripped (confidence 14) [9D7A979D] (AR v2)
Track 2 accurately ripped (confidence 12) [2A973F5C] (AR v2)
Track 3 accurately ripped (confidence 14) [0FC3E8AF] (AR v2)
Track 4 accurately ripped (confidence 14) [A86BE172] (AR v2)
Track 5 accurately ripped (confidence 13) [65330AB1] (AR v2)
Track 6 accurately ripped (confidence 14) [94655261] (AR v2)
Track 7 accurately ripped (confidence 14) [825104AC] (AR v2)
Track 8 accurately ripped (confidence 14) [DE5E603E] (AR v2)
Track 9 accurately ripped (confidence 14) [30AEFDFF] (AR v2)
Track 10 accurately ripped (confidence 14) [1326995B] (AR v2)
Track 11 accurately ripped (confidence 14) [5022C1F0] (AR v2)
Track 12 accurately ripped (confidence 13) [692EC925] (AR v2)

All tracks accurately ripped

End of status report

–– CUETools DB Plugin V2.1.5

[CTDB TOCID: fUr7JDIB1.3FotoyPmI8AYeaTWc-] found
Submit result: fUr7JDIB1.3FotoyPmI8AYeaTWc- has been confirmed
Track | CTDB Status
1 | (2/2) Accurately ripped
2 | (2/2) Accurately ripped
3 | (2/2) Accurately ripped
4 | (2/2) Accurately ripped
5 | (2/2) Accurately ripped
6 | (2/2) Accurately ripped
7 | (2/2) Accurately ripped
8 | (2/2) Accurately ripped
9 | (2/2) Accurately ripped
10 | (2/2) Accurately ripped
11 | (2/2) Accurately ripped
12 | (2/2) Accurately ripped


==== Log checksum 7C19B32A3EE28304E261966F0585004494A3E36FC40C912D4F647080F304239A ====

foobar2000 1.2 / Dynamic Range Meter 1.1.1
log date: 2014-01-27 01:37:57

––––––––––––––––––––––––––––––––––––––––
Analyzed: Yello / One Second
––––––––––––––––––––––––––––––––––––––––

DR Peak RMS Duration Track
––––––––––––––––––––––––––––––––––––––––
DR14 -0.25 dB -16.31 dB 5:15 01-La Habanera
DR12 -0.23 dB -15.69 dB 4:18 02-Moon In Ice
DR13 -0.56 dB -16.98 dB 5:08 03-Call It Love
DR11 -1.53 dB -16.14 dB 3:19 04-Le Secret Farida
DR14 -0.79 dB -17.31 dB 4:22 05-Hawaiian Chance
DR12 -1.47 dB -16.85 dB 4:14 06-The Rhythm Divine
DR14 -0.69 dB -16.91 dB 5:49 07-Santiago
DR16 0.00 dB -18.51 dB 4:22 08-Goldrush
DR13 -2.18 dB -18.08 dB 3:04 09-Oh Yeah
DR14 -0.11 dB -16.31 dB 4:19 10-Dr Van Steiner
DR13 0.00 dB -15.52 dB 4:56 11-Si Senor The Hairy Grill
DR11 -3.25 dB -19.05 dB 3:57 12-L'Hotel
––––––––––––––––––––––––––––––––––––––––

Number of tracks: 12
Official DR value: DR13

Samplerate: 44100 Hz
Channels: 2
Bits per sample: 16
Bitrate: 827 kbps
Codec: FLAC
================================================================================




Yello - Albums Collection: 1980-1991 (8CD) Non-Remastered [Re-Up]

Yello - Flag (1988)
EAC | FLAC | Image (Cue&Log) ~ 360 Mb (incl 5%) | Mp3 (CBR320) ~ 156 Mb (incl 5%)
Label: Mercury | # 836 426-2 | Time: 00:48:56 | Scans included

Flag was a watershed album for the group. On one hand, it is a refinement of all the ideas the band had been following through the '80s, on the other, in the wake of their high-profile success with "Oh Yeah," Yello had reached the point where ideas turned into self-parody – the cover art of Deiter Meier and Boris Blank pulled together into a human knot is horrifically appropriate. Nothing is a surprise here, apart from how "The Race" is a Xerox of their own 1981 song "Bostich." Tracks like "Of Course I'm Lying" are empty exercises in suave, like late-period Roxy Music without the pedigree. Billy Mackenzie returns to provide backup vocals on the more romantic tunes. This isn't to say that the album is a dull listen – "Tied Up," repeated here three times on a nine-track album, is a fascinating collage of Afro-Cuban rhythms, rain storm effects, drums nicked from a Broadway revue, monkey chatter, basso-profundo lyrics, and screams. Similar thick, eclectic production dogs each track like cologne on a lounge lizard – too much of a good thing. Yello saw the decade out with Flag – they haven't found their way back since.

Review by Ted Mills, Allmusic.com

Tracklist:

01. Tied Up (06:11)
02. Of Course I'm Lying (05:59)
03. 3rd Of June (04:56)
04. Blazing Saddles (03:56)
05. The Race (08:12)
06. Alhambra (03:40)
07. Otto Di Catania (03:23)
08. Tied Up In Red (08:38)
09. Tied Up In Gear (03:57)


Exact Audio Copy V1.0 beta 3 from 29. August 2011

EAC extraction logfile from 19. November 2013, 19:17

Yello / Flag

Used drive : PLEXTOR DVDR PX-810SA Adapter: 2 ID: 0

Read mode : Secure
Utilize accurate stream : Yes
Defeat audio cache : Yes
Make use of C2 pointers : No

Read offset correction : 48
Overread into Lead-In and Lead-Out : No
Fill up missing offset samples with silence : Yes
Delete leading and trailing silent blocks : No
Null samples used in CRC calculations : Yes
Used interface : Installed external ASPI interface

Used output format : User Defined Encoder
Selected bitrate : 1024 kBit/s
Quality : High
Add ID3 tag : No
Command line compressor : C:\Program Files (x86)\Exact Audio Copy\Flac\flac.exe
Additional command line options : -8 -V -T "Date=%year%" -T "Genre=%genre%" -T "COMMENT=ripped by bvstudio®" %source%


TOC of the extracted CD

Track | Start | Length | Start sector | End sector
––––––––––––––––––––––––––––-
1 | 0:00.32 | 6:11.08 | 32 | 27864
2 | 6:11.40 | 5:59.22 | 27865 | 54811
3 | 12:10.62 | 4:56.65 | 54812 | 77076
4 | 17:07.52 | 3:56.50 | 77077 | 94826
5 | 21:04.27 | 8:12.10 | 94827 | 131736
6 | 29:16.37 | 3:40.63 | 131737 | 148299
7 | 32:57.25 | 3:23.00 | 148300 | 163524
8 | 36:20.25 | 8:38.15 | 163525 | 202389
9 | 44:58.40 | 3:57.42 | 202390 | 220206


Range status and errors

Selected range

Filename F:\Yello\1988 - Flag (1988 - Mercury. USA - 836 426-2)\Yello - Flag.wav

Peak level 98.8 %
Extraction speed 7.0 X
Range quality 100.0 %
Test CRC 54BB0548
Copy CRC 54BB0548
Copy OK

No errors occurred


AccurateRip summary

Track 1 accurately ripped (confidence 6) [00C46D9E] (AR v2)
Track 2 accurately ripped (confidence 6) [89EBE613] (AR v2)
Track 3 accurately ripped (confidence 6) [2E19A313] (AR v2)
Track 4 accurately ripped (confidence 6) [CE665630] (AR v2)
Track 5 accurately ripped (confidence 6) [3A553D08] (AR v2)
Track 6 accurately ripped (confidence 6) [97046B9E] (AR v2)
Track 7 accurately ripped (confidence 6) [2D36503B] (AR v2)
Track 8 accurately ripped (confidence 6) [37AA8119] (AR v2)
Track 9 accurately ripped (confidence 6) [103E37A4] (AR v2)

All tracks accurately ripped

End of status report

–– CUETools DB Plugin V2.1.5

[CTDB TOCID: AnhtpvFKK2XUx5DbzprhMgWu9Tg-] found
Submit result: AnhtpvFKK2XUx5DbzprhMgWu9Tg- has been confirmed
Track | CTDB Status
1 | (1/1) Accurately ripped
2 | (1/1) Accurately ripped
3 | (1/1) Accurately ripped
4 | (1/1) Accurately ripped
5 | (1/1) Accurately ripped
6 | (1/1) Accurately ripped
7 | (1/1) Accurately ripped
8 | (1/1) Accurately ripped
9 | (1/1) Accurately ripped


==== Log checksum 1D1FA46518A2821CF1798F0BF7541F05D090D98336548151BA35CD339A320D06 ====

foobar2000 1.2 / Dynamic Range Meter 1.1.1
log date: 2014-01-27 02:47:31

––––––––––––––––––––––––––––––––––––––––
Analyzed: Yello / Flag
––––––––––––––––––––––––––––––––––––––––

DR Peak RMS Duration Track
––––––––––––––––––––––––––––––––––––––––
DR15 -1.11 dB -18.36 dB 6:11 01-Tied Up
DR13 -1.09 dB -16.76 dB 5:59 02-Of Course I'm Lying
DR11 -1.39 dB -16.80 dB 4:57 03-3rd Of June
DR11 -2.32 dB -15.37 dB 3:57 04-Blazing Saddles
DR13 -1.04 dB -16.91 dB 8:12 05-The Race
DR13 -1.04 dB -17.50 dB 3:41 06-Alhambra
DR14 -1.97 dB -19.13 dB 3:23 07-Otto Di Catania
DR15 -0.10 dB -19.28 dB 8:38 08-Tied Up In Red
DR12 -1.65 dB -16.29 dB 3:58 09-Tied Up In Gear
––––––––––––––––––––––––––––––––––––––––

Number of tracks: 9
Official DR value: DR13

Samplerate: 44100 Hz
Channels: 2
Bits per sample: 16
Bitrate: 877 kbps
Codec: FLAC
================================================================================




Yello - Albums Collection: 1980-1991 (8CD) Non-Remastered [Re-Up]

Yello - Baby (1991)
EAC | FLAC | Image (Cue&Log) ~ 308 Mb (incl 5%) | Mp3 (CBR320) ~ 148 Mb (incl 5%)
Label: Mercury | # 848 791-2 | Time: 00:39:38 | Scans included

The Swiss act Yello began as an avant-garde electronic trio, releasing two critically acclaimed albums (1980's Solid Pleasure and 1981's Claro Que Si) before scoring major U.S. club success (and MTV exposure) with 1983's more accessible You Gotta Say Yes to Another Excess. Following the departure of Carlos Peron, founding members Boris Blank and Dieter Meier toned down the more experimental touches while successfully keeping Yello's quirky danceclub sensibilities intact. In 1985, Yello released the more pop-oriented Stella, which included the song that would be a major turning point in the group's career. "Oh Yeah" became a sensation, appearing in major motion pictures and countless commercials before belatedly hitting the U.S. pop chart in 1987. With the release of 1988's Flag, Yello achieved its greatest commercial and critical success. Baby, the 1991 follow-up to Flag, predictably sounds quite similar to its predecessor. With Flag, Yello began to heavily incorporate Latin rhythms into its signature sound, and Baby continues this approach, although with less success. Baby is not without its share of strong tracks, however. "Jungle Bill" and "Who's Gone" are as delightful as anything on Flag, and the wonderfully weird "Rubberbandman" proves Yello definitely has a sense of humor. With Baby, however, Yello faces the task of following its strongest album, and the material is too slight to scale the heights of the complex and often brilliant Flag. But Baby is, for the most part, frothy and fun, and definitely a worthy addition to the Yello catalog.

Review by William Cooper, Allmusic.com

Tracklist:

01. Homage To The Mountain (00:35)
02. Rubberbandman (03:37)
03. Jungle Bill (06:12)
04. Ocean Club (03:29)
05. Who's Gone (03:41)
06. Capri Calling (03:02)
07. Drive / Driven (04:16)
08. On The Run (04:40)
09. Blender (04:36)
10. Sweet Thunder (05:28)


Exact Audio Copy V1.0 beta 3 from 29. August 2011

EAC extraction logfile from 19. November 2013, 19:36

Yello / Baby

Used drive : PLEXTOR DVDR PX-810SA Adapter: 2 ID: 0

Read mode : Secure
Utilize accurate stream : Yes
Defeat audio cache : Yes
Make use of C2 pointers : No

Read offset correction : 48
Overread into Lead-In and Lead-Out : No
Fill up missing offset samples with silence : Yes
Delete leading and trailing silent blocks : No
Null samples used in CRC calculations : Yes
Used interface : Installed external ASPI interface

Used output format : User Defined Encoder
Selected bitrate : 1024 kBit/s
Quality : High
Add ID3 tag : No
Command line compressor : C:\Program Files (x86)\Exact Audio Copy\Flac\flac.exe
Additional command line options : -8 -V -T "Date=%year%" -T "Genre=%genre%" -T "COMMENT=ripped by bvstudio®" %source%


TOC of the extracted CD

Track | Start | Length | Start sector | End sector
––––––––––––––––––––––––––––-
1 | 0:00.33 | 0:35.15 | 33 | 2672
2 | 0:35.48 | 3:37.02 | 2673 | 18949
3 | 4:12.50 | 6:12.40 | 18950 | 46889
4 | 10:25.15 | 3:29.00 | 46890 | 62564
5 | 13:54.15 | 3:41.55 | 62565 | 79194
6 | 17:35.70 | 3:02.13 | 79195 | 92857
7 | 20:38.08 | 4:16.02 | 92858 | 112059
8 | 24:54.10 | 4:39.73 | 112060 | 133057
9 | 29:34.08 | 4:36.25 | 133058 | 153782
10 | 34:10.33 | 5:28.00 | 153783 | 178382


Range status and errors

Selected range

Filename F:\Yello\1991 - Baby (1991 - Mercury. Germany - 848 791-2)\Yello - Baby.wav

Peak level 100.0 %
Extraction speed 6.6 X
Range quality 99.9 %
Test CRC 595A0BAC
Copy CRC 595A0BAC
Copy OK

No errors occurred


AccurateRip summary

Track 1 accurately ripped (confidence 172) [D6BDA266] (AR v2)
Track 2 accurately ripped (confidence 167) [30F91C03] (AR v2)
Track 3 accurately ripped (confidence 169) [D320CBF0] (AR v2)
Track 4 accurately ripped (confidence 170) [4CD59635] (AR v2)
Track 5 accurately ripped (confidence 169) [B2B66D11] (AR v2)
Track 6 accurately ripped (confidence 171) [4FDF6A85] (AR v2)
Track 7 accurately ripped (confidence 170) [819E5431] (AR v2)
Track 8 accurately ripped (confidence 170) [1C2BDB61] (AR v2)
Track 9 accurately ripped (confidence 169) [A0D3B390] (AR v2)
Track 10 accurately ripped (confidence 166) [AEBEB0EF] (AR v2)

All tracks accurately ripped

End of status report

–– CUETools DB Plugin V2.1.5

[CTDB TOCID: BVaQDnMw8rAqdwQncv8kosXU75Q-] found
Submit result: BVaQDnMw8rAqdwQncv8kosXU75Q- has been confirmed
Track | CTDB Status
1 | (8/9) Accurately ripped
2 | (7/9) Accurately ripped, or (1/9) differs in 100 samples @02:47:65,02:50:66,02:51:00-02:51:01,02:51:47,03:15:71,03:34:12,03:34:21,03:35:33,03:36:72
3 | (7/9) Accurately ripped, or (1/9) differs in 4 samples @00:02:28
4 | (8/9) Accurately ripped
5 | (8/9) Accurately ripped
6 | (8/9) Accurately ripped
7 | (8/9) Accurately ripped
8 | (8/9) Accurately ripped
9 | (8/9) Accurately ripped
10 | (9/9) Accurately ripped


==== Log checksum 389633ABDDA71076E2FAA0FCE8C19B731DCF756F6D04836569FE9F9C1D9CD3E3 ====

foobar2000 1.2 / Dynamic Range Meter 1.1.1
log date: 2014-01-27 02:47:56

––––––––––––––––––––––––––––––––––––––––
Analyzed: Yello / Baby
––––––––––––––––––––––––––––––––––––––––

DR Peak RMS Duration Track
––––––––––––––––––––––––––––––––––––––––
DR12 -2.74 dB -18.65 dB 0:35 01-Homage To The Mountain
DR14 -0.33 dB -16.40 dB 3:37 02-Rubberbandman
DR14 0.00 dB -15.56 dB 6:13 03-Jungle Bill
DR15 -0.46 dB -18.17 dB 3:29 04-Ocean Club
DR13 0.00 dB -15.50 dB 3:42 05-Who's Gone
DR12 -2.45 dB -17.16 dB 3:02 06-Capri Calling
DR13 -0.92 dB -16.34 dB 4:16 07-Drive / Driven
DR14 0.00 dB -16.86 dB 4:40 08-On The Run
DR12 -0.27 dB -15.16 dB 4:36 09-Blender
DR10 -1.41 dB -17.30 dB 5:28 10-Sweet Thunder
––––––––––––––––––––––––––––––––––––––––

Number of tracks: 10
Official DR value: DR13

Samplerate: 44100 Hz
Channels: 2
Bits per sample: 16
Bitrate: 856 kbps
Codec: FLAC
================================================================================