Tags
Language
Tags

Yes ‎- The Steven Wilson Remixes (2018) [6LP Box Set, Vinyl Rip 16/44 & mp3-320 + 3xDVD] Re-up

Posted By: v3122
Yes ‎- The Steven Wilson Remixes (2018) [6LP Box Set, Vinyl Rip 16/44 & mp3-320 + 3xDVD] Re-up

Yes ‎– The Steven Wilson Remixes (2018)
Vinyl Rip 16/44 | Flac(Image + Cue) > 1526 Mb
MP3 CBR 320Kbps > 584 Mb | Artwork(jpg) > 82 Mb
DVD-5: NTSC 4:3 (720x480) VBR | LPCM, 2 ch, 64 bit, 48 kHz > 2.91 Gb
2xDVD-5: NTSC 4:3 (720x480) VBR | LPCM, 2 ch, 24 bit, 96 kHz > 8.65 Gb
Rhino Records, RI 562476 | Progressive Rock

~ The Steven Wilson box set has remixed versions of: The Yes Album (1971), Fragile (1971), Close To The Edge (1972), the double album Tales From Topographic Oceans (1973), and Relayer (1974). ~

In 2013, in addition to his many recording and remixing projects, Steven Wilson remixed a sizable chunk of the Yes catalog. Interestingly, he didn't proceed chronologically, but by using an inner aesthetic that has become his trademark through previous projects with King Crimson and Jethro Tull. In 2013, he completed 1972's Close to the Edge; in 2014, he did a stellar job on 1974's Relayer (arguably never properly heard until this mix) and 1971's The Yes Album. The following year it was 1972's Fragile, and in 2016, 1973's double-length Tales from Topographic Oceans. These high-resolution remixes were previously available only on Blu-ray and DVD (while the conventional CDs contained 16/44.1 resolution mixes).

In commemoration of Yes' 50th anniversary, Rhino has boxed and re-released all of these titles on vinyl. According to Wilson, they have used the 24/96 hi-res, DVD-A/Blu-ray mixes for each LP. The outer housing of the package features artwork created specifically for this set by original album artist Roger Dean – whose work has been synonymous with the band's identity for more than 40 years. Additionally, two of these albums – Close to the Edge and Tales from Topographic Oceans – feature brand-new cover art, while the remaining three covers were reworked by Dean.

by Thom Jurek, allmusic
Yes ‎– The Steven Wilson Remixes (2018):

Yes ‎- The Steven Wilson Remixes (2018) [6LP Box Set, Vinyl Rip 16/44 & mp3-320 + 3xDVD] Re-up

Tracklist LP1 - 1971 - Fragile:

A1 Roundabout
A2 Cans And Brahams
A3 We Have Heaven
A4 South Side Of The Sky

B1 Five Per Cent For Nothing
B2 Long Distance Runaround
B3 The Fish (Schindleria Praematurus)
B4 Mood For A Day
B5 Heart Of The Sunrise

foobar2000 1.2.9 / Dynamic Range Meter 1.1.1
log date: 2018-08-28 00:47:54

––––––––––––––––––––––––––––––––––––––––
Analyzed: Yes / Fragile
––––––––––––––––––––––––––––––––––––––––

DR Peak RMS Duration Track
––––––––––––––––––––––––––––––––––––––––
DR12 -0.55 dB -16.48 dB 8:33 01-A1 Roundabout
DR13 -3.62 dB -23.08 dB 1:39 02-A2 Cans And Brahams
DR12 -1.08 dB -18.65 dB 1:42 03-A3 We Have Heaven
DR13 -1.76 dB -18.81 dB 8:05 04-A4 South Side Of The Sky
DR14 -4.76 dB -20.95 dB 0:37 05-B1 Five Per Cent For Nothing
DR15 -1.32 dB -19.30 dB 3:33 06-B2 Long Distance Runaround
DR13 -1.03 dB -17.11 dB 2:36 07-B3 The Fish (Schindleria Praematurus)
DR17 -6.68 dB -26.33 dB 2:58 08-B4 Mood For A Day
DR14 -0.77 dB -17.65 dB 11:27 09-B5 Heart Of The Sunrise
––––––––––––––––––––––––––––––––––––––––

Number of tracks: 9
Official DR value: DR14

Samplerate: 44100 Hz
Channels: 2
Bits per sample: 16
Bitrate: 804 kbps
Codec: FLAC
================================================================================



Yes ‎- The Steven Wilson Remixes (2018) [6LP Box Set, Vinyl Rip 16/44 & mp3-320 + 3xDVD] Re-up

Tracklist LP2 - 1971 - The Yes Album:

A1 Yours Is No Disgrace
A2 Clap
Starship Trooper
A3 A. Life Seeker
A3 B. Disillusion
A3 C. Wurm
I've Seen All Good People
B1 A. Your Move
B1 B. All Good People
B2 A Venture
B3 Perpetual Change

foobar2000 1.2.9 / Dynamic Range Meter 1.1.1
log date: 2018-08-28 00:48:37

––––––––––––––––––––––––––––––––––––––––
Analyzed: Yes / The Yes Album
––––––––––––––––––––––––––––––––––––––––

DR Peak RMS Duration Track
––––––––––––––––––––––––––––––––––––––––
DR14 -1.36 dB -18.78 dB 9:44 01-A1 Yours Is No Disgrace
DR16 -3.00 dB -22.13 dB 3:18 02-A2 Clap
DR13 -0.52 dB -17.75 dB 9:33 03-A3 Starship Trooper (A. Life Seeker, B. Disillusion, C. Wurm)
DR15 -0.54 dB -19.31 dB 7:01 04-B1 I’ve Seen All Good People (A. Your Move, B. All Good People)
DR14 -2.27 dB -19.47 dB 3:32 05-B2 A Venture
DR13 -1.63 dB -17.84 dB 8:53 06-B3 Perpetual Change
––––––––––––––––––––––––––––––––––––––––

Number of tracks: 6
Official DR value: DR14

Samplerate: 44100 Hz
Channels: 2
Bits per sample: 16
Bitrate: 814 kbps
Codec: FLAC
================================================================================



Yes ‎- The Steven Wilson Remixes (2018) [6LP Box Set, Vinyl Rip 16/44 & mp3-320 + 3xDVD] Re-up

Tracklist LP3 - 1972 - Close To The Edge:

A1 Close To The Edge

B1 And You And I
B2 Siberian Khatru

foobar2000 1.2.9 / Dynamic Range Meter 1.1.1
log date: 2018-08-28 00:49:10

––––––––––––––––––––––––––––––––––––––––
Analyzed: Yes / Close To The Edge
––––––––––––––––––––––––––––––––––––––––

DR Peak RMS Duration Track
––––––––––––––––––––––––––––––––––––––––
DR13 -0.60 dB -17.37 dB 18:40 01-A1 Close To The Edge
DR13 -2.00 dB -19.17 dB 10:11 02-B1 And You And I
DR13 -0.64 dB -17.49 dB 8:59 03-B2 Siberian Khatru
––––––––––––––––––––––––––––––––––––––––

Number of tracks: 3
Official DR value: DR13

Samplerate: 44100 Hz
Channels: 2
Bits per sample: 16
Bitrate: 844 kbps
Codec: FLAC
================================================================================



Yes ‎- The Steven Wilson Remixes (2018) [6LP Box Set, Vinyl Rip 16/44 & mp3-320 + 3xDVD] Re-up

Tracklist LP4-5 - 1973 - Tales From The Topographic Ocean:

A1 The Revealing Science Of God (Dance Of The Dawn)
B1 The Remembering (High The Memory)

C1 The Ancient (Giants Under The Sun)
D1 The Ritual (Nous Sommes Du Soleil)

foobar2000 1.2.9 / Dynamic Range Meter 1.1.1
log date: 2018-08-28 00:49:50

––––––––––––––––––––––––––––––––––––––––
Analyzed: Yes / Tales From Topograhpic Oceans
––––––––––––––––––––––––––––––––––––––––

DR Peak RMS Duration Track
––––––––––––––––––––––––––––––––––––––––
DR13 -0.51 dB -17.55 dB 20:17 01-A1 The Revealing Science Of God (Dance Of The Dawn)
DR13 -0.54 dB -17.91 dB 20:31 02-B1 The Remembering (High The Memory)
DR13 -0.63 dB -18.71 dB 18:41 03-C1 The Ancient (Giants Under The Sun)
DR13 -0.61 dB -17.59 dB 21:43 04-D1 The Ritual (Nous Sommes Du Soleil)
––––––––––––––––––––––––––––––––––––––––

Number of tracks: 4
Official DR value: DR13

Samplerate: 44100 Hz
Channels: 2
Bits per sample: 16
Bitrate: 864 kbps
Codec: FLAC
================================================================================



Yes ‎- The Steven Wilson Remixes (2018) [6LP Box Set, Vinyl Rip 16/44 & mp3-320 + 3xDVD] Re-up

Tracklist LP6 - 1974 - Relayer:

A1 The Gates Of Delerium

B1 Sound Chaser
B2 To Be Over

foobar2000 1.2.9 / Dynamic Range Meter 1.1.1
log date: 2018-08-28 00:50:30

––––––––––––––––––––––––––––––––––––––––
Analyzed: Yes / Relayer
––––––––––––––––––––––––––––––––––––––––

DR Peak RMS Duration Track
––––––––––––––––––––––––––––––––––––––––
DR12 -0.65 dB -16.93 dB 21:59 01-A1 The Gates Of Delerium
DR13 -0.52 dB -17.53 dB 9:29 02-B1 Sound Chaser
DR11 -0.82 dB -16.17 dB 9:11 03-B2 To Be Over
––––––––––––––––––––––––––––––––––––––––

Number of tracks: 3
Official DR value: DR12

Samplerate: 44100 Hz
Channels: 2
Bits per sample: 16
Bitrate: 829 kbps
Codec: FLAC
================================================================================



Title: DVD1
Size: 2.71 Gb ( 2 842 402,00 KBytes ) - DVD-5
Enabled regions: 1, 2, 3, 4, 5, 6, 7, 8

VTS_01 :
Play Length: 00:41:08+00:41:58+00:37:47+01:21:06+00:40:36
Video: NTSC 4:3 (720x480) VBR
Audio:
Not specified (LinearPCM, 2 ch)


Title: DVD2
Size: 4.01 Gb ( 4 206 630,00 KBytes ) - DVD-5
Enabled regions: 1, 2, 3, 4, 5, 6, 7, 8

VTS_01 :
Play Length: 00:41:08+00:41:58+00:37:47
Video: NTSC 4:3 (720x480) VBR
Audio:
Not specified (LinearPCM, 2 ch)


Title: DVD3
Size: 4.04 Gb ( 4 232 836,00 KBytes ) - DVD-5
Enabled regions: 1, 2, 3, 4, 5, 6, 7, 8

VTS_01 :
Play Length: 01:21:06+00:40:36
Video: NTSC 4:3 (720x480) VBR
Audio:
Not specified (LinearPCM, 2 ch)



Original ripper: ?
Original format: 24/96
Direct Drive Turntable: Clearaudio “Custom”
Cartridge: Clearaudio MAESTRO V2 MM
Amplifier: Pro-Ject Phono Box RS
ADC: Tascam DR100 MKII
Postprocessing: manuall Light de-Clicking, no De-Nois

Downsampled to 16/44

Yes ‎- The Steven Wilson Remixes (2018) [6LP Box Set, Vinyl Rip 16/44 & mp3-320 + 3xDVD] Re-up

Yes ‎- The Steven Wilson Remixes (2018) [6LP Box Set, Vinyl Rip 16/44 & mp3-320 + 3xDVD] Re-up

Yes ‎- The Steven Wilson Remixes (2018) [6LP Box Set, Vinyl Rip 16/44 & mp3-320 + 3xDVD] Re-up

Yes in my Blog

Download Yes ‎– The Steven Wilson Remixes (2018):