Subcategories
Tags
Language
Tags

Yosefa - Yosefa (1993)

Posted By: popsakov
Yosefa - Yosefa (1993)

Yosefa - Yosefa (1993)
EAC Rip | WavPack (Img) + Cue + Log ~ 347 Mb | MP3 CBR320 ~ 167 Mb
Full Scans | 00:40:37 | RAR 5% Recovery
World, Folk, Electronic, Worldbeat, Dance | Oasis Productions Ltd. #7201-2

Yosefa Dahari is an Israeli singer born of Yemeni and Moroccan parents. Her style blends world beat electronic dance music beats with traditional singing styles of the Morocco and Yemen. Born Yosefa Dahari, she lives in Israel. Her recordings include Middle Eastern instruments such as the kanun, oud, zourna, darbouka and tin drum, as well as European instruments. Her style has been characterized as following in the tradition of the late Yemeni-Israeli singer Ofra Haza.

Yosefa is an exotic 22 year old Moroccan/Yemenite woman who with this, her self-titled debut recording, singularly defines the cutting edge of the current worldbeat dance craze. Yosefa's music is at once an amalgam of everything daring and exciting about worldbeat dance music, yet remains defiantly unique. Famed Israeli producer Zvika Kagen chose a program of compelling Moroccan and Yemenite classic songs, performed with authentic Middle Eastern instruments, including kanoun, oud, zourna, Eastern violin and clarinet, darbouka and tin drum, as well as various Western instruments. The result is an astounding soundscape that perfectly compliments Yosefa's hauntingly seductive voice…

~ All Music

***************

Yosefa - Yosefa (1993)

Yosefa - Yosefa (1993)

Track List:

01. Ya Rabta Zrabiya [0:03:59.45]
02. Rachalak Ra'ak Alla [0:04:35.65]
03. Al Ail Ezzarga [0:03:56.13]
04. Yaraya [0:04:50.00]
05. Ali Kelbu Safi [0:04:05.35]
06. Rai Lakh Iam [0:04:33.12]
07. Sidi Hbibi [0:04:04.15]
08. Yachilwi Yachali [0:03:33.45]
09. Ya Tair [0:05:03.35]
10. Yaraya [0:01:54.60]

Exact Audio Copy V1.3 from 2. September 2016

EAC extraction logfile from 21. October 2016, 13:57

Yosefa / Yosefa

Used drive : HL-DT-STDVDRAM GH24NSC0 Adapter: 1 ID: 0

Read mode : Secure
Utilize accurate stream : Yes
Defeat audio cache : Yes
Make use of C2 pointers : No

Read offset correction : 6
Overread into Lead-In and Lead-Out : No
Fill up missing offset samples with silence : Yes
Delete leading and trailing silent blocks : No
Null samples used in CRC calculations : Yes
Used interface : Native Win32 interface for Win NT & 2000

Used output format : Internal WAV Routines
Sample format : 44.100 Hz; 16 Bit; Stereo


TOC of the extracted CD

Track | Start | Length | Start sector | End sector
––––––––––––––––––––––––––––-
1 | 0:00.32 | 3:59.45 | 32 | 18001
2 | 4:00.02 | 4:35.65 | 18002 | 38691
3 | 8:35.67 | 3:56.13 | 38692 | 56404
4 | 12:32.05 | 4:50.00 | 56405 | 78154
5 | 17:22.05 | 4:05.35 | 78155 | 96564
6 | 21:27.40 | 4:33.12 | 96565 | 117051
7 | 26:00.52 | 4:04.15 | 117052 | 135366
8 | 30:04.67 | 3:33.45 | 135367 | 151386
9 | 33:38.37 | 5:03.35 | 151387 | 174146
10 | 38:41.72 | 1:54.60 | 174147 | 182756


Range status and errors

Selected range

Filename C:\Music CD\Yosefa - Yosefa.wav

Peak level 100.0 %
Extraction speed 1.6 X
Range quality 100.0 %
Test CRC 016197B8
Copy CRC 016197B8
Copy OK

No errors occurred


AccurateRip summary

Track 1 accurately ripped (confidence 1) [BB4B5790] (AR v2)
Track 2 accurately ripped (confidence 1) [EBB22D2D] (AR v2)
Track 3 accurately ripped (confidence 1) [079F4738] (AR v2)
Track 4 accurately ripped (confidence 1) [507BFEFA] (AR v2)
Track 5 accurately ripped (confidence 1) [442AD593] (AR v2)
Track 6 accurately ripped (confidence 1) [CD98B725] (AR v2)
Track 7 accurately ripped (confidence 1) [6932C39F] (AR v2)
Track 8 accurately ripped (confidence 1) [CB948A6E] (AR v2)
Track 9 accurately ripped (confidence 1) [186617EF] (AR v2)
Track 10 accurately ripped (confidence 1) [B3615958] (AR v2)

All tracks accurately ripped

End of status report

–– CUETools DB Plugin V2.1.6

[CTDB TOCID: .vRsWOx9uEhpoxT78kQEhfK8YnI-] disk not present in database
Submit result: .vRsWOx9uEhpoxT78kQEhfK8YnI- has been uploaded


==== Log checksum E854758CD95E030C704B3583BE889DF6E48FBD1F9C0D5ECE082AD3B107013484 ====

Yosefa - Yosefa (1993)


All thanks go to edenika

>>> My Blog <<<

DOWNLOAD: