Subcategories

Ben Frost - Dark: Cycle 1 (Original Music From The Netflix Series) (2019)

Posted By: aasana
Ben Frost - Dark: Cycle 1 (Original Music From The Netflix Series) (2019)

Ben Frost - Dark: Cycle 1 (2019)
EAC Rip | FLAC (tracks+.cue) | 00:41:31 | 180,35 MB
Experimental, Ambient, Modern Classical, Soundtrack, Score | Label: INVADA Records

The music of Ben Frost is about contrast; influenced as much by Classical Minimalism as by Punk Rock and Metal, Frost's throbbing guitar-based textures emerge from nothing and slowly coalesce into huge, forbidding forms that often eschew conventional structures in favor of the inevitable unfoldings of vast mechanical systems.

Tracklist:
01. Ben Frost - Alles Ist Miteinander Verbunden (2:36)
02. Ben Frost - Ein Mensch - Ein Schmetterling (2:03)
03. Ben Frost - Die Ho¨lle Ist Leer, Alle Teufel Sind Hier (5:04)
04. Ben Frost - Tick Tack, Tick Tack (2:53)
05. Ben Frost - Warum Nicht Waldweg (2:13)
06. Ben Frost - Apokalypse (3:32)
07. Ben Frost - Kein DeLorean (2:52)
08. Ben Frost - Das Ist Nicht Mikkel (2:30)
09. Ben Frost - Eine Reise Durch Die Zeit (2:32)
10. Ben Frost - Ich kann die Vergangenheit Ĩndern (2:08)
11. Ben Frost - Gott Gib Mir Gelassenheit (2:52)
12. Ben Frost - Wo Ist U¨bergang (9:40)

Exact Audio Copy V1.3 from 2. September 2016

EAC extraction logfile from 29. November 2019, 19:53

Ben Frost / Dark: Cycle 1

Used drive : ATAPI DVD A DH16AASH Adapter: 1 ID: 0

Read mode : Secure
Utilize accurate stream : Yes
Defeat audio cache : Yes
Make use of C2 pointers : No

Read offset correction : 6
Overread into Lead-In and Lead-Out : No
Fill up missing offset samples with silence : Yes
Delete leading and trailing silent blocks : No
Null samples used in CRC calculations : Yes
Used interface : Native Win32 interface for Win NT & 2000
Gap handling : Appended to previous track

Used output format : User Defined Encoder
Selected bitrate : 1024 kBit/s
Quality : High
Add ID3 tag : No
Command line compressor : C:\Program Files (x86)\Exact Audio Copy\Flac\flac.exe
Additional command line options : -8 -e -V -T "ARTIST=%artist%" -T "TITLE=%title%" -T "ALBUM=%albumtitle%" -T "DATE=%year%" -T "TRACKNUMBER=%tracknr%" -T "GENRE=%genre%" -T "PERFORMER=%albuminterpret%" -T "COMPOSER=%composer%" %haslyrics%–tag-from-file=LYRICS="%lyricsfile%"%haslyrics% -T "ALBUMARTIST=%albumartist%" -T "DISCNUMBER=%cdnumber%" -T "TOTALDISCS=%totalcds%" -T "TOTALTRACKS=%numtracks%" -T "COMMENT=%comment%" %source% -o %dest%


TOC of the extracted CD

Track | Start | Length | Start sector | End sector
––––––––––––––––––––––––––––-
1 | 0:00.00 | 2:40.01 | 0 | 12000
2 | 2:40.01 | 2:05.69 | 12001 | 21444
3 | 4:45.70 | 5:07.22 | 21445 | 44491
4 | 9:53.17 | 2:55.41 | 44492 | 57657
5 | 12:48.58 | 2:15.71 | 57658 | 67853
6 | 15:04.54 | 3:34.42 | 67854 | 83945
7 | 18:39.21 | 2:55.29 | 83946 | 97099
8 | 21:34.50 | 2:33.34 | 97100 | 108608
9 | 24:08.09 | 2:35.01 | 108609 | 120234
10 | 26:43.10 | 2:11.13 | 120235 | 130072
11 | 28:54.23 | 2:55.13 | 130073 | 143210
12 | 31:49.36 | 9:41.70 | 143211 | 186855


Track 1

Filename Q:\Music04_moviez\D\Dark꞉ Cycle 1 (2019, FLAC) - Ben Frost\01 - Alles Ist Miteinander Verbunden.wav

Pre-gap length 0:00:02.00

Peak level 99.7 %
Extraction speed 2.3 X
Track quality 99.9 %
Test CRC 1005C34E
Copy CRC 1005C34E
Track not present in AccurateRip database
Copy OK

Track 2

Filename Q:\Music04_moviez\D\Dark꞉ Cycle 1 (2019, FLAC) - Ben Frost\02 - Ein Mensch - Ein Schmetterling.wav

Pre-gap length 0:00:02.78

Peak level 88.8 %
Extraction speed 3.2 X
Track quality 100.0 %
Test CRC 619CDD3B
Copy CRC 619CDD3B
Track not present in AccurateRip database
Copy OK

Track 3

Filename Q:\Music04_moviez\D\Dark꞉ Cycle 1 (2019, FLAC) - Ben Frost\03 - Die Hölle Ist Leer, Alle Teufel Sind Hier.wav

Pre-gap length 0:00:02.78

Peak level 99.8 %
Extraction speed 4.0 X
Track quality 100.0 %
Test CRC 9D66E495
Copy CRC 9D66E495
Track not present in AccurateRip database
Copy OK

Track 4

Filename Q:\Music04_moviez\D\Dark꞉ Cycle 1 (2019, FLAC) - Ben Frost\04 - Tick Tack, Tick Tack.wav

Pre-gap length 0:00:02.78

Peak level 99.7 %
Extraction speed 4.0 X
Track quality 100.0 %
Test CRC 72ADCA3B
Copy CRC 72ADCA3B
Track not present in AccurateRip database
Copy OK

Track 5

Filename Q:\Music04_moviez\D\Dark꞉ Cycle 1 (2019, FLAC) - Ben Frost\05 - Warum Nicht Waldweg.wav

Pre-gap length 0:00:02.78

Peak level 99.7 %
Extraction speed 3.9 X
Track quality 100.0 %
Test CRC 8CF8AA53
Copy CRC 8CF8AA53
Track not present in AccurateRip database
Copy OK

Track 6

Filename Q:\Music04_moviez\D\Dark꞉ Cycle 1 (2019, FLAC) - Ben Frost\06 - Apokalypse.wav

Pre-gap length 0:00:02.78

Peak level 99.7 %
Extraction speed 4.5 X
Track quality 100.0 %
Test CRC 1475DFB3
Copy CRC 1475DFB3
Track not present in AccurateRip database
Copy OK

Track 7

Filename Q:\Music04_moviez\D\Dark꞉ Cycle 1 (2019, FLAC) - Ben Frost\07 - Kein DeLorean.wav

Pre-gap length 0:00:02.78

Peak level 99.7 %
Extraction speed 4.6 X
Track quality 100.0 %
Test CRC 1F8CB554
Copy CRC 1F8CB554
Track not present in AccurateRip database
Copy OK

Track 8

Filename Q:\Music04_moviez\D\Dark꞉ Cycle 1 (2019, FLAC) - Ben Frost\08 - Das Ist Nicht Mikkel.wav

Pre-gap length 0:00:02.78

Peak level 99.7 %
Extraction speed 4.7 X
Track quality 100.0 %
Test CRC 6A1617C6
Copy CRC 6A1617C6
Track not present in AccurateRip database
Copy OK

Track 9

Filename Q:\Music04_moviez\D\Dark꞉ Cycle 1 (2019, FLAC) - Ben Frost\09 - Eine Reise Durch Die Zeit.wav

Pre-gap length 0:00:02.78

Peak level 99.7 %
Extraction speed 3.6 X
Track quality 99.9 %
Test CRC B46A70B6
Copy CRC B46A70B6
Track not present in AccurateRip database
Copy OK

Track 10

Filename Q:\Music04_moviez\D\Dark꞉ Cycle 1 (2019, FLAC) - Ben Frost\10 - Ich kann die Vergangenheit Ändern.wav

Pre-gap length 0:00:02.78

Peak level 99.8 %
Extraction speed 4.8 X
Track quality 100.0 %
Test CRC 07C1762D
Copy CRC 07C1762D
Track not present in AccurateRip database
Copy OK

Track 11

Filename Q:\Music04_moviez\D\Dark꞉ Cycle 1 (2019, FLAC) - Ben Frost\11 - Gott Gib Mir Gelassenheit.wav

Pre-gap length 0:00:02.78

Peak level 99.8 %
Extraction speed 5.3 X
Track quality 100.0 %
Test CRC 947FE923
Copy CRC 947FE923
Track not present in AccurateRip database
Copy OK

Track 12

Filename Q:\Music04_moviez\D\Dark꞉ Cycle 1 (2019, FLAC) - Ben Frost\12 - Wo Ist Übergang.wav

Pre-gap length 0:00:02.78

Peak level 99.9 %
Extraction speed 6.5 X
Track quality 100.0 %
Test CRC FFD4FB59
Copy CRC FFD4FB59
Track not present in AccurateRip database
Copy OK


None of the tracks are present in the AccurateRip database

No errors occurred

End of status report

–– CUETools DB Plugin V2.1.6

[CTDB TOCID: gYB5N9QrGblCUFNAKDZAq5g7uAk-] disk not present in database
Submit result: gYB5N9QrGblCUFNAKDZAq5g7uAk- has been uploaded


==== Log checksum 00304EFB533EA3CD1AA65956188D77AC1B56E9E72C030DC7A7DD0CAD963065EA ====